   0
SECTION
   2
HEADER
   9
$ACADVER
   1
AC1015
   9
$DWGCODEPAGE
   3
ANSI_932
   9
$LIMMIN
  10
0.0
  20
0.0
   9
$LIMMAX
  10
 210.00000000000
  20
 148.50000000000
   9
$EXTMIN
  10
0.0
  20
0.0
  30
0.0
   9
$EXTMAX
  10
 210.00000000000
  20
 148.50000000000
  30
0.0
   9
$LTSCALE
  40
 4.2000000000000
   9
$HANDSEED
   5
5F8
   0
ENDSEC
   0
SECTION
   2
TABLES
  0
TABLE
  2
VPORT
  5
8
100
AcDbSymbolTable
 70
     1
  0
VPORT
  5
5F7
100
AcDbSymbolTableRecord
100
AcDbViewportTableRecord
  2
*ACTIVE
 70
     0
 10
0.0
 20
0.0
 11
1.0
 21
1.0
  12
 105.00000000000
  22
 74.250000000000
 13
0.0
 23
0.0
 14
1.0
 24
1.0
 15
0.0
 25
0.0
 16
0.0
 26
0.0
 36
1.0
 17
0.0
 27
0.0
 37
0.0
  40
 210.00000000000
  41
 1.4787878787879
 42
50.0
 43
0.0
 44
0.0
 50
0.0
 51
0.0
 71
     0
 72
   100
 73
     1
 74
     1
 75
     0
 76
     0
 77
     0
 78
     0
  0
ENDTAB
  0
TABLE
  2
LTYPE
  5
5
100
AcDbSymbolTable
 70
    25
  0
LTYPE
  5
12
100
AcDbSymbolTableRecord
100
AcDbLinetypeTableRecord
  2
BYBLOCK
 70
     0
  3

 72
    65
 73
     0
 40
0.0
  0
LTYPE
  5
13
100
AcDbSymbolTableRecord
100
AcDbLinetypeTableRecord
  2
BYLAYER
 70
     0
  3

 72
    65
 73
     0
 40
0.0
  0
LTYPE
  5
14
100
AcDbSymbolTableRecord
100
AcDbLinetypeTableRecord
  2
CONTINUOUS
 70
     0
  3
Solid line
 72
    65
 73
     0
 40
0.0
  0
LTYPE
  5
20
100
AcDbSymbolTableRecord
100
AcDbLinetypeTableRecord
  2
BORDER
 70
     0
  3
__ __ . __ __ . __ __ . __ __ . __ __ . __ __ .
 72
    65
 73
     6
 40
1.75
 49
0.5
 74
     0
 49
-0.25
 74
     0
 49
0.5
 74
     0
 49
-0.25
 74
     0
 49
0.0
 74
     0
 49
-0.25
 74
     0
  0
LTYPE
  5
21
100
AcDbSymbolTableRecord
100
AcDbLinetypeTableRecord
  2
BORDER2
 70
     0
  3
__.__.__.__.__.__.__.__.__.__.__.__.__.__.__.__
 72
    65
 73
     6
 40
0.875
 49
0.25
 74
     0
 49
-0.125
 74
     0
 49
0.25
 74
     0
 49
-0.125
 74
     0
 49
0.0
 74
     0
 49
-0.125
 74
     0
  0
LTYPE
  5
22
100
AcDbSymbolTableRecord
100
AcDbLinetypeTableRecord
  2
BORDERX2
 70
     0
  3
____  ____  .  ____  ____  .  ____  ____  .  __
 72
    65
 73
     6
 40
3.5
 49
1.0
 74
     0
 49
-0.5
 74
     0
 49
1.0
 74
     0
 49
-0.5
 74
     0
 49
0.0
 74
     0
 49
-0.5
 74
     0
  0
LTYPE
  5
23
100
AcDbSymbolTableRecord
100
AcDbLinetypeTableRecord
  2
CENTER
 70
     0
  3
____ _ ____ _ ____ _ ____ _ ____ _ ____ _ ____ 
 72
    65
 73
     4
 40
2.0
 49
1.25
 74
     0
 49
-0.25
 74
     0
 49
0.25
 74
     0
 49
-0.25
 74
     0
  0
LTYPE
  5
24
100
AcDbSymbolTableRecord
100
AcDbLinetypeTableRecord
  2
CENTER2
 70
     0
  3
___ _ ___ _ ___ _ ___ _ ___ _ ___ _ ___ _ ___ _
 72
    65
 73
     4
 40
1.125
 49
0.75
 74
     0
 49
-0.125
 74
     0
 49
0.125
 74
     0
 49
-0.125
 74
     0
  0
LTYPE
  5
25
100
AcDbSymbolTableRecord
100
AcDbLinetypeTableRecord
  2
CENTERX2
 70
     0
  3
________  __  ________  __  ________  __  _____
 72
    65
 73
     4
 40
4.0
 49
2.5
 74
     0
 49
-0.5
 74
     0
 49
0.5
 74
     0
 49
-0.5
 74
     0
  0
LTYPE
  5
26
100
AcDbSymbolTableRecord
100
AcDbLinetypeTableRecord
  2
DASHDOT
 70
     0
  3
__ . __ . __ . __ . __ . __ . __ . __ . __ . __
 72
    65
 73
     4
 40
1.0
 49
0.5
 74
     0
 49
-0.25
 74
     0
 49
0.0
 74
     0
 49
-0.25
 74
     0
  0
LTYPE
  5
27
100
AcDbSymbolTableRecord
100
AcDbLinetypeTableRecord
  2
DASHDOT2
 70
     0
  3
_._._._._._._._._._._._._._._._._._._._._._._._
 72
    65
 73
     4
 40
0.5
 49
0.25
 74
     0
 49
-0.125
 74
     0
 49
0.0
 74
     0
 49
-0.125
 74
     0
  0
LTYPE
  5
28
100
AcDbSymbolTableRecord
100
AcDbLinetypeTableRecord
  2
DASHDOTX2
 70
     0
  3
____  .  ____  .  ____  .  ____  .  ____  .  __
 72
    65
 73
     4
 40
2.0
 49
1.0
 74
     0
 49
-0.5
 74
     0
 49
0.0
 74
     0
 49
-0.5
 74
     0
  0
LTYPE
  5
29
100
AcDbSymbolTableRecord
100
AcDbLinetypeTableRecord
  2
DASHED
 70
     0
  3
__ __ __ __ __ __ __ __ __ __ __ __ __ __ __ __
 72
    65
 73
     2
 40
0.75
 49
0.5
 74
     0
 49
-0.25
 74
     0
  0
LTYPE
  5
2A
100
AcDbSymbolTableRecord
100
AcDbLinetypeTableRecord
  2
DASHED2
 70
     0
  3
_ _ _ _ _ _ _ _ _ _ _ _ _ _ _ _ _ _ _ _ _ _ _ _
 72
    65
 73
     2
 40
0.375
 49
0.25
 74
     0
 49
-0.125
 74
     0
  0
LTYPE
  5
2B
100
AcDbSymbolTableRecord
100
AcDbLinetypeTableRecord
  2
DASHEDX2
 70
     0
  3
____  ____  ____  ____  ____  ____  ____  ____ 
 72
    65
 73
     2
 40
1.5
 49
1.0
 74
     0
 49
-0.5
 74
     0
  0
LTYPE
  5
2C
100
AcDbSymbolTableRecord
100
AcDbLinetypeTableRecord
  2
DIVIDE
 70
     0
  3
____ . . ____ . . ____ . . ____ . . ____ . . __
 72
    65
 73
     6
 40
1.25
 49
0.5
 74
     0
 49
-0.25
 74
     0
 49
0.0
 74
     0
 49
-0.25
 74
     0
 49
0.0
 74
     0
 49
-0.25
 74
     0
  0
LTYPE
  5
2D
100
AcDbSymbolTableRecord
100
AcDbLinetypeTableRecord
  2
DIVIDE2
 70
     0
  3
__..__..__..__..__..__..__..__..__..__..__..__.
 72
    65
 73
     6
 40
0.625
 49
0.25
 74
     0
 49
-0.125
 74
     0
 49
0.0
 74
     0
 49
-0.125
 74
     0
 49
0.0
 74
     0
 49
-0.125
 74
     0
  0
LTYPE
  5
2E
100
AcDbSymbolTableRecord
100
AcDbLinetypeTableRecord
  2
DIVIDEX2
 70
     0
  3
________  .  .  ________  .  .  ________  .  . 
 72
    65
 73
     6
 40
2.5
 49
1.0
 74
     0
 49
-0.5
 74
     0
 49
0.0
 74
     0
 49
-0.5
 74
     0
 49
0.0
 74
     0
 49
-0.5
 74
     0
  0
LTYPE
  5
2F
100
AcDbSymbolTableRecord
100
AcDbLinetypeTableRecord
  2
DOT
 70
     0
  3
. . . . . . . . . . . . . . . . . . . . . . . .
 72
    65
 73
     2
 40
0.25
 49
0.0
 74
     0
 49
-0.25
 74
     0
  0
LTYPE
  5
30
100
AcDbSymbolTableRecord
100
AcDbLinetypeTableRecord
  2
DOT2
 70
     0
  3
...............................................
 72
    65
 73
     2
 40
0.125
 49
0.0
 74
     0
 49
-0.125
 74
     0
  0
LTYPE
  5
31
100
AcDbSymbolTableRecord
100
AcDbLinetypeTableRecord
  2
DOTX2
 70
     0
  3
.  .  .  .  .  .  .  .  .  .  .  .  .  .  .  . 
 72
    65
 73
     2
 40
0.5
 49
0.0
 74
     0
 49
-0.5
 74
     0
  0
LTYPE
  5
32
100
AcDbSymbolTableRecord
100
AcDbLinetypeTableRecord
  2
HIDDEN
 70
     0
  3
__ __ __ __ __ __ __ __ __ __ __ __ __ __ __ __
 72
    65
 73
     2
 40
0.375
 49
0.25
 74
     0
 49
-0.125
 74
     0
  0
LTYPE
  5
33
100
AcDbSymbolTableRecord
100
AcDbLinetypeTableRecord
  2
HIDDEN2
 70
     0
  3
_ _ _ _ _ _ _ _ _ _ _ _ _ _ _ _ _ _ _ _ _ _ _ _
 72
    65
 73
     2
 40
0.1875
 49
0.125
 74
     0
 49
-0.0625
 74
     0
  0
LTYPE
  5
34
100
AcDbSymbolTableRecord
100
AcDbLinetypeTableRecord
  2
HIDDENX2
 70
     0
  3
____ ____ ____ ____ ____ ____ ____ ____ ____ __
 72
    65
 73
     2
 40
0.75
 49
0.5
 74
     0
 49
-0.25
 74
     0
  0
LTYPE
  5
35
100
AcDbSymbolTableRecord
100
AcDbLinetypeTableRecord
  2
PHANTOM
 70
     0
  3
______  __  __  ______  __  __  ______  __  __ 
 72
    65
 73
     6
 40
2.5
 49
1.25
 74
     0
 49
-0.25
 74
     0
 49
0.25
 74
     0
 49
-0.25
 74
     0
 49
0.25
 74
     0
 49
-0.25
 74
     0
  0
LTYPE
  5
36
100
AcDbSymbolTableRecord
100
AcDbLinetypeTableRecord
  2
PHANTOM2
 70
     0
  3
___ _ _ ___ _ _ ___ _ _ ___ _ _ ___ _ _ ___ _ _
 72
    65
 73
     6
 40
1.25
 49
0.625
 74
     0
 49
-0.125
 74
     0
 49
0.125
 74
     0
 49
-0.125
 74
     0
 49
0.125
 74
     0
 49
-0.125
 74
     0
  0
LTYPE
  5
37
100
AcDbSymbolTableRecord
100
AcDbLinetypeTableRecord
  2
PHANTOMX2
 70
     0
  3
____________    ____    ____    ____________   
 72
    65
 73
     6
 40
5.0
 49
2.5
 74
     0
 49
-0.5
 74
     0
 49
0.5
 74
     0
 49
-0.5
 74
     0
 49
0.5
 74
     0
 49
-0.5
 74
     0
  0
ENDTAB
   0
TABLE
   2
LAYER
   5
2
 100
AcDbSymbolTable
  70
3
   0
LAYER
   5
E
 100
AcDbSymbolTableRecord
 100
AcDbLayerTableRecord
   2
0
  70
0
  62
7
   6
CONTINUOUS
 390
30
   0
LAYER
   5
39
 100
AcDbSymbolTableRecord
 100
AcDbLayerTableRecord
   2
LEVEL001
  70
0
  62
7
   6
CONTINUOUS
 390
30
   0
LAYER
   5
3A
 100
AcDbSymbolTableRecord
 100
AcDbLayerTableRecord
   2
LEVEL002
  70
0
  62
7
   6
CONTINUOUS
 390
30
   0
ENDTAB
  0
TABLE
  2
STYLE
  5
3
100
AcDbSymbolTable
  70
6
  0
STYLE
  5
F
100
AcDbSymbolTableRecord
100
AcDbTextStyleTableRecord
  2
STANDARD
 70
     0
 40
0.0
 41
1.0
 50
0.0
 71
     0
 42
0.2
  3
TXT
  4
BIGFONT
  0
STYLE
  5
38
100
AcDbSymbolTableRecord
100
AcDbTextStyleTableRecord
  2
STANDARD1
 70
     4
 40
0.0
 41
1.0
 50
0.0
 71
     0
 42
0.2
  3
TXT
  4
BIGFONT
   0
STYLE
   5
3B
 100
AcDbSymbolTableRecord
 100
AcDbTextStyleTableRecord
   2
GMM001
  70
0
  40
0.0
  41
 0.80000000000000
  50
0.0
  71
     0
  42
1.0
   3
txt.shx
   4
bigfont.shx
   0
STYLE
   5
3C
 100
AcDbSymbolTableRecord
 100
AcDbTextStyleTableRecord
   2
GMM002
  70
0
  40
0.0
  41
 1.0000000000000
  50
0.0
  71
     0
  42
1.0
   3
txt.shx
   4
bigfont.shx
   0
STYLE
   5
3D
 100
AcDbSymbolTableRecord
 100
AcDbTextStyleTableRecord
   2
GMM003
  70
0
  40
0.0
  41
 1.0714285714286
  50
0.0
  71
     0
  42
1.0
   3
txt.shx
   4
bigfont.shx
   0
STYLE
   5
3E
 100
AcDbSymbolTableRecord
 100
AcDbTextStyleTableRecord
   2
GMM004
  70
0
  40
0.0
  41
 0.88888888888889
  50
0.0
  71
     0
  42
1.0
   3
txt.shx
   4
bigfont.shx
   0
ENDTAB
  0
TABLE
  2
VIEW
  5
6
100
AcDbSymbolTable
 70
     0
  0
ENDTAB
  0
TABLE
  2
UCS
  5
7
100
AcDbSymbolTable
 70
     0
  0
ENDTAB
  0
TABLE
  2
APPID
  5
9
100
AcDbSymbolTable
 70
     1
  0
APPID
  5
10
100
AcDbSymbolTableRecord
100
AcDbRegAppTableRecord
  2
ACAD
 70
     0
  0
ENDTAB
   0
TABLE
   2
DIMSTYLE
   5
A
 100
AcDbSymbolTable
  70
8
 100
AcDbDimStyleTable
  0
DIMSTYLE
105
1D
100
AcDbSymbolTableRecord
100
AcDbDimStyleTableRecord
  2
STANDARD
 70
     0
  3

  4

  5

  6

  7

 40
1.0
 41
0.18
 42
0.0625
 43
0.38
 44
0.18
 45
0.0
 46
0.0
 47
0.0
 48
0.0
140
0.18
141
0.09
142
0.0
143
25.4
144
1.0
145
0.0
146
1.0
147
0.09
 71
     0
 72
     0
 73
     1
 74
     1
 75
     0
 76
     0
 77
     0
 78
     0
170
     0
171
     2
172
     0
173
     0
174
     0
175
     0
176
     0
177
     0
178
     0
270
     2
271
     4
272
     4
273
     2
274
     2
340
F
275
     0
280
     0
281
     0
282
     0
283
     1
284
     0
285
     0
286
     0
287
     3
288
     0
   0
DIMSTYLE
 105
3F
 100
AcDbSymbolTableRecord
 100
AcDbDimStyleTableRecord
   2
GMM001
  70
0
   3

   4

   5

   6

   7

  40
 1.0000000000000
  41
 1.0000000000000
  42
 0.50000000000000
  43
 4.0000000000000
  44
 0.50000000000000
  45
0.0
  46
0.0
  47
0.0
  48
0.0
 140
 1.2500000000000
 141
 0.50000000000000
 142
0.0
 143
 0.39400000000000E-1
 144
 1.0000000000000
 145
0.0
 146
 1.0000000000000
 147
 0.50000000000000
  71
0
  72
0
  73
0
  74
0
  75
0
  76
0
  77
3
  78
8
 170
0
 171
2
 172
1
 173
1
 174
0
 175
0
 176
8
 177
8
 178
8
 270
2
 271
6
 272
0
 273
2
 274
2
 340
3C
 275
0
 280
0
 281
0
 282
0
 283
1
 284
0
 285
0
 286
0
 287
3
 288
0
   0
DIMSTYLE
 105
40
 100
AcDbSymbolTableRecord
 100
AcDbDimStyleTableRecord
   2
GMM002
  70
0
   3

   4

   5

   6
_NONE
   7

  40
 1.0000000000000
  41
 1.0000000000000
  42
 0.50000000000000
  43
 4.0000000000000
  44
 0.50000000000000
  45
0.0
  46
0.0
  47
0.0
  48
0.0
 140
 1.2500000000000
 141
 0.50000000000000
 142
0.0
 143
 0.39400000000000E-1
 144
 1.0000000000000
 145
0.0
 146
 1.0000000000000
 147
 0.50000000000000
  71
0
  72
0
  73
0
  74
0
  75
0
  76
0
  77
3
  78
8
 170
0
 171
2
 172
1
 173
1
 174
0
 175
0
 176
8
 177
8
 178
8
 270
2
 271
6
 272
0
 273
2
 274
2
 340
3C
 275
0
 280
0
 281
0
 282
0
 283
1
 284
0
 285
0
 286
0
 287
3
 288
0
   0
DIMSTYLE
 105
41
 100
AcDbSymbolTableRecord
 100
AcDbDimStyleTableRecord
   2
GMM003
  70
0
   3

   4

   5

   6
_NONE
   7

  40
 1.0000000000000
  41
 1.0000000000000
  42
 0.50000000000000
  43
 4.0000000000000
  44
 0.50000000000000
  45
0.0
  46
0.0
  47
0.0
  48
0.0
 140
 1.2500000000000
 141
 0.50000000000000
 142
0.0
 143
 0.39400000000000E-1
 144
 1.0000000000000
 145
0.0
 146
 1.0000000000000
 147
 0.49529563933038
  71
0
  72
0
  73
0
  74
0
  75
0
  76
0
  77
3
  78
8
 170
0
 171
2
 172
1
 173
1
 174
0
 175
0
 176
8
 177
8
 178
8
 270
2
 271
6
 272
0
 273
2
 274
2
 340
3C
 275
0
 280
0
 281
0
 282
0
 283
1
 284
0
 285
0
 286
0
 287
3
 288
1
   0
DIMSTYLE
 105
42
 100
AcDbSymbolTableRecord
 100
AcDbDimStyleTableRecord
   2
GMM004
  70
0
   3

   4

   5

   6
_NONE
   7

  40
 1.0000000000000
  41
 1.0000000000000
  42
 0.50000000000000
  43
 4.0000000000000
  44
 0.50000000000000
  45
0.0
  46
0.0
  47
0.0
  48
0.0
 140
 1.2500000000000
 141
 0.50000000000000
 142
0.0
 143
 0.39400000000000E-1
 144
 1.0000000000000
 145
0.0
 146
 1.0000000000000
 147
 0.58665931421805
  71
0
  72
0
  73
0
  74
0
  75
0
  76
0
  77
3
  78
8
 170
0
 171
2
 172
1
 173
1
 174
0
 175
0
 176
8
 177
8
 178
8
 270
2
 271
6
 272
0
 273
2
 274
2
 340
3C
 275
0
 280
0
 281
0
 282
0
 283
1
 284
0
 285
0
 286
0
 287
3
 288
1
   0
DIMSTYLE
 105
43
 100
AcDbSymbolTableRecord
 100
AcDbDimStyleTableRecord
   2
GMM005
  70
0
   3

   4

   5

   6
_NONE
   7

  40
 1.0000000000000
  41
 1.0000000000000
  42
 0.50000000000000
  43
 4.0000000000000
  44
 0.50000000000000
  45
0.0
  46
0.0
  47
0.0
  48
0.0
 140
 1.2500000000000
 141
 0.50000000000000
 142
0.0
 143
 0.39400000000000E-1
 144
 1.0000000000000
 145
0.0
 146
 1.0000000000000
 147
 0.51588044249696
  71
0
  72
0
  73
0
  74
0
  75
0
  76
0
  77
3
  78
8
 170
0
 171
2
 172
1
 173
1
 174
0
 175
0
 176
8
 177
8
 178
8
 270
2
 271
6
 272
0
 273
2
 274
2
 340
3C
 275
0
 280
0
 281
0
 282
0
 283
1
 284
0
 285
0
 286
0
 287
3
 288
1
   0
DIMSTYLE
 105
44
 100
AcDbSymbolTableRecord
 100
AcDbDimStyleTableRecord
   2
GMM006
  70
0
   3

   4

   5

   6

   7

  40
 1.0000000000000
  41
 1.0000000000000
  42
 0.50000000000000
  43
 4.0000000000000
  44
 0.50000000000000
  45
0.0
  46
0.0
  47
0.0
  48
0.0
 140
 1.2500000000000
 141
 0.50000000000000
 142
0.0
 143
 0.39400000000000E-1
 144
 1.0000000000000
 145
0.0
 146
 1.0000000000000
 147
 0.50000000000000
  71
0
  72
0
  73
0
  74
0
  75
0
  76
0
  77
3
  78
8
 170
0
 171
2
 172
1
 173
1
 174
0
 175
0
 176
8
 177
8
 178
8
 270
2
 271
6
 272
0
 273
2
 274
2
 340
3C
 275
0
 280
0
 281
0
 282
0
 283
1
 284
0
 285
0
 286
0
 287
3
 288
0
   0
ENDTAB
  0
TABLE
  2
BLOCK_RECORD
  5
1
100
AcDbSymbolTable
 70
     0
  0
BLOCK_RECORD
  5
18
100
AcDbSymbolTableRecord
100
AcDbBlockTableRecord
  2
*MODEL_SPACE
  0
BLOCK_RECORD
  5
15
100
AcDbSymbolTableRecord
100
AcDbBlockTableRecord
  2
*PAPER_SPACE
   0
BLOCK_RECORD
   5
45
 100
AcDbSymbolTableRecord
 100
AcDbBlockTableRecord
   2
*D1
   0
BLOCK_RECORD
   5
46
 100
AcDbSymbolTableRecord
 100
AcDbBlockTableRecord
   2
*D2
   0
BLOCK_RECORD
   5
47
 100
AcDbSymbolTableRecord
 100
AcDbBlockTableRecord
   2
*D3
   0
BLOCK_RECORD
   5
48
 100
AcDbSymbolTableRecord
 100
AcDbBlockTableRecord
   2
*D4
   0
BLOCK_RECORD
   5
49
 100
AcDbSymbolTableRecord
 100
AcDbBlockTableRecord
   2
*D5
   0
BLOCK_RECORD
   5
4A
 100
AcDbSymbolTableRecord
 100
AcDbBlockTableRecord
   2
*D6
   0
BLOCK_RECORD
   5
4B
 100
AcDbSymbolTableRecord
 100
AcDbBlockTableRecord
   2
*D7
   0
BLOCK_RECORD
   5
4C
 100
AcDbSymbolTableRecord
 100
AcDbBlockTableRecord
   2
*D8
   0
BLOCK_RECORD
   5
4D
 100
AcDbSymbolTableRecord
 100
AcDbBlockTableRecord
   2
*D9
   0
BLOCK_RECORD
   5
4E
 100
AcDbSymbolTableRecord
 100
AcDbBlockTableRecord
   2
*D10
   0
BLOCK_RECORD
   5
4F
 100
AcDbSymbolTableRecord
 100
AcDbBlockTableRecord
   2
*D11
   0
BLOCK_RECORD
   5
50
 100
AcDbSymbolTableRecord
 100
AcDbBlockTableRecord
   2
*D12
   0
BLOCK_RECORD
   5
51
 100
AcDbSymbolTableRecord
 100
AcDbBlockTableRecord
   2
*D13
   0
BLOCK_RECORD
   5
52
 100
AcDbSymbolTableRecord
 100
AcDbBlockTableRecord
   2
*D14
   0
BLOCK_RECORD
   5
53
 100
AcDbSymbolTableRecord
 100
AcDbBlockTableRecord
   2
*D15
   0
BLOCK_RECORD
   5
54
 100
AcDbSymbolTableRecord
 100
AcDbBlockTableRecord
   2
*D16
   0
BLOCK_RECORD
   5
55
 100
AcDbSymbolTableRecord
 100
AcDbBlockTableRecord
   2
*D17
   0
BLOCK_RECORD
   5
56
 100
AcDbSymbolTableRecord
 100
AcDbBlockTableRecord
   2
*D18
   0
BLOCK_RECORD
   5
57
 100
AcDbSymbolTableRecord
 100
AcDbBlockTableRecord
   2
*D19
   0
BLOCK_RECORD
   5
58
 100
AcDbSymbolTableRecord
 100
AcDbBlockTableRecord
   2
*D20
   0
BLOCK_RECORD
   5
59
 100
AcDbSymbolTableRecord
 100
AcDbBlockTableRecord
   2
*D21
   0
BLOCK_RECORD
   5
5A
 100
AcDbSymbolTableRecord
 100
AcDbBlockTableRecord
   2
*D22
   0
BLOCK_RECORD
   5
5B
 100
AcDbSymbolTableRecord
 100
AcDbBlockTableRecord
   2
*D23
   0
BLOCK_RECORD
   5
5C
 100
AcDbSymbolTableRecord
 100
AcDbBlockTableRecord
   2
*D24
   0
BLOCK_RECORD
   5
5D
 100
AcDbSymbolTableRecord
 100
AcDbBlockTableRecord
   2
*D25
   0
BLOCK_RECORD
   5
5E
 100
AcDbSymbolTableRecord
 100
AcDbBlockTableRecord
   2
*D26
   0
BLOCK_RECORD
   5
5F
 100
AcDbSymbolTableRecord
 100
AcDbBlockTableRecord
   2
*D27
   0
BLOCK_RECORD
   5
60
 100
AcDbSymbolTableRecord
 100
AcDbBlockTableRecord
   2
*D28
   0
BLOCK_RECORD
   5
61
 100
AcDbSymbolTableRecord
 100
AcDbBlockTableRecord
   2
*D29
   0
BLOCK_RECORD
   5
62
 100
AcDbSymbolTableRecord
 100
AcDbBlockTableRecord
   2
*D30
   0
BLOCK_RECORD
   5
63
 100
AcDbSymbolTableRecord
 100
AcDbBlockTableRecord
   2
*D31
   0
BLOCK_RECORD
   5
64
 100
AcDbSymbolTableRecord
 100
AcDbBlockTableRecord
   2
*D32
   0
BLOCK_RECORD
   5
65
 100
AcDbSymbolTableRecord
 100
AcDbBlockTableRecord
   2
*D33
   0
BLOCK_RECORD
   5
66
 100
AcDbSymbolTableRecord
 100
AcDbBlockTableRecord
   2
*D34
   0
BLOCK_RECORD
   5
67
 100
AcDbSymbolTableRecord
 100
AcDbBlockTableRecord
   2
*D35
   0
BLOCK_RECORD
   5
68
 100
AcDbSymbolTableRecord
 100
AcDbBlockTableRecord
   2
*D36
   0
BLOCK_RECORD
   5
69
 100
AcDbSymbolTableRecord
 100
AcDbBlockTableRecord
   2
*D37
   0
BLOCK_RECORD
   5
6A
 100
AcDbSymbolTableRecord
 100
AcDbBlockTableRecord
   2
*D38
   0
BLOCK_RECORD
   5
6B
 100
AcDbSymbolTableRecord
 100
AcDbBlockTableRecord
   2
*D39
   0
BLOCK_RECORD
   5
6C
 100
AcDbSymbolTableRecord
 100
AcDbBlockTableRecord
   2
*D40
   0
BLOCK_RECORD
   5
6D
 100
AcDbSymbolTableRecord
 100
AcDbBlockTableRecord
   2
*D41
   0
BLOCK_RECORD
   5
6E
 100
AcDbSymbolTableRecord
 100
AcDbBlockTableRecord
   2
*D42
   0
BLOCK_RECORD
   5
6F
 100
AcDbSymbolTableRecord
 100
AcDbBlockTableRecord
   2
*D43
   0
BLOCK_RECORD
   5
70
 100
AcDbSymbolTableRecord
 100
AcDbBlockTableRecord
   2
*D44
   0
BLOCK_RECORD
   5
71
 100
AcDbSymbolTableRecord
 100
AcDbBlockTableRecord
   2
*D45
   0
BLOCK_RECORD
   5
72
 100
AcDbSymbolTableRecord
 100
AcDbBlockTableRecord
   2
*D46
   0
BLOCK_RECORD
   5
73
 100
AcDbSymbolTableRecord
 100
AcDbBlockTableRecord
   2
*D47
   0
BLOCK_RECORD
   5
74
 100
AcDbSymbolTableRecord
 100
AcDbBlockTableRecord
   2
*D48
   0
BLOCK_RECORD
   5
75
 100
AcDbSymbolTableRecord
 100
AcDbBlockTableRecord
   2
*D49
   0
BLOCK_RECORD
   5
76
 100
AcDbSymbolTableRecord
 100
AcDbBlockTableRecord
   2
*D50
   0
BLOCK_RECORD
   5
77
 100
AcDbSymbolTableRecord
 100
AcDbBlockTableRecord
   2
*D51
   0
BLOCK_RECORD
   5
78
 100
AcDbSymbolTableRecord
 100
AcDbBlockTableRecord
   2
*D52
   0
BLOCK_RECORD
   5
79
 100
AcDbSymbolTableRecord
 100
AcDbBlockTableRecord
   2
*D53
   0
BLOCK_RECORD
   5
7A
 100
AcDbSymbolTableRecord
 100
AcDbBlockTableRecord
   2
*D54
   0
BLOCK_RECORD
   5
7B
 100
AcDbSymbolTableRecord
 100
AcDbBlockTableRecord
   2
_ARCHTICK
   0
BLOCK_RECORD
   5
7C
 100
AcDbSymbolTableRecord
 100
AcDbBlockTableRecord
   2
_BOXBLANK
   0
BLOCK_RECORD
   5
7D
 100
AcDbSymbolTableRecord
 100
AcDbBlockTableRecord
   2
_BOXFILLED
   0
BLOCK_RECORD
   5
7E
 100
AcDbSymbolTableRecord
 100
AcDbBlockTableRecord
   2
_CLOSED
   0
BLOCK_RECORD
   5
7F
 100
AcDbSymbolTableRecord
 100
AcDbBlockTableRecord
   2
_CLOSEDBLANK
   0
BLOCK_RECORD
   5
80
 100
AcDbSymbolTableRecord
 100
AcDbBlockTableRecord
   2
_DATUMBLANK
   0
BLOCK_RECORD
   5
81
 100
AcDbSymbolTableRecord
 100
AcDbBlockTableRecord
   2
_DATUMFILLED
   0
BLOCK_RECORD
   5
82
 100
AcDbSymbolTableRecord
 100
AcDbBlockTableRecord
   2
_DOT
   0
BLOCK_RECORD
   5
83
 100
AcDbSymbolTableRecord
 100
AcDbBlockTableRecord
   2
_DOTBLANK
   0
BLOCK_RECORD
   5
84
 100
AcDbSymbolTableRecord
 100
AcDbBlockTableRecord
   2
_DOTSMALL
   0
BLOCK_RECORD
   5
85
 100
AcDbSymbolTableRecord
 100
AcDbBlockTableRecord
   2
_INTEGRAL
   0
BLOCK_RECORD
   5
86
 100
AcDbSymbolTableRecord
 100
AcDbBlockTableRecord
   2
_NONE
   0
BLOCK_RECORD
   5
87
 100
AcDbSymbolTableRecord
 100
AcDbBlockTableRecord
   2
_OBLIQUE
   0
BLOCK_RECORD
   5
88
 100
AcDbSymbolTableRecord
 100
AcDbBlockTableRecord
   2
_OPEN
   0
BLOCK_RECORD
   5
89
 100
AcDbSymbolTableRecord
 100
AcDbBlockTableRecord
   2
_OPEN30
   0
BLOCK_RECORD
   5
8A
 100
AcDbSymbolTableRecord
 100
AcDbBlockTableRecord
   2
_OPEN90
   0
BLOCK_RECORD
   5
8B
 100
AcDbSymbolTableRecord
 100
AcDbBlockTableRecord
   2
_ORIGIN
   0
ENDTAB
   0
ENDSEC
  0
SECTION
  2
BLOCKS
  0
BLOCK
  5
19
100
AcDbEntity
  8
0
100
AcDbBlockBegin
  2
*MODEL_SPACE
 70
     0
 10
0.0
 20
0.0
 30
0.0
  3
*MODEL_SPACE
  1

  0
ENDBLK
  5
1A
100
AcDbEntity
  8
0
100
AcDbBlockEnd
  0
BLOCK
  5
16
100
AcDbEntity
 67
     1
  8
0
100
AcDbBlockBegin
  2
*PAPER_SPACE
 70
     0
 10
0.0
 20
0.0
 30
0.0
  3
*PAPER_SPACE
  1

  0
ENDBLK
  5
17
100
AcDbEntity
 67
     1
  8
0
100
AcDbBlockEnd
   0
BLOCK
   5
8C
 100
AcDbEntity
   8
0
 100
AcDbBlockBegin
   2
_ARCHTICK
  70
0
  10
0.0
  20
0.0
  30
0.0
   3
_ARCHTICK
   0
POLYLINE
   5
8D
 100
AcDbEntity
   8
0
 370
-2
   6
BYBLOCK
  62
0
 100
AcDb2dPolyline
  66
1
  10
0.0
  20
0.0
  30
0.0
  70
1
  40
 0.15000000000000
  41
 0.15000000000000
   0
VERTEX
   5
8E
 100
AcDbEntity
   8
0
   6
BYBLOCK
  62
0
 100
AcDbVertex
 100
AcDb2dVertex
  10
-0.50000000000000
  20
-0.50000000000000
  30
0.0
  40
 0.15000000000000
  41
 0.15000000000000
   0
VERTEX
   5
8F
 100
AcDbEntity
   8
0
   6
BYBLOCK
  62
0
 100
AcDbVertex
 100
AcDb2dVertex
  10
 0.50000000000000
  20
 0.50000000000000
  30
0.0
  40
 0.15000000000000
  41
 0.15000000000000
   0
SEQEND
   5
90
 100
AcDbEntity
   8
0
   6
BYBLOCK
  62
0
   0
ENDBLK
   5
91
 100
AcDbEntity
   8
0
 100
AcDbBlockEnd
   0
BLOCK
   5
92
 100
AcDbEntity
   8
0
 100
AcDbBlockBegin
   2
_OBLIQUE
  70
0
  10
0.0
  20
0.0
  30
0.0
   3
_OBLIQUE
   0
LINE
   5
93
 100
AcDbEntity
   8
0
 370
-2
 100
AcDbLine
   6
BYBLOCK
  62
0
  10
-0.50000000000000
  20
-0.50000000000000
  30
0.0
  11
 0.50000000000000
  21
 0.50000000000000
  31
0.0
   0
ENDBLK
   5
94
 100
AcDbEntity
   8
0
 100
AcDbBlockEnd
   0
BLOCK
   5
95
 100
AcDbEntity
   8
0
 100
AcDbBlockBegin
   2
_BOXBLANK
  70
0
  10
0.0
  20
0.0
  30
0.0
   3
_BOXBLANK
   0
LINE
   5
96
 100
AcDbEntity
   8
0
 370
-2
 100
AcDbLine
   6
BYBLOCK
  62
0
  10
-0.50000000000000
  20
-0.50000000000000
  30
0.0
  11
 0.50000000000000
  21
-0.50000000000000
  31
0.0
   0
LINE
   5
97
 100
AcDbEntity
   8
0
 370
-2
 100
AcDbLine
   6
BYBLOCK
  62
0
  10
 0.50000000000000
  20
-0.50000000000000
  30
0.0
  11
 0.50000000000000
  21
 0.50000000000000
  31
0.0
   0
LINE
   5
98
 100
AcDbEntity
   8
0
 370
-2
 100
AcDbLine
   6
BYBLOCK
  62
0
  10
 0.50000000000000
  20
 0.50000000000000
  30
0.0
  11
-0.50000000000000
  21
 0.50000000000000
  31
0.0
   0
LINE
   5
99
 100
AcDbEntity
   8
0
 370
-2
 100
AcDbLine
   6
BYBLOCK
  62
0
  10
-0.50000000000000
  20
 0.50000000000000
  30
0.0
  11
-0.50000000000000
  21
-0.50000000000000
  31
0.0
   0
LINE
   5
9A
 100
AcDbEntity
   8
0
 370
-2
 100
AcDbLine
   6
BYBLOCK
  62
0
  10
-0.50000000000000
  20
0.0
  30
0.0
  11
-1.0000000000000
  21
0.0
  31
0.0
   0
ENDBLK
   5
9B
 100
AcDbEntity
   8
0
 100
AcDbBlockEnd
   0
BLOCK
   5
9C
 100
AcDbEntity
   8
0
 100
AcDbBlockBegin
   2
_BOXFILLED
  70
0
  10
0.0
  20
0.0
  30
0.0
   3
_BOXFILLED
   0
SOLID
   5
9D
 100
AcDbEntity
   8
0
 100
AcDbTrace
   6
BYBLOCK
  62
0
  10
-0.50000000000000
  20
 0.50000000000000
  30
0.0
  11
 0.50000000000000
  21
 0.50000000000000
  31
0.0
  12
-0.50000000000000
  22
-0.50000000000000
  32
0.0
  13
 0.50000000000000
  23
-0.50000000000000
  33
0.0
   0
LINE
   5
9E
 100
AcDbEntity
   8
0
 370
-2
 100
AcDbLine
   6
BYBLOCK
  62
0
  10
-0.50000000000000
  20
0.0
  30
0.0
  11
-1.0000000000000
  21
0.0
  31
0.0
   0
ENDBLK
   5
9F
 100
AcDbEntity
   8
0
 100
AcDbBlockEnd
   0
BLOCK
   5
A0
 100
AcDbEntity
   8
0
 100
AcDbBlockBegin
   2
_CLOSED
  70
0
  10
0.0
  20
0.0
  30
0.0
   3
_CLOSED
   0
LINE
   5
A1
 100
AcDbEntity
   8
0
 370
-2
 100
AcDbLine
   6
BYBLOCK
  62
0
  10
-1.0000000000000
  20
 0.16666666666667
  30
0.0
  11
0.0
  21
0.0
  31
0.0
   0
LINE
   5
A2
 100
AcDbEntity
   8
0
 370
-2
 100
AcDbLine
   6
BYBLOCK
  62
0
  10
0.0
  20
0.0
  30
0.0
  11
-1.0000000000000
  21
-0.16666666666667
  31
0.0
   0
LINE
   5
A3
 100
AcDbEntity
   8
0
 370
-2
 100
AcDbLine
   6
BYBLOCK
  62
0
  10
-1.0000000000000
  20
 0.16666666666667
  30
0.0
  11
-1.0000000000000
  21
-0.16666666666667
  31
0.0
   0
LINE
   5
A4
 100
AcDbEntity
   8
0
 370
-2
 100
AcDbLine
   6
BYBLOCK
  62
0
  10
0.0
  20
0.0
  30
0.0
  11
-1.0000000000000
  21
0.0
  31
0.0
   0
ENDBLK
   5
A5
 100
AcDbEntity
   8
0
 100
AcDbBlockEnd
   0
BLOCK
   5
A6
 100
AcDbEntity
   8
0
 100
AcDbBlockBegin
   2
_OPEN
  70
0
  10
0.0
  20
0.0
  30
0.0
   3
_OPEN
   0
LINE
   5
A7
 100
AcDbEntity
   8
0
 370
-2
 100
AcDbLine
   6
BYBLOCK
  62
0
  10
-1.0000000000000
  20
 0.16666666666667
  30
0.0
  11
0.0
  21
0.0
  31
0.0
   0
LINE
   5
A8
 100
AcDbEntity
   8
0
 370
-2
 100
AcDbLine
   6
BYBLOCK
  62
0
  10
0.0
  20
0.0
  30
0.0
  11
-1.0000000000000
  21
-0.16666666666667
  31
0.0
   0
LINE
   5
A9
 100
AcDbEntity
   8
0
 370
-2
 100
AcDbLine
   6
BYBLOCK
  62
0
  10
0.0
  20
0.0
  30
0.0
  11
-1.0000000000000
  21
0.0
  31
0.0
   0
ENDBLK
   5
AA
 100
AcDbEntity
   8
0
 100
AcDbBlockEnd
   0
BLOCK
   5
AB
 100
AcDbEntity
   8
0
 100
AcDbBlockBegin
   2
_OPEN30
  70
0
  10
0.0
  20
0.0
  30
0.0
   3
_OPEN30
   0
LINE
   5
AC
 100
AcDbEntity
   8
0
 370
-2
 100
AcDbLine
   6
BYBLOCK
  62
0
  10
-1.0000000000000
  20
 0.26794919243110
  30
0.0
  11
0.0
  21
0.0
  31
0.0
   0
LINE
   5
AD
 100
AcDbEntity
   8
0
 370
-2
 100
AcDbLine
   6
BYBLOCK
  62
0
  10
0.0
  20
0.0
  30
0.0
  11
-1.0000000000000
  21
-0.26794919243110
  31
0.0
   0
LINE
   5
AE
 100
AcDbEntity
   8
0
 370
-2
 100
AcDbLine
   6
BYBLOCK
  62
0
  10
0.0
  20
0.0
  30
0.0
  11
-1.0000000000000
  21
0.0
  31
0.0
   0
ENDBLK
   5
AF
 100
AcDbEntity
   8
0
 100
AcDbBlockEnd
   0
BLOCK
   5
B0
 100
AcDbEntity
   8
0
 100
AcDbBlockBegin
   2
_OPEN90
  70
0
  10
0.0
  20
0.0
  30
0.0
   3
_OPEN90
   0
LINE
   5
B1
 100
AcDbEntity
   8
0
 370
-2
 100
AcDbLine
   6
BYBLOCK
  62
0
  10
-0.50000000000000
  20
 0.50000000000000
  30
0.0
  11
0.0
  21
0.0
  31
0.0
   0
LINE
   5
B2
 100
AcDbEntity
   8
0
 370
-2
 100
AcDbLine
   6
BYBLOCK
  62
0
  10
0.0
  20
0.0
  30
0.0
  11
-0.50000000000000
  21
-0.50000000000000
  31
0.0
   0
LINE
   5
B3
 100
AcDbEntity
   8
0
 370
-2
 100
AcDbLine
   6
BYBLOCK
  62
0
  10
0.0
  20
0.0
  30
0.0
  11
-1.0000000000000
  21
0.0
  31
0.0
   0
ENDBLK
   5
B4
 100
AcDbEntity
   8
0
 100
AcDbBlockEnd
   0
BLOCK
   5
B5
 100
AcDbEntity
   8
0
 100
AcDbBlockBegin
   2
_CLOSEDBLANK
  70
0
  10
0.0
  20
0.0
  30
0.0
   3
_CLOSEDBLANK
   0
LINE
   5
B6
 100
AcDbEntity
   8
0
 370
-2
 100
AcDbLine
   6
BYBLOCK
  62
0
  10
-1.0000000000000
  20
 0.16666666666667
  30
0.0
  11
0.0
  21
0.0
  31
0.0
   0
LINE
   5
B7
 100
AcDbEntity
   8
0
 370
-2
 100
AcDbLine
   6
BYBLOCK
  62
0
  10
0.0
  20
0.0
  30
0.0
  11
-1.0000000000000
  21
-0.16666666666667
  31
0.0
   0
LINE
   5
B8
 100
AcDbEntity
   8
0
 370
-2
 100
AcDbLine
   6
BYBLOCK
  62
0
  10
-1.0000000000000
  20
 0.16666666666667
  30
0.0
  11
-1.0000000000000
  21
-0.16666666666667
  31
0.0
   0
ENDBLK
   5
B9
 100
AcDbEntity
   8
0
 100
AcDbBlockEnd
   0
BLOCK
   5
BA
 100
AcDbEntity
   8
0
 100
AcDbBlockBegin
   2
_DOT
  70
0
  10
0.0
  20
0.0
  30
0.0
   3
_DOT
   0
POLYLINE
   5
BB
 100
AcDbEntity
   8
0
 370
-2
   6
BYBLOCK
  62
0
 100
AcDb2dPolyline
  66
1
  10
0.0
  20
0.0
  30
0.0
  70
1
  40
 0.50000000000000
  41
 0.50000000000000
   0
VERTEX
   5
BC
 100
AcDbEntity
   8
0
   6
BYBLOCK
  62
0
 100
AcDbVertex
 100
AcDb2dVertex
  10
-0.25000000000000
  20
0.0
  30
0.0
  42
 1.0000000000000
  40
 0.50000000000000
  41
 0.50000000000000
   0
VERTEX
   5
BD
 100
AcDbEntity
   8
0
   6
BYBLOCK
  62
0
 100
AcDbVertex
 100
AcDb2dVertex
  10
 0.25000000000000
  20
0.0
  30
0.0
  42
 1.0000000000000
  40
 0.50000000000000
  41
 0.50000000000000
   0
SEQEND
   5
BE
 100
AcDbEntity
   8
0
   6
BYBLOCK
  62
0
   0
LINE
   5
BF
 100
AcDbEntity
   8
0
 370
-2
 100
AcDbLine
   6
BYBLOCK
  62
0
  10
-0.50000000000000
  20
0.0
  30
0.0
  11
-1.0000000000000
  21
0.0
  31
0.0
   0
ENDBLK
   5
C0
 100
AcDbEntity
   8
0
 100
AcDbBlockEnd
   0
BLOCK
   5
C1
 100
AcDbEntity
   8
0
 100
AcDbBlockBegin
   2
_DOTSMALL
  70
0
  10
0.0
  20
0.0
  30
0.0
   3
_DOTSMALL
   0
POLYLINE
   5
C2
 100
AcDbEntity
   8
0
 370
-2
   6
BYBLOCK
  62
0
 100
AcDb2dPolyline
  66
1
  10
0.0
  20
0.0
  30
0.0
  70
1
  40
 0.50000000000000
  41
 0.50000000000000
   0
VERTEX
   5
C3
 100
AcDbEntity
   8
0
   6
BYBLOCK
  62
0
 100
AcDbVertex
 100
AcDb2dVertex
  10
-0.62500000000000E-1
  20
0.0
  30
0.0
  42
 1.0000000000000
  40
 0.50000000000000
  41
 0.50000000000000
   0
VERTEX
   5
C4
 100
AcDbEntity
   8
0
   6
BYBLOCK
  62
0
 100
AcDbVertex
 100
AcDb2dVertex
  10
 0.62500000000000E-1
  20
0.0
  30
0.0
  42
 1.0000000000000
  40
 0.50000000000000
  41
 0.50000000000000
   0
SEQEND
   5
C5
 100
AcDbEntity
   8
0
   6
BYBLOCK
  62
0
   0
ENDBLK
   5
C6
 100
AcDbEntity
   8
0
 100
AcDbBlockEnd
   0
BLOCK
   5
C7
 100
AcDbEntity
   8
0
 100
AcDbBlockBegin
   2
_DATUMBLANK
  70
0
  10
0.0
  20
0.0
  30
0.0
   3
_DATUMBLANK
   0
LINE
   5
C8
 100
AcDbEntity
   8
0
 370
-2
 100
AcDbLine
   6
BYBLOCK
  62
0
  10
0.0
  20
 0.57735027000000
  30
0.0
  11
-1.0000000000000
  21
0.0
  31
0.0
   0
LINE
   5
C9
 100
AcDbEntity
   8
0
 370
-2
 100
AcDbLine
   6
BYBLOCK
  62
0
  10
-1.0000000000000
  20
0.0
  30
0.0
  11
0.0
  21
-0.57735027000000
  31
0.0
   0
LINE
   5
CA
 100
AcDbEntity
   8
0
 370
-2
 100
AcDbLine
   6
BYBLOCK
  62
0
  10
0.0
  20
-0.57735027000000
  30
0.0
  11
0.0
  21
 0.57735027000000
  31
0.0
   0
ENDBLK
   5
CB
 100
AcDbEntity
   8
0
 100
AcDbBlockEnd
   0
BLOCK
   5
CC
 100
AcDbEntity
   8
0
 100
AcDbBlockBegin
   2
_DATUMFILLED
  70
0
  10
0.0
  20
0.0
  30
0.0
   3
_DATUMFILLED
   0
SOLID
   5
CD
 100
AcDbEntity
   8
0
 100
AcDbTrace
   6
BYBLOCK
  62
0
  10
0.0
  20
 0.57735027000000
  30
0.0
  11
-1.0000000000000
  21
0.0
  31
0.0
  12
0.0
  22
-0.57735027000000
  32
0.0
  13
0.0
  23
-0.57735027000000
  33
0.0
   0
ENDBLK
   5
CE
 100
AcDbEntity
   8
0
 100
AcDbBlockEnd
   0
BLOCK
   5
CF
 100
AcDbEntity
   8
0
 100
AcDbBlockBegin
   2
_ORIGIN
  70
0
  10
0.0
  20
0.0
  30
0.0
   3
_ORIGIN
   0
CIRCLE
   5
D0
 100
AcDbEntity
   8
0
 370
-2
 100
AcDbCircle
   6
BYBLOCK
  62
0
  10
0.0
  20
0.0
  30
0.0
  40
 0.50000000000000
   0
LINE
   5
D1
 100
AcDbEntity
   8
0
 370
-2
 100
AcDbLine
   6
BYBLOCK
  62
0
  10
0.0
  20
0.0
  30
0.0
  11
-1.0000000000000
  21
0.0
  31
0.0
   0
ENDBLK
   5
D2
 100
AcDbEntity
   8
0
 100
AcDbBlockEnd
   0
BLOCK
   5
D3
 100
AcDbEntity
   8
0
 100
AcDbBlockBegin
   2
_NONE
  70
0
  10
0.0
  20
0.0
  30
0.0
   3
_NONE
   0
CIRCLE
   5
D4
 100
AcDbEntity
   8
0
 370
-2
 100
AcDbCircle
   6
BYBLOCK
  62
0
  10
0.0
  20
0.0
  30
0.0
  40
 0.25000000000000
   0
ENDBLK
   5
D5
 100
AcDbEntity
   8
0
 100
AcDbBlockEnd
   0
BLOCK
   5
D6
 100
AcDbEntity
   8
0
 100
AcDbBlockBegin
   2
_DOTBLANK
  70
0
  10
0.0
  20
0.0
  30
0.0
   3
_DOTBLANK
   0
CIRCLE
   5
D7
 100
AcDbEntity
   8
0
 370
-2
 100
AcDbCircle
   6
BYBLOCK
  62
0
  10
0.0
  20
0.0
  30
0.0
  40
 0.50000000000000
   0
LINE
   5
D8
 100
AcDbEntity
   8
0
 370
-2
 100
AcDbLine
   6
BYBLOCK
  62
0
  10
-0.50000000000000
  20
0.0
  30
0.0
  11
-1.0000000000000
  21
0.0
  31
0.0
   0
ENDBLK
   5
D9
 100
AcDbEntity
   8
0
 100
AcDbBlockEnd
   0
BLOCK
   5
DA
 100
AcDbEntity
   8
0
 100
AcDbBlockBegin
   2
_INTEGRAL
  70
0
  10
0.0
  20
0.0
  30
0.0
   3
_INTEGRAL
   0
ARC
   5
DB
 100
AcDbEntity
   8
0
 370
-2
   6
BYBLOCK
  62
0
 100
AcDbCircle
  10
 0.44488800000000
  20
-0.91335000000000E-1
  30
0.0
  40
 0.45416700000000
 100
AcDbArc
  50
 102.00000000000
  51
 168.00000000000
   0
ARC
   5
DC
 100
AcDbEntity
   8
0
 370
-2
   6
BYBLOCK
  62
0
 100
AcDbCircle
  10
-0.44488800000000
  20
 0.91335000000000E-1
  30
0.0
  40
 0.45416700000000
 100
AcDbArc
  50
 282.00000000000
  51
 348.00000000000
   0
ENDBLK
   5
DD
 100
AcDbEntity
   8
0
 100
AcDbBlockEnd
   0
BLOCK
   5
DE
 100
AcDbEntity
   8
0
 100
AcDbBlockBegin
   2
*D1
  70
65
  10
0.0
  20
0.0
  30
0.0
   3
*D1
   0
LINE
   5
DF
 100
AcDbEntity
   8
LEVEL001
 370
15
 100
AcDbLine
   6
CONTINUOUS
  62
8
  10
 24.330886091941
  20
 124.22069665395
  30
0.0
  11
 24.330886091941
  21
 129.02069665379
  31
0.0
   0
LINE
   5
E0
 100
AcDbEntity
   8
LEVEL001
 370
15
 100
AcDbLine
   6
CONTINUOUS
  62
8
  10
 28.330886092130
  20
 124.05412328900
  30
0.0
  11
 28.330886092130
  21
 129.02069665379
  31
0.0
   0
LINE
   5
E1
 100
AcDbEntity
   8
LEVEL001
 370
15
 100
AcDbLine
   6
CONTINUOUS
  62
8
  10
 24.330886091941
  20
 128.52069665379
  30
0.0
  11
 26.330886092036
  21
 128.52069665379
  31
0.0
   0
LINE
   5
E2
 100
AcDbEntity
   8
LEVEL001
 370
15
 100
AcDbLine
   6
CONTINUOUS
  62
8
  10
 28.330886092130
  20
 128.52069665379
  30
0.0
  11
 26.330886092036
  21
 128.52069665379
  31
0.0
   0
SOLID
   5
E3
 100
AcDbEntity
   8
LEVEL001
 100
AcDbTrace
   6
CONTINUOUS
  62
8
  10
 24.330886091941
  20
 128.52069665379
  30
0.0
  11
 25.330886091941
  21
 128.34436967308
  31
0.0
  12
 25.330886091941
  22
 128.69702363450
  32
0.0
  13
 25.330886091941
  23
 128.69702363450
  33
0.0
   0
SOLID
   5
E4
 100
AcDbEntity
   8
LEVEL001
 100
AcDbTrace
   6
CONTINUOUS
  62
8
  10
 28.330886092130
  20
 128.52069665379
  30
0.0
  11
 27.330886092130
  21
 128.69702363450
  31
0.0
  12
 27.330886092130
  22
 128.34436967308
  32
0.0
  13
 27.330886092130
  23
 128.34436967308
  33
0.0
   0
MTEXT
   5
E5
 100
AcDbEntity
   8
LEVEL001
 370
15
  62
8
 100
AcDbMText
  10
 26.330886092036
  20
 129.02069665379
  30
0.0
  40
 1.2500000000000
  41
0.0
  71
8
  72
1
   1
\A1;4
   7
GMM002
   0
ENDBLK
   5
E6
 100
AcDbEntity
   8
0
 100
AcDbBlockEnd
   0
BLOCK
   5
E7
 100
AcDbEntity
   8
0
 100
AcDbBlockBegin
   2
*D2
  70
65
  10
0.0
  20
0.0
  30
0.0
   3
*D2
   0
LINE
   5
E8
 100
AcDbEntity
   8
LEVEL001
 370
15
 100
AcDbLine
   6
CONTINUOUS
  62
8
  10
 20.230886092042
  20
 126.02069665379
  30
0.0
  11
 20.230886092042
  21
 132.02069665379
  31
0.0
   0
LINE
   5
E9
 100
AcDbEntity
   8
LEVEL001
 370
15
 100
AcDbLine
   6
CONTINUOUS
  62
8
  10
 32.430886092042
  20
 126.02069665379
  30
0.0
  11
 32.430886092042
  21
 132.02069665379
  31
0.0
   0
LINE
   5
EA
 100
AcDbEntity
   8
LEVEL001
 370
15
 100
AcDbLine
   6
CONTINUOUS
  62
8
  10
 20.230886092042
  20
 131.52069665379
  30
0.0
  11
 26.330886092042
  21
 131.52069665379
  31
0.0
   0
LINE
   5
EB
 100
AcDbEntity
   8
LEVEL001
 370
15
 100
AcDbLine
   6
CONTINUOUS
  62
8
  10
 32.430886092042
  20
 131.52069665379
  30
0.0
  11
 26.330886092042
  21
 131.52069665379
  31
0.0
   0
SOLID
   5
EC
 100
AcDbEntity
   8
LEVEL001
 100
AcDbTrace
   6
CONTINUOUS
  62
8
  10
 20.230886092042
  20
 131.52069665379
  30
0.0
  11
 21.230886092042
  21
 131.34436967308
  31
0.0
  12
 21.230886092042
  22
 131.69702363450
  32
0.0
  13
 21.230886092042
  23
 131.69702363450
  33
0.0
   0
SOLID
   5
ED
 100
AcDbEntity
   8
LEVEL001
 100
AcDbTrace
   6
CONTINUOUS
  62
8
  10
 32.430886092042
  20
 131.52069665379
  30
0.0
  11
 31.430886092042
  21
 131.69702363450
  31
0.0
  12
 31.430886092042
  22
 131.34436967308
  32
0.0
  13
 31.430886092042
  23
 131.34436967308
  33
0.0
   0
MTEXT
   5
EE
 100
AcDbEntity
   8
LEVEL001
 370
15
  62
8
 100
AcDbMText
  10
 26.330886092042
  20
 132.02069665379
  30
0.0
  40
 1.2500000000000
  41
0.0
  71
8
  72
1
   1
\A1;12.2
   7
GMM002
   0
ENDBLK
   5
EF
 100
AcDbEntity
   8
0
 100
AcDbBlockEnd
   0
BLOCK
   5
F0
 100
AcDbEntity
   8
0
 100
AcDbBlockBegin
   2
*D3
  70
65
  10
0.0
  20
0.0
  30
0.0
   3
*D3
   0
LINE
   5
F1
 100
AcDbEntity
   8
LEVEL001
 370
15
 100
AcDbLine
   6
CONTINUOUS
  62
8
  10
 23.830886092042
  20
 122.22069665395
  30
0.0
  11
 17.230886092042
  21
 122.22069665395
  31
0.0
   0
LINE
   5
F2
 100
AcDbEntity
   8
LEVEL001
 370
15
 100
AcDbLine
   6
CONTINUOUS
  62
8
  10
 19.730886092042
  20
 125.52069665379
  30
0.0
  11
 17.230886092042
  21
 125.52069665379
  31
0.0
   0
LINE
   5
F3
 100
AcDbEntity
   8
LEVEL001
 370
15
 100
AcDbLine
   6
CONTINUOUS
  62
8
  10
 17.730886092042
  20
 122.22069665395
  30
0.0
  11
 17.730886092042
  21
 123.87069665387
  31
0.0
   0
LINE
   5
F4
 100
AcDbEntity
   8
LEVEL001
 370
15
 100
AcDbLine
   6
CONTINUOUS
  62
8
  10
 17.730886092042
  20
 125.52069665379
  30
0.0
  11
 17.730886092042
  21
 123.87069665387
  31
0.0
   0
SOLID
   5
F5
 100
AcDbEntity
   8
LEVEL001
 100
AcDbTrace
   6
CONTINUOUS
  62
8
  10
 17.730886092042
  20
 122.22069665395
  30
0.0
  11
 17.907213072750
  21
 123.22069665395
  31
0.0
  12
 17.554559111333
  22
 123.22069665395
  32
0.0
  13
 17.554559111333
  23
 123.22069665395
  33
0.0
   0
SOLID
   5
F6
 100
AcDbEntity
   8
LEVEL001
 100
AcDbTrace
   6
CONTINUOUS
  62
8
  10
 17.730886092042
  20
 125.52069665379
  30
0.0
  11
 17.554559111333
  21
 124.52069665379
  31
0.0
  12
 17.907213072750
  22
 124.52069665379
  32
0.0
  13
 17.907213072750
  23
 124.52069665379
  33
0.0
   0
MTEXT
   5
F7
 100
AcDbEntity
   8
LEVEL001
 370
15
  62
8
 100
AcDbMText
  10
 17.230886092042
  20
 123.87069665387
  30
0.0
  40
 1.2500000000000
  41
0.0
  71
8
  72
1
   1
\A1;3.3
   7
GMM002
  11
0.0
  21
 1.0000000000000
  31
0.0
   0
ENDBLK
   5
F8
 100
AcDbEntity
   8
0
 100
AcDbBlockEnd
   0
BLOCK
   5
F9
 100
AcDbEntity
   8
0
 100
AcDbBlockBegin
   2
*D4
  70
65
  10
0.0
  20
0.0
  30
0.0
   3
*D4
   0
LINE
   5
FA
 100
AcDbEntity
   8
LEVEL001
 370
15
 100
AcDbLine
   6
CONTINUOUS
  62
8
  10
 20.880886092042
  20
 113.52069665379
  30
0.0
  11
 14.730886092042
  21
 113.52069665379
  31
0.0
   0
LINE
   5
FB
 100
AcDbEntity
   8
LEVEL001
 370
15
 100
AcDbLine
   6
CONTINUOUS
  62
8
  10
 17.230886092042
  20
 125.52069665379
  30
0.0
  11
 14.730886092042
  21
 125.52069665379
  31
0.0
   0
LINE
   5
FC
 100
AcDbEntity
   8
LEVEL001
 370
15
 100
AcDbLine
   6
CONTINUOUS
  62
8
  10
 15.230886092042
  20
 113.52069665379
  30
0.0
  11
 15.230886092042
  21
 119.52069665379
  31
0.0
   0
LINE
   5
FD
 100
AcDbEntity
   8
LEVEL001
 370
15
 100
AcDbLine
   6
CONTINUOUS
  62
8
  10
 15.230886092042
  20
 125.52069665379
  30
0.0
  11
 15.230886092042
  21
 119.52069665379
  31
0.0
   0
SOLID
   5
FE
 100
AcDbEntity
   8
LEVEL001
 100
AcDbTrace
   6
CONTINUOUS
  62
8
  10
 15.230886092042
  20
 113.52069665379
  30
0.0
  11
 15.407213072750
  21
 114.52069665379
  31
0.0
  12
 15.054559111333
  22
 114.52069665379
  32
0.0
  13
 15.054559111333
  23
 114.52069665379
  33
0.0
   0
SOLID
   5
FF
 100
AcDbEntity
   8
LEVEL001
 100
AcDbTrace
   6
CONTINUOUS
  62
8
  10
 15.230886092042
  20
 125.52069665379
  30
0.0
  11
 15.054559111333
  21
 124.52069665379
  31
0.0
  12
 15.407213072750
  22
 124.52069665379
  32
0.0
  13
 15.407213072750
  23
 124.52069665379
  33
0.0
   0
MTEXT
   5
100
 100
AcDbEntity
   8
LEVEL001
 370
15
  62
8
 100
AcDbMText
  10
 14.730886092042
  20
 119.52069665379
  30
0.0
  40
 1.2500000000000
  41
0.0
  71
8
  72
1
   1
\A1;12
   7
GMM002
  11
0.0
  21
 1.0000000000000
  31
0.0
   0
ENDBLK
   5
101
 100
AcDbEntity
   8
0
 100
AcDbBlockEnd
   0
BLOCK
   5
102
 100
AcDbEntity
   8
0
 100
AcDbBlockBegin
   2
*D5
  70
65
  10
0.0
  20
0.0
  30
0.0
   3
*D5
   0
LINE
   5
103
 100
AcDbEntity
   8
LEVEL001
 370
15
 100
AcDbLine
   6
CONTINUOUS
  62
8
  10
 61.252510806001
  20
 118.92069665379
  30
0.0
  11
 61.252510806001
  21
 124.02069665369
  31
0.0
   0
LINE
   5
104
 100
AcDbEntity
   8
LEVEL001
 370
15
 100
AcDbLine
   6
CONTINUOUS
  62
8
  10
 65.252510806001
  20
 118.92069665379
  30
0.0
  11
 65.252510806001
  21
 124.02069665369
  31
0.0
   0
LINE
   5
105
 100
AcDbEntity
   8
LEVEL001
 370
15
 100
AcDbLine
   6
CONTINUOUS
  62
8
  10
 61.252510806001
  20
 123.52069665369
  30
0.0
  11
 63.252510806001
  21
 123.52069665369
  31
0.0
   0
LINE
   5
106
 100
AcDbEntity
   8
LEVEL001
 370
15
 100
AcDbLine
   6
CONTINUOUS
  62
8
  10
 65.252510806001
  20
 123.52069665369
  30
0.0
  11
 63.252510806001
  21
 123.52069665369
  31
0.0
   0
SOLID
   5
107
 100
AcDbEntity
   8
LEVEL001
 100
AcDbTrace
   6
CONTINUOUS
  62
8
  10
 61.252510806001
  20
 123.52069665369
  30
0.0
  11
 62.252510806001
  21
 123.34436967298
  31
0.0
  12
 62.252510806001
  22
 123.69702363440
  32
0.0
  13
 62.252510806001
  23
 123.69702363440
  33
0.0
   0
SOLID
   5
108
 100
AcDbEntity
   8
LEVEL001
 100
AcDbTrace
   6
CONTINUOUS
  62
8
  10
 65.252510806001
  20
 123.52069665369
  30
0.0
  11
 64.252510806001
  21
 123.69702363440
  31
0.0
  12
 64.252510806001
  22
 123.34436967298
  32
0.0
  13
 64.252510806001
  23
 123.34436967298
  33
0.0
   0
MTEXT
   5
109
 100
AcDbEntity
   8
LEVEL001
 370
15
  62
8
 100
AcDbMText
  10
 63.252510806001
  20
 124.02069665369
  30
0.0
  40
 1.2500000000000
  41
0.0
  71
8
  72
1
   1
\A1;4
   7
GMM002
   0
ENDBLK
   5
10A
 100
AcDbEntity
   8
0
 100
AcDbBlockEnd
   0
BLOCK
   5
10B
 100
AcDbEntity
   8
0
 100
AcDbBlockBegin
   2
*D6
  70
65
  10
0.0
  20
0.0
  30
0.0
   3
*D6
   0
LINE
   5
10C
 100
AcDbEntity
   8
LEVEL001
 370
15
 100
AcDbLine
   6
CONTINUOUS
  62
8
  10
 57.152510806001
  20
 121.02069665379
  30
0.0
  11
 57.152510806001
  21
 127.02069665369
  31
0.0
   0
LINE
   5
10D
 100
AcDbEntity
   8
LEVEL001
 370
15
 100
AcDbLine
   6
CONTINUOUS
  62
8
  10
 69.352510806001
  20
 121.02069665379
  30
0.0
  11
 69.352510806001
  21
 127.02069665369
  31
0.0
   0
LINE
   5
10E
 100
AcDbEntity
   8
LEVEL001
 370
15
 100
AcDbLine
   6
CONTINUOUS
  62
8
  10
 57.152510806001
  20
 126.52069665369
  30
0.0
  11
 63.252510806001
  21
 126.52069665369
  31
0.0
   0
LINE
   5
10F
 100
AcDbEntity
   8
LEVEL001
 370
15
 100
AcDbLine
   6
CONTINUOUS
  62
8
  10
 69.352510806001
  20
 126.52069665369
  30
0.0
  11
 63.252510806001
  21
 126.52069665369
  31
0.0
   0
SOLID
   5
110
 100
AcDbEntity
   8
LEVEL001
 100
AcDbTrace
   6
CONTINUOUS
  62
8
  10
 57.152510806001
  20
 126.52069665369
  30
0.0
  11
 58.152510806001
  21
 126.34436967298
  31
0.0
  12
 58.152510806001
  22
 126.69702363440
  32
0.0
  13
 58.152510806001
  23
 126.69702363440
  33
0.0
   0
SOLID
   5
111
 100
AcDbEntity
   8
LEVEL001
 100
AcDbTrace
   6
CONTINUOUS
  62
8
  10
 69.352510806001
  20
 126.52069665369
  30
0.0
  11
 68.352510806001
  21
 126.69702363440
  31
0.0
  12
 68.352510806001
  22
 126.34436967298
  32
0.0
  13
 68.352510806001
  23
 126.34436967298
  33
0.0
   0
MTEXT
   5
112
 100
AcDbEntity
   8
LEVEL001
 370
15
  62
8
 100
AcDbMText
  10
 63.252510806001
  20
 127.02069665369
  30
0.0
  40
 1.2500000000000
  41
0.0
  71
8
  72
1
   1
\A1;12.2
   7
GMM002
   0
ENDBLK
   5
113
 100
AcDbEntity
   8
0
 100
AcDbBlockEnd
   0
BLOCK
   5
114
 100
AcDbEntity
   8
0
 100
AcDbBlockBegin
   2
*D7
  70
65
  10
0.0
  20
0.0
  30
0.0
   3
*D7
   0
LINE
   5
115
 100
AcDbEntity
   8
LEVEL001
 370
15
 100
AcDbLine
   6
CONTINUOUS
  62
8
  10
 60.752510806001
  20
 117.22069665379
  30
0.0
  11
 54.152510806001
  21
 117.22069665379
  31
0.0
   0
LINE
   5
116
 100
AcDbEntity
   8
LEVEL001
 370
15
 100
AcDbLine
   6
CONTINUOUS
  62
8
  10
 56.652510806001
  20
 120.52069665379
  30
0.0
  11
 54.152510806001
  21
 120.52069665379
  31
0.0
   0
LINE
   5
117
 100
AcDbEntity
   8
LEVEL001
 370
15
 100
AcDbLine
   6
CONTINUOUS
  62
8
  10
 54.652510806001
  20
 117.22069665379
  30
0.0
  11
 54.652510806001
  21
 118.87069665379
  31
0.0
   0
LINE
   5
118
 100
AcDbEntity
   8
LEVEL001
 370
15
 100
AcDbLine
   6
CONTINUOUS
  62
8
  10
 54.652510806001
  20
 120.52069665379
  30
0.0
  11
 54.652510806001
  21
 118.87069665379
  31
0.0
   0
SOLID
   5
119
 100
AcDbEntity
   8
LEVEL001
 100
AcDbTrace
   6
CONTINUOUS
  62
8
  10
 54.652510806001
  20
 117.22069665379
  30
0.0
  11
 54.828837786709
  21
 118.22069665379
  31
0.0
  12
 54.476183825292
  22
 118.22069665379
  32
0.0
  13
 54.476183825292
  23
 118.22069665379
  33
0.0
   0
SOLID
   5
11A
 100
AcDbEntity
   8
LEVEL001
 100
AcDbTrace
   6
CONTINUOUS
  62
8
  10
 54.652510806001
  20
 120.52069665379
  30
0.0
  11
 54.476183825292
  21
 119.52069665379
  31
0.0
  12
 54.828837786709
  22
 119.52069665379
  32
0.0
  13
 54.828837786709
  23
 119.52069665379
  33
0.0
   0
MTEXT
   5
11B
 100
AcDbEntity
   8
LEVEL001
 370
15
  62
8
 100
AcDbMText
  10
 54.152510806001
  20
 118.87069665379
  30
0.0
  40
 1.2500000000000
  41
0.0
  71
8
  72
1
   1
\A1;3.3
   7
GMM002
  11
0.0
  21
 1.0000000000000
  31
0.0
   0
ENDBLK
   5
11C
 100
AcDbEntity
   8
0
 100
AcDbBlockEnd
   0
BLOCK
   5
11D
 100
AcDbEntity
   8
0
 100
AcDbBlockBegin
   2
*D8
  70
65
  10
0.0
  20
0.0
  30
0.0
   3
*D8
   0
LINE
   5
11E
 100
AcDbEntity
   8
LEVEL001
 370
15
 100
AcDbLine
   6
CONTINUOUS
  62
8
  10
 57.352510806001
  20
 113.52069665379
  30
0.0
  11
 51.652510806001
  21
 113.52069665379
  31
0.0
   0
LINE
   5
11F
 100
AcDbEntity
   8
LEVEL001
 370
15
 100
AcDbLine
   6
CONTINUOUS
  62
8
  10
 54.152510806001
  20
 120.52069665379
  30
0.0
  11
 51.652510806001
  21
 120.52069665379
  31
0.0
   0
LINE
   5
120
 100
AcDbEntity
   8
LEVEL001
 370
15
 100
AcDbLine
   6
CONTINUOUS
  62
8
  10
 52.152510806001
  20
 113.52069665379
  30
0.0
  11
 52.152510806001
  21
 117.02069665379
  31
0.0
   0
LINE
   5
121
 100
AcDbEntity
   8
LEVEL001
 370
15
 100
AcDbLine
   6
CONTINUOUS
  62
8
  10
 52.152510806001
  20
 120.52069665379
  30
0.0
  11
 52.152510806001
  21
 117.02069665379
  31
0.0
   0
SOLID
   5
122
 100
AcDbEntity
   8
LEVEL001
 100
AcDbTrace
   6
CONTINUOUS
  62
8
  10
 52.152510806001
  20
 113.52069665379
  30
0.0
  11
 52.328837786709
  21
 114.52069665379
  31
0.0
  12
 51.976183825292
  22
 114.52069665379
  32
0.0
  13
 51.976183825292
  23
 114.52069665379
  33
0.0
   0
SOLID
   5
123
 100
AcDbEntity
   8
LEVEL001
 100
AcDbTrace
   6
CONTINUOUS
  62
8
  10
 52.152510806001
  20
 120.52069665379
  30
0.0
  11
 51.976183825292
  21
 119.52069665379
  31
0.0
  12
 52.328837786709
  22
 119.52069665379
  32
0.0
  13
 52.328837786709
  23
 119.52069665379
  33
0.0
   0
MTEXT
   5
124
 100
AcDbEntity
   8
LEVEL001
 370
15
  62
8
 100
AcDbMText
  10
 51.652510806001
  20
 117.02069665379
  30
0.0
  40
 1.2500000000000
  41
0.0
  71
8
  72
1
   1
\A1;7
   7
GMM002
  11
0.0
  21
 1.0000000000000
  31
0.0
   0
ENDBLK
   5
125
 100
AcDbEntity
   8
0
 100
AcDbBlockEnd
   0
BLOCK
   5
126
 100
AcDbEntity
   8
0
 100
AcDbBlockBegin
   2
*D9
  70
65
  10
0.0
  20
0.0
  30
0.0
   3
*D9
   0
LINE
   5
127
 100
AcDbEntity
   8
LEVEL001
 370
15
 100
AcDbLine
   6
CONTINUOUS
  62
8
  10
 96.372076023392
  20
 120.92069665379
  30
0.0
  11
 96.372076023392
  21
 126.02069665379
  31
0.0
   0
LINE
   5
128
 100
AcDbEntity
   8
LEVEL001
 370
15
 100
AcDbLine
   6
CONTINUOUS
  62
8
  10
 100.37207602339
  20
 120.92069665379
  30
0.0
  11
 100.37207602339
  21
 126.02069665379
  31
0.0
   0
LINE
   5
129
 100
AcDbEntity
   8
LEVEL001
 370
15
 100
AcDbLine
   6
CONTINUOUS
  62
8
  10
 96.372076023392
  20
 125.52069665379
  30
0.0
  11
 98.372076023392
  21
 125.52069665379
  31
0.0
   0
LINE
   5
12A
 100
AcDbEntity
   8
LEVEL001
 370
15
 100
AcDbLine
   6
CONTINUOUS
  62
8
  10
 100.37207602339
  20
 125.52069665379
  30
0.0
  11
 98.372076023392
  21
 125.52069665379
  31
0.0
   0
SOLID
   5
12B
 100
AcDbEntity
   8
LEVEL001
 100
AcDbTrace
   6
CONTINUOUS
  62
8
  10
 96.372076023392
  20
 125.52069665379
  30
0.0
  11
 97.372076023392
  21
 125.34436967308
  31
0.0
  12
 97.372076023392
  22
 125.69702363450
  32
0.0
  13
 97.372076023392
  23
 125.69702363450
  33
0.0
   0
SOLID
   5
12C
 100
AcDbEntity
   8
LEVEL001
 100
AcDbTrace
   6
CONTINUOUS
  62
8
  10
 100.37207602339
  20
 125.52069665379
  30
0.0
  11
 99.372076023392
  21
 125.69702363450
  31
0.0
  12
 99.372076023392
  22
 125.34436967308
  32
0.0
  13
 99.372076023392
  23
 125.34436967308
  33
0.0
   0
MTEXT
   5
12D
 100
AcDbEntity
   8
LEVEL001
 370
15
  62
8
 100
AcDbMText
  10
 98.372076023392
  20
 126.02069665379
  30
0.0
  40
 1.2500000000000
  41
0.0
  71
8
  72
1
   1
\A1;4
   7
GMM002
   0
ENDBLK
   5
12E
 100
AcDbEntity
   8
0
 100
AcDbBlockEnd
   0
BLOCK
   5
12F
 100
AcDbEntity
   8
0
 100
AcDbBlockBegin
   2
*D10
  70
65
  10
0.0
  20
0.0
  30
0.0
   3
*D10
   0
LINE
   5
130
 100
AcDbEntity
   8
LEVEL001
 370
15
 100
AcDbLine
   6
CONTINUOUS
  62
8
  10
 93.872076023392
  20
 123.02069665379
  30
0.0
  11
 93.872076023392
  21
 129.02069665379
  31
0.0
   0
LINE
   5
131
 100
AcDbEntity
   8
LEVEL001
 370
15
 100
AcDbLine
   6
CONTINUOUS
  62
8
  10
 102.87207602339
  20
 123.02069665379
  30
0.0
  11
 102.87207602339
  21
 129.02069665379
  31
0.0
   0
LINE
   5
132
 100
AcDbEntity
   8
LEVEL001
 370
15
 100
AcDbLine
   6
CONTINUOUS
  62
8
  10
 93.872076023392
  20
 128.52069665379
  30
0.0
  11
 98.372076023392
  21
 128.52069665379
  31
0.0
   0
LINE
   5
133
 100
AcDbEntity
   8
LEVEL001
 370
15
 100
AcDbLine
   6
CONTINUOUS
  62
8
  10
 102.87207602339
  20
 128.52069665379
  30
0.0
  11
 98.372076023392
  21
 128.52069665379
  31
0.0
   0
SOLID
   5
134
 100
AcDbEntity
   8
LEVEL001
 100
AcDbTrace
   6
CONTINUOUS
  62
8
  10
 93.872076023392
  20
 128.52069665379
  30
0.0
  11
 94.872076023392
  21
 128.34436967308
  31
0.0
  12
 94.872076023392
  22
 128.69702363450
  32
0.0
  13
 94.872076023392
  23
 128.69702363450
  33
0.0
   0
SOLID
   5
135
 100
AcDbEntity
   8
LEVEL001
 100
AcDbTrace
   6
CONTINUOUS
  62
8
  10
 102.87207602339
  20
 128.52069665379
  30
0.0
  11
 101.87207602339
  21
 128.69702363450
  31
0.0
  12
 101.87207602339
  22
 128.34436967308
  32
0.0
  13
 101.87207602339
  23
 128.34436967308
  33
0.0
   0
MTEXT
   5
136
 100
AcDbEntity
   8
LEVEL001
 370
15
  62
8
 100
AcDbMText
  10
 98.372076023392
  20
 129.02069665379
  30
0.0
  40
 1.2500000000000
  41
0.0
  71
8
  72
1
   1
\A1;9
   7
GMM002
   0
ENDBLK
   5
137
 100
AcDbEntity
   8
0
 100
AcDbBlockEnd
   0
BLOCK
   5
138
 100
AcDbEntity
   8
0
 100
AcDbBlockBegin
   2
*D11
  70
65
  10
0.0
  20
0.0
  30
0.0
   3
*D11
   0
LINE
   5
139
 100
AcDbEntity
   8
LEVEL001
 370
15
 100
AcDbLine
   6
CONTINUOUS
  62
8
  10
 95.872076023392
  20
 119.22069665379
  30
0.0
  11
 89.272076023392
  21
 119.22069665379
  31
0.0
   0
LINE
   5
13A
 100
AcDbEntity
   8
LEVEL001
 370
15
 100
AcDbLine
   6
CONTINUOUS
  62
8
  10
 93.372076023392
  20
 122.52069665379
  30
0.0
  11
 89.272076023392
  21
 122.52069665379
  31
0.0
   0
LINE
   5
13B
 100
AcDbEntity
   8
LEVEL001
 370
15
 100
AcDbLine
   6
CONTINUOUS
  62
8
  10
 89.772076023392
  20
 119.22069665379
  30
0.0
  11
 89.772076023392
  21
 120.87069665379
  31
0.0
   0
LINE
   5
13C
 100
AcDbEntity
   8
LEVEL001
 370
15
 100
AcDbLine
   6
CONTINUOUS
  62
8
  10
 89.772076023392
  20
 122.52069665379
  30
0.0
  11
 89.772076023392
  21
 120.87069665379
  31
0.0
   0
SOLID
   5
13D
 100
AcDbEntity
   8
LEVEL001
 100
AcDbTrace
   6
CONTINUOUS
  62
8
  10
 89.772076023392
  20
 119.22069665379
  30
0.0
  11
 89.948403004101
  21
 120.22069665379
  31
0.0
  12
 89.595749042684
  22
 120.22069665379
  32
0.0
  13
 89.595749042684
  23
 120.22069665379
  33
0.0
   0
SOLID
   5
13E
 100
AcDbEntity
   8
LEVEL001
 100
AcDbTrace
   6
CONTINUOUS
  62
8
  10
 89.772076023392
  20
 122.52069665379
  30
0.0
  11
 89.595749042684
  21
 121.52069665379
  31
0.0
  12
 89.948403004101
  22
 121.52069665379
  32
0.0
  13
 89.948403004101
  23
 121.52069665379
  33
0.0
   0
MTEXT
   5
13F
 100
AcDbEntity
   8
LEVEL001
 370
15
  62
8
 100
AcDbMText
  10
 89.272076023392
  20
 120.87069665379
  30
0.0
  40
 1.2500000000000
  41
0.0
  71
8
  72
1
   1
\A1;3.3
   7
GMM002
  11
0.0
  21
 1.0000000000000
  31
0.0
   0
ENDBLK
   5
140
 100
AcDbEntity
   8
0
 100
AcDbBlockEnd
   0
BLOCK
   5
141
 100
AcDbEntity
   8
0
 100
AcDbBlockBegin
   2
*D12
  70
65
  10
0.0
  20
0.0
  30
0.0
   3
*D12
   0
LINE
   5
142
 100
AcDbEntity
   8
LEVEL001
 370
15
 100
AcDbLine
   6
CONTINUOUS
  62
8
  10
 93.972076023392
  20
 113.52069665379
  30
0.0
  11
 86.772076023392
  21
 113.52069665379
  31
0.0
   0
LINE
   5
143
 100
AcDbEntity
   8
LEVEL001
 370
15
 100
AcDbLine
   6
CONTINUOUS
  62
8
  10
 89.272076023392
  20
 122.52069665379
  30
0.0
  11
 86.772076023392
  21
 122.52069665379
  31
0.0
   0
LINE
   5
144
 100
AcDbEntity
   8
LEVEL001
 370
15
 100
AcDbLine
   6
CONTINUOUS
  62
8
  10
 87.272076023392
  20
 113.52069665379
  30
0.0
  11
 87.272076023392
  21
 118.02069665379
  31
0.0
   0
LINE
   5
145
 100
AcDbEntity
   8
LEVEL001
 370
15
 100
AcDbLine
   6
CONTINUOUS
  62
8
  10
 87.272076023392
  20
 122.52069665379
  30
0.0
  11
 87.272076023392
  21
 118.02069665379
  31
0.0
   0
SOLID
   5
146
 100
AcDbEntity
   8
LEVEL001
 100
AcDbTrace
   6
CONTINUOUS
  62
8
  10
 87.272076023392
  20
 113.52069665379
  30
0.0
  11
 87.448403004101
  21
 114.52069665379
  31
0.0
  12
 87.095749042684
  22
 114.52069665379
  32
0.0
  13
 87.095749042684
  23
 114.52069665379
  33
0.0
   0
SOLID
   5
147
 100
AcDbEntity
   8
LEVEL001
 100
AcDbTrace
   6
CONTINUOUS
  62
8
  10
 87.272076023392
  20
 122.52069665379
  30
0.0
  11
 87.095749042684
  21
 121.52069665379
  31
0.0
  12
 87.448403004101
  22
 121.52069665379
  32
0.0
  13
 87.448403004101
  23
 121.52069665379
  33
0.0
   0
MTEXT
   5
148
 100
AcDbEntity
   8
LEVEL001
 370
15
  62
8
 100
AcDbMText
  10
 86.772076023392
  20
 118.02069665379
  30
0.0
  40
 1.2500000000000
  41
0.0
  71
8
  72
1
   1
\A1;9
   7
GMM002
  11
0.0
  21
 1.0000000000000
  31
0.0
   0
ENDBLK
   5
149
 100
AcDbEntity
   8
0
 100
AcDbBlockEnd
   0
BLOCK
   5
14A
 100
AcDbEntity
   8
0
 100
AcDbBlockBegin
   2
*D13
  70
65
  10
0.0
  20
0.0
  30
0.0
   3
*D13
   0
LINE
   5
14B
 100
AcDbEntity
   8
LEVEL001
 370
15
 100
AcDbLine
   6
CONTINUOUS
  62
8
  10
 24.330886091942
  20
 93.443815690570
  30
0.0
  11
 24.330886091942
  21
 98.243251271122
  31
0.0
   0
LINE
   5
14C
 100
AcDbEntity
   8
LEVEL001
 370
15
 100
AcDbLine
   6
CONTINUOUS
  62
8
  10
 28.330886092142
  20
 93.443815690570
  30
0.0
  11
 28.330886092142
  21
 98.243251271122
  31
0.0
   0
LINE
   5
14D
 100
AcDbEntity
   8
LEVEL001
 370
15
 100
AcDbLine
   6
CONTINUOUS
  62
8
  10
 24.330886091942
  20
 97.743251271122
  30
0.0
  11
 26.330886092042
  21
 97.743251271122
  31
0.0
   0
LINE
   5
14E
 100
AcDbEntity
   8
LEVEL001
 370
15
 100
AcDbLine
   6
CONTINUOUS
  62
8
  10
 28.330886092142
  20
 97.743251271122
  30
0.0
  11
 26.330886092042
  21
 97.743251271122
  31
0.0
   0
SOLID
   5
14F
 100
AcDbEntity
   8
LEVEL001
 100
AcDbTrace
   6
CONTINUOUS
  62
8
  10
 24.330886091942
  20
 97.743251271122
  30
0.0
  11
 25.330886091942
  21
 97.566924290414
  31
0.0
  12
 25.330886091942
  22
 97.919578251831
  32
0.0
  13
 25.330886091942
  23
 97.919578251831
  33
0.0
   0
SOLID
   5
150
 100
AcDbEntity
   8
LEVEL001
 100
AcDbTrace
   6
CONTINUOUS
  62
8
  10
 28.330886092142
  20
 97.743251271122
  30
0.0
  11
 27.330886092142
  21
 97.919578251831
  31
0.0
  12
 27.330886092142
  22
 97.566924290414
  32
0.0
  13
 27.330886092142
  23
 97.566924290414
  33
0.0
   0
MTEXT
   5
151
 100
AcDbEntity
   8
LEVEL001
 370
15
  62
8
 100
AcDbMText
  10
 26.330886092042
  20
 98.243251271122
  30
0.0
  40
 1.2500000000000
  41
0.0
  71
8
  72
1
   1
\A1;4
   7
GMM002
   0
ENDBLK
   5
152
 100
AcDbEntity
   8
0
 100
AcDbBlockEnd
   0
BLOCK
   5
153
 100
AcDbEntity
   8
0
 100
AcDbBlockBegin
   2
*D14
  70
65
  10
0.0
  20
0.0
  30
0.0
   3
*D14
   0
LINE
   5
154
 100
AcDbEntity
   8
LEVEL001
 370
15
 100
AcDbLine
   6
CONTINUOUS
  62
8
  10
 18.230886092041
  20
 94.743815690570
  30
0.0
  11
 18.230886092041
  21
 101.24325127112
  31
0.0
   0
LINE
   5
155
 100
AcDbEntity
   8
LEVEL001
 370
15
 100
AcDbLine
   6
CONTINUOUS
  62
8
  10
 34.430886092042
  20
 94.743815690570
  30
0.0
  11
 34.430886092042
  21
 101.24325127112
  31
0.0
   0
LINE
   5
156
 100
AcDbEntity
   8
LEVEL001
 370
15
 100
AcDbLine
   6
CONTINUOUS
  62
8
  10
 18.230886092041
  20
 100.74325127112
  30
0.0
  11
 26.330886092042
  21
 100.74325127112
  31
0.0
   0
LINE
   5
157
 100
AcDbEntity
   8
LEVEL001
 370
15
 100
AcDbLine
   6
CONTINUOUS
  62
8
  10
 34.430886092042
  20
 100.74325127112
  30
0.0
  11
 26.330886092042
  21
 100.74325127112
  31
0.0
   0
SOLID
   5
158
 100
AcDbEntity
   8
LEVEL001
 100
AcDbTrace
   6
CONTINUOUS
  62
8
  10
 18.230886092041
  20
 100.74325127112
  30
0.0
  11
 19.230886092041
  21
 100.56692429041
  31
0.0
  12
 19.230886092041
  22
 100.91957825183
  32
0.0
  13
 19.230886092041
  23
 100.91957825183
  33
0.0
   0
SOLID
   5
159
 100
AcDbEntity
   8
LEVEL001
 100
AcDbTrace
   6
CONTINUOUS
  62
8
  10
 34.430886092042
  20
 100.74325127112
  30
0.0
  11
 33.430886092042
  21
 100.91957825183
  31
0.0
  12
 33.430886092042
  22
 100.56692429041
  32
0.0
  13
 33.430886092042
  23
 100.56692429041
  33
0.0
   0
MTEXT
   5
15A
 100
AcDbEntity
   8
LEVEL001
 370
15
  62
8
 100
AcDbMText
  10
 26.330886092042
  20
 101.24325127112
  30
0.0
  40
 1.2500000000000
  41
0.0
  71
8
  72
1
   1
\A1;16.2
   7
GMM002
   0
ENDBLK
   5
15B
 100
AcDbEntity
   8
0
 100
AcDbBlockEnd
   0
BLOCK
   5
15C
 100
AcDbEntity
   8
0
 100
AcDbBlockBegin
   2
*D15
  70
65
  10
0.0
  20
0.0
  30
0.0
   3
*D15
   0
LINE
   5
15D
 100
AcDbEntity
   8
LEVEL001
 370
15
 100
AcDbLine
   6
CONTINUOUS
  62
8
  10
 20.230886092042
  20
 92.243815690570
  30
0.0
  11
 20.230886092042
  21
 78.243815690570
  31
0.0
   0
LINE
   5
15E
 100
AcDbEntity
   8
LEVEL001
 370
15
 100
AcDbLine
   6
CONTINUOUS
  62
8
  10
 32.430886092042
  20
 92.243815690570
  30
0.0
  11
 32.430886092042
  21
 78.243815690570
  31
0.0
   0
LINE
   5
15F
 100
AcDbEntity
   8
LEVEL001
 370
15
 100
AcDbLine
   6
CONTINUOUS
  62
8
  10
 20.230886092042
  20
 78.743815690570
  30
0.0
  11
 26.330886092042
  21
 78.743815690570
  31
0.0
   0
LINE
   5
160
 100
AcDbEntity
   8
LEVEL001
 370
15
 100
AcDbLine
   6
CONTINUOUS
  62
8
  10
 32.430886092042
  20
 78.743815690570
  30
0.0
  11
 26.330886092042
  21
 78.743815690570
  31
0.0
   0
SOLID
   5
161
 100
AcDbEntity
   8
LEVEL001
 100
AcDbTrace
   6
CONTINUOUS
  62
8
  10
 20.230886092042
  20
 78.743815690570
  30
0.0
  11
 21.230886092042
  21
 78.567488709861
  31
0.0
  12
 21.230886092042
  22
 78.920142671278
  32
0.0
  13
 21.230886092042
  23
 78.920142671278
  33
0.0
   0
SOLID
   5
162
 100
AcDbEntity
   8
LEVEL001
 100
AcDbTrace
   6
CONTINUOUS
  62
8
  10
 32.430886092042
  20
 78.743815690570
  30
0.0
  11
 31.430886092042
  21
 78.920142671278
  31
0.0
  12
 31.430886092042
  22
 78.567488709861
  32
0.0
  13
 31.430886092042
  23
 78.567488709861
  33
0.0
   0
MTEXT
   5
163
 100
AcDbEntity
   8
LEVEL001
 370
15
  62
8
 100
AcDbMText
  10
 26.330886092042
  20
 79.243815690570
  30
0.0
  40
 1.2500000000000
  41
0.0
  71
8
  72
1
   1
\A1;12.2
   7
GMM002
   0
ENDBLK
   5
164
 100
AcDbEntity
   8
0
 100
AcDbBlockEnd
   0
BLOCK
   5
165
 100
AcDbEntity
   8
0
 100
AcDbBlockBegin
   2
*D16
  70
65
  10
0.0
  20
0.0
  30
0.0
   3
*D16
   0
LINE
   5
166
 100
AcDbEntity
   8
LEVEL001
 370
15
 100
AcDbLine
   6
CONTINUOUS
  62
8
  10
 31.780886092042
  20
 81.743815690570
  30
0.0
  11
 37.930886092042
  21
 81.743815690570
  31
0.0
   0
LINE
   5
167
 100
AcDbEntity
   8
LEVEL001
 370
15
 100
AcDbLine
   6
CONTINUOUS
  62
8
  10
 37.430886092042
  20
 81.743815690570
  30
0.0
  11
 37.430886092042
  21
 87.743815690570
  31
0.0
   0
LINE
   5
168
 100
AcDbEntity
   8
LEVEL001
 370
15
 100
AcDbLine
   6
CONTINUOUS
  62
8
  10
 37.430886092042
  20
 93.743815690570
  30
0.0
  11
 37.430886092042
  21
 87.743815690570
  31
0.0
   0
SOLID
   5
169
 100
AcDbEntity
   8
LEVEL001
 100
AcDbTrace
   6
CONTINUOUS
  62
8
  10
 37.430886092042
  20
 81.743815690570
  30
0.0
  11
 37.607213072750
  21
 82.743815690570
  31
0.0
  12
 37.254559111333
  22
 82.743815690570
  32
0.0
  13
 37.254559111333
  23
 82.743815690570
  33
0.0
   0
SOLID
   5
16A
 100
AcDbEntity
   8
LEVEL001
 100
AcDbTrace
   6
CONTINUOUS
  62
8
  10
 37.430886092042
  20
 93.743815690570
  30
0.0
  11
 37.254559111333
  21
 92.743815690570
  31
0.0
  12
 37.607213072750
  22
 92.743815690570
  32
0.0
  13
 37.607213072750
  23
 92.743815690570
  33
0.0
   0
MTEXT
   5
16B
 100
AcDbEntity
   8
LEVEL001
 370
15
  62
8
 100
AcDbMText
  10
 36.930886092042
  20
 87.743815690570
  30
0.0
  40
 1.2500000000000
  41
0.0
  71
8
  72
1
   1
\A1;12
   7
GMM002
  11
0.0
  21
 1.0000000000000
  31
0.0
   0
ENDBLK
   5
16C
 100
AcDbEntity
   8
0
 100
AcDbBlockEnd
   0
BLOCK
   5
16D
 100
AcDbEntity
   8
0
 100
AcDbBlockBegin
   2
*D17
  70
65
  10
0.0
  20
0.0
  30
0.0
   3
*D17
   0
LINE
   5
16E
 100
AcDbEntity
   8
LEVEL001
 370
15
 100
AcDbLine
   6
CONTINUOUS
  62
8
  10
 34.630886092042
  20
 93.743815690570
  30
0.0
  11
 37.930886092042
  21
 93.743815690570
  31
0.0
   0
LINE
   5
16F
 100
AcDbEntity
   8
LEVEL001
 370
15
 100
AcDbLine
   6
CONTINUOUS
  62
8
  10
 31.980321672705
  20
 94.743815690570
  30
0.0
  11
 37.930886092042
  21
 94.743815690570
  31
0.0
   0
LINE
   5
170
 100
AcDbEntity
   8
LEVEL001
 370
15
 100
AcDbLine
   6
CONTINUOUS
  62
8
  10
 37.430886092042
  20
 93.743815690570
  30
0.0
  11
 37.430886092042
  21
 94.243815690570
  31
0.0
   0
LINE
   5
171
 100
AcDbEntity
   8
LEVEL001
 370
15
 100
AcDbLine
   6
CONTINUOUS
  62
8
  10
 37.430886092042
  20
 95.993815690570
  30
0.0
  11
 37.430886092042
  21
 94.243815690570
  31
0.0
   0
SOLID
   5
172
 100
AcDbEntity
   8
LEVEL001
 100
AcDbTrace
   6
CONTINUOUS
  62
8
  10
 37.430886092042
  20
 94.743815690570
  30
0.0
  11
 37.607213072750
  21
 95.743815690570
  31
0.0
  12
 37.254559111333
  22
 95.743815690570
  32
0.0
  13
 37.254559111333
  23
 95.743815690570
  33
0.0
   0
MTEXT
   5
173
 100
AcDbEntity
   8
LEVEL001
 370
15
  62
8
 100
AcDbMText
  10
 36.930886092042
  20
 94.243815690570
  30
0.0
  40
 1.2500000000000
  41
0.0
  71
8
  72
1
   1
\A1;1
   7
GMM002
  11
0.0
  21
 1.0000000000000
  31
0.0
   0
ENDBLK
   5
174
 100
AcDbEntity
   8
0
 100
AcDbBlockEnd
   0
BLOCK
   5
175
 100
AcDbEntity
   8
0
 100
AcDbBlockBegin
   2
*D18
  70
65
  10
0.0
  20
0.0
  30
0.0
   3
*D18
   0
LINE
   5
176
 100
AcDbEntity
   8
LEVEL001
 370
15
 100
AcDbLine
   6
CONTINUOUS
  62
8
  10
 37.930886092042
  20
 81.743815690570
  30
0.0
  11
 40.930886092042
  21
 81.743815690570
  31
0.0
   0
LINE
   5
177
 100
AcDbEntity
   8
LEVEL001
 370
15
 100
AcDbLine
   6
CONTINUOUS
  62
8
  10
 37.930886092042
  20
 94.743815690570
  30
0.0
  11
 40.930886092042
  21
 94.743815690570
  31
0.0
   0
LINE
   5
178
 100
AcDbEntity
   8
LEVEL001
 370
15
 100
AcDbLine
   6
CONTINUOUS
  62
8
  10
 40.430886092042
  20
 81.743815690570
  30
0.0
  11
 40.430886092042
  21
 88.243815690570
  31
0.0
   0
LINE
   5
179
 100
AcDbEntity
   8
LEVEL001
 370
15
 100
AcDbLine
   6
CONTINUOUS
  62
8
  10
 40.430886092042
  20
 94.743815690570
  30
0.0
  11
 40.430886092042
  21
 88.243815690570
  31
0.0
   0
SOLID
   5
17A
 100
AcDbEntity
   8
LEVEL001
 100
AcDbTrace
   6
CONTINUOUS
  62
8
  10
 40.430886092042
  20
 81.743815690570
  30
0.0
  11
 40.607213072750
  21
 82.743815690570
  31
0.0
  12
 40.254559111333
  22
 82.743815690570
  32
0.0
  13
 40.254559111333
  23
 82.743815690570
  33
0.0
   0
SOLID
   5
17B
 100
AcDbEntity
   8
LEVEL001
 100
AcDbTrace
   6
CONTINUOUS
  62
8
  10
 40.430886092042
  20
 94.743815690570
  30
0.0
  11
 40.254559111333
  21
 93.743815690570
  31
0.0
  12
 40.607213072750
  22
 93.743815690570
  32
0.0
  13
 40.607213072750
  23
 93.743815690570
  33
0.0
   0
MTEXT
   5
17C
 100
AcDbEntity
   8
LEVEL001
 370
15
  62
8
 100
AcDbMText
  10
 39.930886092042
  20
 88.243815690570
  30
0.0
  40
 1.2500000000000
  41
0.0
  71
8
  72
1
   1
\A1;13
   7
GMM002
  11
0.0
  21
 1.0000000000000
  31
0.0
   0
ENDBLK
   5
17D
 100
AcDbEntity
   8
0
 100
AcDbBlockEnd
   0
BLOCK
   5
17E
 100
AcDbEntity
   8
0
 100
AcDbBlockBegin
   2
*D19
  70
65
  10
0.0
  20
0.0
  30
0.0
   3
*D19
   0
LINE
   5
17F
 100
AcDbEntity
   8
LEVEL001
 370
15
 100
AcDbLine
   6
CONTINUOUS
  62
8
  10
 23.830886092042
  20
 91.443815690570
  30
0.0
  11
 15.730886092041
  21
 91.443815690570
  31
0.0
   0
LINE
   5
180
 100
AcDbEntity
   8
LEVEL001
 370
15
 100
AcDbLine
   6
CONTINUOUS
  62
8
  10
 20.681450511378
  20
 94.743815690570
  30
0.0
  11
 15.730886092041
  21
 94.743815690570
  31
0.0
   0
LINE
   5
181
 100
AcDbEntity
   8
LEVEL001
 370
15
 100
AcDbLine
   6
CONTINUOUS
  62
8
  10
 16.230886092041
  20
 91.443815690570
  30
0.0
  11
 16.230886092041
  21
 93.093815690570
  31
0.0
   0
LINE
   5
182
 100
AcDbEntity
   8
LEVEL001
 370
15
 100
AcDbLine
   6
CONTINUOUS
  62
8
  10
 16.230886092041
  20
 94.743815690570
  30
0.0
  11
 16.230886092041
  21
 93.093815690570
  31
0.0
   0
SOLID
   5
183
 100
AcDbEntity
   8
LEVEL001
 100
AcDbTrace
   6
CONTINUOUS
  62
8
  10
 16.230886092041
  20
 91.443815690570
  30
0.0
  11
 16.407213072750
  21
 92.443815690570
  31
0.0
  12
 16.054559111333
  22
 92.443815690570
  32
0.0
  13
 16.054559111333
  23
 92.443815690570
  33
0.0
   0
SOLID
   5
184
 100
AcDbEntity
   8
LEVEL001
 100
AcDbTrace
   6
CONTINUOUS
  62
8
  10
 16.230886092041
  20
 94.743815690570
  30
0.0
  11
 16.054559111333
  21
 93.743815690570
  31
0.0
  12
 16.407213072750
  22
 93.743815690570
  32
0.0
  13
 16.407213072750
  23
 93.743815690570
  33
0.0
   0
MTEXT
   5
185
 100
AcDbEntity
   8
LEVEL001
 370
15
  62
8
 100
AcDbMText
  10
 15.730886092041
  20
 93.093815690570
  30
0.0
  40
 1.2500000000000
  41
0.0
  71
8
  72
1
   1
\A1;3.3
   7
GMM002
  11
0.0
  21
 1.0000000000000
  31
0.0
   0
ENDBLK
   5
186
 100
AcDbEntity
   8
0
 100
AcDbBlockEnd
   0
BLOCK
   5
187
 100
AcDbEntity
   8
0
 100
AcDbBlockBegin
   2
*D20
  70
65
  10
0.0
  20
0.0
  30
0.0
   3
*D20
   0
LINE
   5
188
 100
AcDbEntity
   8
LEVEL001
 370
15
 100
AcDbLine
   6
CONTINUOUS
  62
8
  10
 61.252510806001
  20
 90.143815690570
  30
0.0
  11
 61.252510806001
  21
 95.243815690570
  31
0.0
   0
LINE
   5
189
 100
AcDbEntity
   8
LEVEL001
 370
15
 100
AcDbLine
   6
CONTINUOUS
  62
8
  10
 65.252510806001
  20
 90.143815690570
  30
0.0
  11
 65.252510806001
  21
 95.243815690570
  31
0.0
   0
LINE
   5
18A
 100
AcDbEntity
   8
LEVEL001
 370
15
 100
AcDbLine
   6
CONTINUOUS
  62
8
  10
 61.252510806001
  20
 94.743815690570
  30
0.0
  11
 63.252510806001
  21
 94.743815690570
  31
0.0
   0
LINE
   5
18B
 100
AcDbEntity
   8
LEVEL001
 370
15
 100
AcDbLine
   6
CONTINUOUS
  62
8
  10
 65.252510806001
  20
 94.743815690570
  30
0.0
  11
 63.252510806001
  21
 94.743815690570
  31
0.0
   0
SOLID
   5
18C
 100
AcDbEntity
   8
LEVEL001
 100
AcDbTrace
   6
CONTINUOUS
  62
8
  10
 61.252510806001
  20
 94.743815690570
  30
0.0
  11
 62.252510806001
  21
 94.567488709861
  31
0.0
  12
 62.252510806001
  22
 94.920142671278
  32
0.0
  13
 62.252510806001
  23
 94.920142671278
  33
0.0
   0
SOLID
   5
18D
 100
AcDbEntity
   8
LEVEL001
 100
AcDbTrace
   6
CONTINUOUS
  62
8
  10
 65.252510806001
  20
 94.743815690570
  30
0.0
  11
 64.252510806001
  21
 94.920142671278
  31
0.0
  12
 64.252510806001
  22
 94.567488709861
  32
0.0
  13
 64.252510806001
  23
 94.567488709861
  33
0.0
   0
MTEXT
   5
18E
 100
AcDbEntity
   8
LEVEL001
 370
15
  62
8
 100
AcDbMText
  10
 63.252510806001
  20
 95.243815690570
  30
0.0
  40
 1.2500000000000
  41
0.0
  71
8
  72
1
   1
\A1;4
   7
GMM002
   0
ENDBLK
   5
18F
 100
AcDbEntity
   8
0
 100
AcDbBlockEnd
   0
BLOCK
   5
190
 100
AcDbEntity
   8
0
 100
AcDbBlockBegin
   2
*D21
  70
65
  10
0.0
  20
0.0
  30
0.0
   3
*D21
   0
LINE
   5
191
 100
AcDbEntity
   8
LEVEL001
 370
15
 100
AcDbLine
   6
CONTINUOUS
  62
8
  10
 56.752510806001
  20
 91.877149023904
  30
0.0
  11
 56.752510806001
  21
 98.243815690570
  31
0.0
   0
LINE
   5
192
 100
AcDbEntity
   8
LEVEL001
 370
15
 100
AcDbLine
   6
CONTINUOUS
  62
8
  10
 69.752510806001
  20
 91.877149023904
  30
0.0
  11
 69.752510806001
  21
 98.243815690570
  31
0.0
   0
LINE
   5
193
 100
AcDbEntity
   8
LEVEL001
 370
15
 100
AcDbLine
   6
CONTINUOUS
  62
8
  10
 56.752510806001
  20
 97.743815690570
  30
0.0
  11
 63.252510806001
  21
 97.743815690570
  31
0.0
   0
LINE
   5
194
 100
AcDbEntity
   8
LEVEL001
 370
15
 100
AcDbLine
   6
CONTINUOUS
  62
8
  10
 69.752510806001
  20
 97.743815690570
  30
0.0
  11
 63.252510806001
  21
 97.743815690570
  31
0.0
   0
SOLID
   5
195
 100
AcDbEntity
   8
LEVEL001
 100
AcDbTrace
   6
CONTINUOUS
  62
8
  10
 56.752510806001
  20
 97.743815690570
  30
0.0
  11
 57.752510806001
  21
 97.567488709861
  31
0.0
  12
 57.752510806001
  22
 97.920142671278
  32
0.0
  13
 57.752510806001
  23
 97.920142671278
  33
0.0
   0
SOLID
   5
196
 100
AcDbEntity
   8
LEVEL001
 100
AcDbTrace
   6
CONTINUOUS
  62
8
  10
 69.752510806001
  20
 97.743815690570
  30
0.0
  11
 68.752510806001
  21
 97.920142671278
  31
0.0
  12
 68.752510806001
  22
 97.567488709861
  32
0.0
  13
 68.752510806001
  23
 97.567488709861
  33
0.0
   0
MTEXT
   5
197
 100
AcDbEntity
   8
LEVEL001
 370
15
  62
8
 100
AcDbMText
  10
 63.252510806001
  20
 98.243815690570
  30
0.0
  40
 1.2500000000000
  41
0.0
  71
8
  72
1
   1
\A1;13
   7
GMM002
   0
ENDBLK
   5
198
 100
AcDbEntity
   8
0
 100
AcDbBlockEnd
   0
BLOCK
   5
199
 100
AcDbEntity
   8
0
 100
AcDbBlockBegin
   2
*D22
  70
65
  10
0.0
  20
0.0
  30
0.0
   3
*D22
   0
LINE
   5
19A
 100
AcDbEntity
   8
LEVEL001
 370
15
 100
AcDbLine
   6
CONTINUOUS
  62
8
  10
 60.752510806001
  20
 88.643815690570
  30
0.0
  11
 55.252510806001
  21
 88.643815690570
  31
0.0
   0
LINE
   5
19B
 100
AcDbEntity
   8
LEVEL001
 370
15
 100
AcDbLine
   6
CONTINUOUS
  62
8
  10
 58.952510806001
  20
 91.743815690570
  30
0.0
  11
 55.252510806001
  21
 91.743815690570
  31
0.0
   0
LINE
   5
19C
 100
AcDbEntity
   8
LEVEL001
 370
15
 100
AcDbLine
   6
CONTINUOUS
  62
8
  10
 55.752510806001
  20
 88.643815690570
  30
0.0
  11
 55.752510806001
  21
 90.193815690570
  31
0.0
   0
LINE
   5
19D
 100
AcDbEntity
   8
LEVEL001
 370
15
 100
AcDbLine
   6
CONTINUOUS
  62
8
  10
 55.752510806001
  20
 91.743815690570
  30
0.0
  11
 55.752510806001
  21
 90.193815690570
  31
0.0
   0
SOLID
   5
19E
 100
AcDbEntity
   8
LEVEL001
 100
AcDbTrace
   6
CONTINUOUS
  62
8
  10
 55.752510806001
  20
 88.643815690570
  30
0.0
  11
 55.928837786709
  21
 89.643815690570
  31
0.0
  12
 55.576183825292
  22
 89.643815690570
  32
0.0
  13
 55.576183825292
  23
 89.643815690570
  33
0.0
   0
SOLID
   5
19F
 100
AcDbEntity
   8
LEVEL001
 100
AcDbTrace
   6
CONTINUOUS
  62
8
  10
 55.752510806001
  20
 91.743815690570
  30
0.0
  11
 55.576183825292
  21
 90.743815690570
  31
0.0
  12
 55.928837786709
  22
 90.743815690570
  32
0.0
  13
 55.928837786709
  23
 90.743815690570
  33
0.0
   0
MTEXT
   5
1A0
 100
AcDbEntity
   8
LEVEL001
 370
15
  62
8
 100
AcDbMText
  10
 55.252510806001
  20
 90.193815690570
  30
0.0
  40
 1.2500000000000
  41
0.0
  71
8
  72
1
   1
\A1;3.1
   7
GMM002
  11
0.0
  21
 1.0000000000000
  31
0.0
   0
ENDBLK
   5
1A1
 100
AcDbEntity
   8
0
 100
AcDbBlockEnd
   0
BLOCK
   5
1A2
 100
AcDbEntity
   8
0
 100
AcDbBlockBegin
   2
*D23
  70
65
  10
0.0
  20
0.0
  30
0.0
   3
*D23
   0
LINE
   5
1A3
 100
AcDbEntity
   8
LEVEL001
 370
15
 100
AcDbLine
   6
CONTINUOUS
  62
8
  10
 67.652510806001
  20
 81.743815690570
  30
0.0
  11
 73.252510806001
  21
 81.743815690570
  31
0.0
   0
LINE
   5
1A4
 100
AcDbEntity
   8
LEVEL001
 370
15
 100
AcDbLine
   6
CONTINUOUS
  62
8
  10
 72.752510806001
  20
 81.743815690570
  30
0.0
  11
 72.752510806001
  21
 86.243815690570
  31
0.0
   0
LINE
   5
1A5
 100
AcDbEntity
   8
LEVEL001
 370
15
 100
AcDbLine
   6
CONTINUOUS
  62
8
  10
 72.752510806001
  20
 90.743815690570
  30
0.0
  11
 72.752510806001
  21
 86.243815690570
  31
0.0
   0
SOLID
   5
1A6
 100
AcDbEntity
   8
LEVEL001
 100
AcDbTrace
   6
CONTINUOUS
  62
8
  10
 72.752510806001
  20
 81.743815690570
  30
0.0
  11
 72.928837786709
  21
 82.743815690570
  31
0.0
  12
 72.576183825292
  22
 82.743815690570
  32
0.0
  13
 72.576183825292
  23
 82.743815690570
  33
0.0
   0
SOLID
   5
1A7
 100
AcDbEntity
   8
LEVEL001
 100
AcDbTrace
   6
CONTINUOUS
  62
8
  10
 72.752510806001
  20
 90.743815690570
  30
0.0
  11
 72.576183825292
  21
 89.743815690570
  31
0.0
  12
 72.928837786709
  22
 89.743815690570
  32
0.0
  13
 72.928837786709
  23
 89.743815690570
  33
0.0
   0
MTEXT
   5
1A8
 100
AcDbEntity
   8
LEVEL001
 370
15
  62
8
 100
AcDbMText
  10
 72.252510806001
  20
 86.243815690570
  30
0.0
  40
 1.2500000000000
  41
0.0
  71
8
  72
1
   1
\A1;9
   7
GMM002
  11
0.0
  21
 1.0000000000000
  31
0.0
   0
ENDBLK
   5
1A9
 100
AcDbEntity
   8
0
 100
AcDbBlockEnd
   0
BLOCK
   5
1AA
 100
AcDbEntity
   8
0
 100
AcDbBlockBegin
   2
*D24
  70
65
  10
0.0
  20
0.0
  30
0.0
   3
*D24
   0
LINE
   5
1AB
 100
AcDbEntity
   8
LEVEL001
 370
15
 100
AcDbLine
   6
CONTINUOUS
  62
8
  10
 69.952510806001
  20
 90.743815690570
  30
0.0
  11
 73.252510806001
  21
 90.743815690570
  31
0.0
   0
LINE
   5
1AC
 100
AcDbEntity
   8
LEVEL001
 370
15
 100
AcDbLine
   6
CONTINUOUS
  62
8
  10
 67.552510806001
  20
 91.743815690570
  30
0.0
  11
 73.252510806001
  21
 91.743815690570
  31
0.0
   0
LINE
   5
1AD
 100
AcDbEntity
   8
LEVEL001
 370
15
 100
AcDbLine
   6
CONTINUOUS
  62
8
  10
 72.752510806001
  20
 90.743815690570
  30
0.0
  11
 72.752510806001
  21
 91.243815690570
  31
0.0
   0
LINE
   5
1AE
 100
AcDbEntity
   8
LEVEL001
 370
15
 100
AcDbLine
   6
CONTINUOUS
  62
8
  10
 72.752510806001
  20
 94.117997586208
  30
0.0
  11
 72.752510806001
  21
 91.243815690570
  31
0.0
   0
SOLID
   5
1AF
 100
AcDbEntity
   8
LEVEL001
 100
AcDbTrace
   6
CONTINUOUS
  62
8
  10
 72.752510806001
  20
 91.743815690570
  30
0.0
  11
 72.928837786709
  21
 92.743815690570
  31
0.0
  12
 72.576183825292
  22
 92.743815690570
  32
0.0
  13
 72.576183825292
  23
 92.743815690570
  33
0.0
   0
MTEXT
   5
1B0
 100
AcDbEntity
   8
LEVEL001
 370
15
  62
8
 100
AcDbMText
  10
 72.257215166670
  20
 92.867997586208
  30
0.0
  40
 1.2500000000000
  41
0.0
  71
7
  72
1
   1
\A1;1
   7
GMM002
  11
0.0
  21
 1.0000000000000
  31
0.0
   0
ENDBLK
   5
1B1
 100
AcDbEntity
   8
0
 100
AcDbBlockEnd
   0
BLOCK
   5
1B2
 100
AcDbEntity
   8
0
 100
AcDbBlockBegin
   2
*D25
  70
65
  10
0.0
  20
0.0
  30
0.0
   3
*D25
   0
LINE
   5
1B3
 100
AcDbEntity
   8
LEVEL001
 370
15
 100
AcDbLine
   6
CONTINUOUS
  62
8
  10
 73.252510806001
  20
 81.743815690570
  30
0.0
  11
 76.252510806001
  21
 81.743815690570
  31
0.0
   0
LINE
   5
1B4
 100
AcDbEntity
   8
LEVEL001
 370
15
 100
AcDbLine
   6
CONTINUOUS
  62
8
  10
 73.252510806001
  20
 91.743815690570
  30
0.0
  11
 76.252510806001
  21
 91.743815690570
  31
0.0
   0
LINE
   5
1B5
 100
AcDbEntity
   8
LEVEL001
 370
15
 100
AcDbLine
   6
CONTINUOUS
  62
8
  10
 75.752510806001
  20
 81.743815690570
  30
0.0
  11
 75.752510806001
  21
 86.743815690570
  31
0.0
   0
LINE
   5
1B6
 100
AcDbEntity
   8
LEVEL001
 370
15
 100
AcDbLine
   6
CONTINUOUS
  62
8
  10
 75.752510806001
  20
 91.743815690570
  30
0.0
  11
 75.752510806001
  21
 86.743815690570
  31
0.0
   0
SOLID
   5
1B7
 100
AcDbEntity
   8
LEVEL001
 100
AcDbTrace
   6
CONTINUOUS
  62
8
  10
 75.752510806001
  20
 81.743815690570
  30
0.0
  11
 75.928837786709
  21
 82.743815690570
  31
0.0
  12
 75.576183825292
  22
 82.743815690570
  32
0.0
  13
 75.576183825292
  23
 82.743815690570
  33
0.0
   0
SOLID
   5
1B8
 100
AcDbEntity
   8
LEVEL001
 100
AcDbTrace
   6
CONTINUOUS
  62
8
  10
 75.752510806001
  20
 91.743815690570
  30
0.0
  11
 75.576183825292
  21
 90.743815690570
  31
0.0
  12
 75.928837786709
  22
 90.743815690570
  32
0.0
  13
 75.928837786709
  23
 90.743815690570
  33
0.0
   0
MTEXT
   5
1B9
 100
AcDbEntity
   8
LEVEL001
 370
15
  62
8
 100
AcDbMText
  10
 75.252510806001
  20
 86.743815690570
  30
0.0
  40
 1.2500000000000
  41
0.0
  71
8
  72
1
   1
\A1;10
   7
GMM002
  11
0.0
  21
 1.0000000000000
  31
0.0
   0
ENDBLK
   5
1BA
 100
AcDbEntity
   8
0
 100
AcDbBlockEnd
   0
BLOCK
   5
1BB
 100
AcDbEntity
   8
0
 100
AcDbBlockBegin
   2
*D26
  70
65
  10
0.0
  20
0.0
  30
0.0
   3
*D26
   0
LINE
   5
1BC
 100
AcDbEntity
   8
LEVEL001
 370
15
 100
AcDbLine
   6
CONTINUOUS
  62
8
  10
 58.752510806001
  20
 89.243815690570
  30
0.0
  11
 58.752510806001
  21
 78.243815690570
  31
0.0
   0
LINE
   5
1BD
 100
AcDbEntity
   8
LEVEL001
 370
15
 100
AcDbLine
   6
CONTINUOUS
  62
8
  10
 67.752510806001
  20
 89.243815690570
  30
0.0
  11
 67.752510806001
  21
 78.243815690570
  31
0.0
   0
LINE
   5
1BE
 100
AcDbEntity
   8
LEVEL001
 370
15
 100
AcDbLine
   6
CONTINUOUS
  62
8
  10
 58.752510806001
  20
 78.743815690570
  30
0.0
  11
 63.252510806001
  21
 78.743815690570
  31
0.0
   0
LINE
   5
1BF
 100
AcDbEntity
   8
LEVEL001
 370
15
 100
AcDbLine
   6
CONTINUOUS
  62
8
  10
 67.752510806001
  20
 78.743815690570
  30
0.0
  11
 63.252510806001
  21
 78.743815690570
  31
0.0
   0
SOLID
   5
1C0
 100
AcDbEntity
   8
LEVEL001
 100
AcDbTrace
   6
CONTINUOUS
  62
8
  10
 58.752510806001
  20
 78.743815690570
  30
0.0
  11
 59.752510806001
  21
 78.567488709861
  31
0.0
  12
 59.752510806001
  22
 78.920142671278
  32
0.0
  13
 59.752510806001
  23
 78.920142671278
  33
0.0
   0
SOLID
   5
1C1
 100
AcDbEntity
   8
LEVEL001
 100
AcDbTrace
   6
CONTINUOUS
  62
8
  10
 67.752510806001
  20
 78.743815690570
  30
0.0
  11
 66.752510806001
  21
 78.920142671278
  31
0.0
  12
 66.752510806001
  22
 78.567488709861
  32
0.0
  13
 66.752510806001
  23
 78.567488709861
  33
0.0
   0
MTEXT
   5
1C2
 100
AcDbEntity
   8
LEVEL001
 370
15
  62
8
 100
AcDbMText
  10
 63.252510806001
  20
 79.243815690570
  30
0.0
  40
 1.2500000000000
  41
0.0
  71
8
  72
1
   1
\A1;9
   7
GMM002
   0
ENDBLK
   5
1C3
 100
AcDbEntity
   8
0
 100
AcDbBlockEnd
   0
BLOCK
   5
1C4
 100
AcDbEntity
   8
0
 100
AcDbBlockBegin
   2
*D27
  70
65
  10
0.0
  20
0.0
  30
0.0
   3
*D27
   0
LINE
   5
1C5
 100
AcDbEntity
   8
LEVEL001
 370
15
 100
AcDbLine
   6
CONTINUOUS
  62
8
  10
 96.372076023392
  20
 87.843815690570
  30
0.0
  11
 96.372076023392
  21
 92.943815690570
  31
0.0
   0
LINE
   5
1C6
 100
AcDbEntity
   8
LEVEL001
 370
15
 100
AcDbLine
   6
CONTINUOUS
  62
8
  10
 100.37207602339
  20
 87.843815690570
  30
0.0
  11
 100.37207602339
  21
 92.943815690570
  31
0.0
   0
LINE
   5
1C7
 100
AcDbEntity
   8
LEVEL001
 370
15
 100
AcDbLine
   6
CONTINUOUS
  62
8
  10
 96.372076023392
  20
 92.443815690570
  30
0.0
  11
 98.372076023392
  21
 92.443815690570
  31
0.0
   0
LINE
   5
1C8
 100
AcDbEntity
   8
LEVEL001
 370
15
 100
AcDbLine
   6
CONTINUOUS
  62
8
  10
 100.37207602339
  20
 92.443815690570
  30
0.0
  11
 98.372076023392
  21
 92.443815690570
  31
0.0
   0
SOLID
   5
1C9
 100
AcDbEntity
   8
LEVEL001
 100
AcDbTrace
   6
CONTINUOUS
  62
8
  10
 96.372076023392
  20
 92.443815690570
  30
0.0
  11
 97.372076023392
  21
 92.267488709861
  31
0.0
  12
 97.372076023392
  22
 92.620142671278
  32
0.0
  13
 97.372076023392
  23
 92.620142671278
  33
0.0
   0
SOLID
   5
1CA
 100
AcDbEntity
   8
LEVEL001
 100
AcDbTrace
   6
CONTINUOUS
  62
8
  10
 100.37207602339
  20
 92.443815690570
  30
0.0
  11
 99.372076023392
  21
 92.620142671278
  31
0.0
  12
 99.372076023392
  22
 92.267488709861
  32
0.0
  13
 99.372076023392
  23
 92.267488709861
  33
0.0
   0
MTEXT
   5
1CB
 100
AcDbEntity
   8
LEVEL001
 370
15
  62
8
 100
AcDbMText
  10
 98.372076023392
  20
 92.943815690570
  30
0.0
  40
 1.2500000000000
  41
0.0
  71
8
  72
1
   1
\A1;4
   7
GMM002
   0
ENDBLK
   5
1CC
 100
AcDbEntity
   8
0
 100
AcDbBlockEnd
   0
BLOCK
   5
1CD
 100
AcDbEntity
   8
0
 100
AcDbBlockBegin
   2
*D28
  70
65
  10
0.0
  20
0.0
  30
0.0
   3
*D28
   0
LINE
   5
1CE
 100
AcDbEntity
   8
LEVEL001
 370
15
 100
AcDbLine
   6
CONTINUOUS
  62
8
  10
 91.872076023392
  20
 89.743815690570
  30
0.0
  11
 91.872076023392
  21
 95.943815690570
  31
0.0
   0
LINE
   5
1CF
 100
AcDbEntity
   8
LEVEL001
 370
15
 100
AcDbLine
   6
CONTINUOUS
  62
8
  10
 104.87207602339
  20
 89.743815690570
  30
0.0
  11
 104.87207602339
  21
 95.943815690570
  31
0.0
   0
LINE
   5
1D0
 100
AcDbEntity
   8
LEVEL001
 370
15
 100
AcDbLine
   6
CONTINUOUS
  62
8
  10
 91.872076023392
  20
 95.443815690570
  30
0.0
  11
 98.372076023392
  21
 95.443815690570
  31
0.0
   0
LINE
   5
1D1
 100
AcDbEntity
   8
LEVEL001
 370
15
 100
AcDbLine
   6
CONTINUOUS
  62
8
  10
 104.87207602339
  20
 95.443815690570
  30
0.0
  11
 98.372076023392
  21
 95.443815690570
  31
0.0
   0
SOLID
   5
1D2
 100
AcDbEntity
   8
LEVEL001
 100
AcDbTrace
   6
CONTINUOUS
  62
8
  10
 91.872076023392
  20
 95.443815690570
  30
0.0
  11
 92.872076023392
  21
 95.267488709861
  31
0.0
  12
 92.872076023392
  22
 95.620142671278
  32
0.0
  13
 92.872076023392
  23
 95.620142671278
  33
0.0
   0
SOLID
   5
1D3
 100
AcDbEntity
   8
LEVEL001
 100
AcDbTrace
   6
CONTINUOUS
  62
8
  10
 104.87207602339
  20
 95.443815690570
  30
0.0
  11
 103.87207602339
  21
 95.620142671278
  31
0.0
  12
 103.87207602339
  22
 95.267488709861
  32
0.0
  13
 103.87207602339
  23
 95.267488709861
  33
0.0
   0
MTEXT
   5
1D4
 100
AcDbEntity
   8
LEVEL001
 370
15
  62
8
 100
AcDbMText
  10
 98.372076023392
  20
 95.943815690570
  30
0.0
  40
 1.2500000000000
  41
0.0
  71
8
  72
1
   1
\A1;13
   7
GMM002
   0
ENDBLK
   5
1D5
 100
AcDbEntity
   8
0
 100
AcDbBlockEnd
   0
BLOCK
   5
1D6
 100
AcDbEntity
   8
0
 100
AcDbBlockBegin
   2
*D29
  70
65
  10
0.0
  20
0.0
  30
0.0
   3
*D29
   0
LINE
   5
1D7
 100
AcDbEntity
   8
LEVEL001
 370
15
 100
AcDbLine
   6
CONTINUOUS
  62
8
  10
 95.872076023392
  20
 86.143815690570
  30
0.0
  11
 90.093832676628
  21
 86.143815690570
  31
0.0
   0
LINE
   5
1D8
 100
AcDbEntity
   8
LEVEL001
 370
15
 100
AcDbLine
   6
CONTINUOUS
  62
8
  10
 94.072076023392
  20
 89.443815690570
  30
0.0
  11
 90.093832676628
  21
 89.443815690570
  31
0.0
   0
LINE
   5
1D9
 100
AcDbEntity
   8
LEVEL001
 370
15
 100
AcDbLine
   6
CONTINUOUS
  62
8
  10
 90.593832676628
  20
 86.143815690570
  30
0.0
  11
 90.593832676628
  21
 87.793815690570
  31
0.0
   0
LINE
   5
1DA
 100
AcDbEntity
   8
LEVEL001
 370
15
 100
AcDbLine
   6
CONTINUOUS
  62
8
  10
 90.593832676628
  20
 89.443815690570
  30
0.0
  11
 90.593832676628
  21
 87.793815690570
  31
0.0
   0
SOLID
   5
1DB
 100
AcDbEntity
   8
LEVEL001
 100
AcDbTrace
   6
CONTINUOUS
  62
8
  10
 90.593832676628
  20
 86.143815690570
  30
0.0
  11
 90.770159657337
  21
 87.143815690570
  31
0.0
  12
 90.417505695920
  22
 87.143815690570
  32
0.0
  13
 90.417505695920
  23
 87.143815690570
  33
0.0
   0
SOLID
   5
1DC
 100
AcDbEntity
   8
LEVEL001
 100
AcDbTrace
   6
CONTINUOUS
  62
8
  10
 90.593832676628
  20
 89.443815690570
  30
0.0
  11
 90.417505695920
  21
 88.443815690570
  31
0.0
  12
 90.770159657337
  22
 88.443815690570
  32
0.0
  13
 90.770159657337
  23
 88.443815690570
  33
0.0
   0
MTEXT
   5
1DD
 100
AcDbEntity
   8
LEVEL001
 370
15
  62
8
 100
AcDbMText
  10
 90.093832676628
  20
 87.793815690570
  30
0.0
  40
 1.2500000000000
  41
0.0
  71
8
  72
1
   1
\A1;3.3
   7
GMM002
  11
0.0
  21
 1.0000000000000
  31
0.0
   0
ENDBLK
   5
1DE
 100
AcDbEntity
   8
0
 100
AcDbBlockEnd
   0
BLOCK
   5
1DF
 100
AcDbEntity
   8
0
 100
AcDbBlockBegin
   2
*D30
  70
65
  10
0.0
  20
0.0
  30
0.0
   3
*D30
   0
LINE
   5
1E0
 100
AcDbEntity
   8
LEVEL001
 370
15
 100
AcDbLine
   6
CONTINUOUS
  62
8
  10
 102.77207602339
  20
 81.743815690570
  30
0.0
  11
 108.37207602339
  21
 81.743815690570
  31
0.0
   0
LINE
   5
1E1
 100
AcDbEntity
   8
LEVEL001
 370
15
 100
AcDbLine
   6
CONTINUOUS
  62
8
  10
 107.87207602339
  20
 81.743815690570
  30
0.0
  11
 107.87207602339
  21
 84.993815690570
  31
0.0
   0
LINE
   5
1E2
 100
AcDbEntity
   8
LEVEL001
 370
15
 100
AcDbLine
   6
CONTINUOUS
  62
8
  10
 107.87207602339
  20
 88.243815690570
  30
0.0
  11
 107.87207602339
  21
 84.993815690570
  31
0.0
   0
SOLID
   5
1E3
 100
AcDbEntity
   8
LEVEL001
 100
AcDbTrace
   6
CONTINUOUS
  62
8
  10
 107.87207602339
  20
 81.743815690570
  30
0.0
  11
 108.04840300410
  21
 82.743815690570
  31
0.0
  12
 107.69574904268
  22
 82.743815690570
  32
0.0
  13
 107.69574904268
  23
 82.743815690570
  33
0.0
   0
SOLID
   5
1E4
 100
AcDbEntity
   8
LEVEL001
 100
AcDbTrace
   6
CONTINUOUS
  62
8
  10
 107.87207602339
  20
 88.243815690570
  30
0.0
  11
 107.69574904268
  21
 87.243815690570
  31
0.0
  12
 108.04840300410
  22
 87.243815690570
  32
0.0
  13
 108.04840300410
  23
 87.243815690570
  33
0.0
   0
MTEXT
   5
1E5
 100
AcDbEntity
   8
LEVEL001
 370
15
  62
8
 100
AcDbMText
  10
 107.37207602339
  20
 84.993815690570
  30
0.0
  40
 1.2500000000000
  41
0.0
  71
8
  72
1
   1
\A1;6.5
   7
GMM002
  11
0.0
  21
 1.0000000000000
  31
0.0
   0
ENDBLK
   5
1E6
 100
AcDbEntity
   8
0
 100
AcDbBlockEnd
   0
BLOCK
   5
1E7
 100
AcDbEntity
   8
0
 100
AcDbBlockBegin
   2
*D31
  70
65
  10
0.0
  20
0.0
  30
0.0
   3
*D31
   0
LINE
   5
1E8
 100
AcDbEntity
   8
LEVEL001
 370
15
 100
AcDbLine
   6
CONTINUOUS
  62
8
  10
 105.07207602339
  20
 88.243815690570
  30
0.0
  11
 108.37207602339
  21
 88.243815690570
  31
0.0
   0
LINE
   5
1E9
 100
AcDbEntity
   8
LEVEL001
 370
15
 100
AcDbLine
   6
CONTINUOUS
  62
8
  10
 103.05217503572
  20
 89.443815690570
  30
0.0
  11
 108.37207602339
  21
 89.443815690570
  31
0.0
   0
LINE
   5
1EA
 100
AcDbEntity
   8
LEVEL001
 370
15
 100
AcDbLine
   6
CONTINUOUS
  62
8
  10
 107.87207602339
  20
 88.243815690570
  30
0.0
  11
 107.87207602339
  21
 88.843815690570
  31
0.0
   0
LINE
   5
1EB
 100
AcDbEntity
   8
LEVEL001
 370
15
 100
AcDbLine
   6
CONTINUOUS
  62
8
  10
 107.87207602339
  20
 92.587708966203
  30
0.0
  11
 107.87207602339
  21
 88.843815690570
  31
0.0
   0
SOLID
   5
1EC
 100
AcDbEntity
   8
LEVEL001
 100
AcDbTrace
   6
CONTINUOUS
  62
8
  10
 107.87207602339
  20
 89.443815690570
  30
0.0
  11
 108.04840300410
  21
 90.443815690570
  31
0.0
  12
 107.69574904268
  22
 90.443815690570
  32
0.0
  13
 107.69574904268
  23
 90.443815690570
  33
0.0
   0
MTEXT
   5
1ED
 100
AcDbEntity
   8
LEVEL001
 370
15
  62
8
 100
AcDbMText
  10
 107.28541670917
  20
 89.837708966203
  30
0.0
  40
 1.2500000000000
  41
0.0
  71
7
  72
1
   1
\A1;1.2
   7
GMM002
  11
0.0
  21
 1.0000000000000
  31
0.0
   0
ENDBLK
   5
1EE
 100
AcDbEntity
   8
0
 100
AcDbBlockEnd
   0
BLOCK
   5
1EF
 100
AcDbEntity
   8
0
 100
AcDbBlockBegin
   2
*D32
  70
65
  10
0.0
  20
0.0
  30
0.0
   3
*D32
   0
LINE
   5
1F0
 100
AcDbEntity
   8
LEVEL001
 370
15
 100
AcDbLine
   6
CONTINUOUS
  62
8
  10
 108.37207602339
  20
 81.743815690570
  30
0.0
  11
 111.37207602339
  21
 81.743815690570
  31
0.0
   0
LINE
   5
1F1
 100
AcDbEntity
   8
LEVEL001
 370
15
 100
AcDbLine
   6
CONTINUOUS
  62
8
  10
 108.37207602339
  20
 89.443815690570
  30
0.0
  11
 111.37207602339
  21
 89.443815690570
  31
0.0
   0
LINE
   5
1F2
 100
AcDbEntity
   8
LEVEL001
 370
15
 100
AcDbLine
   6
CONTINUOUS
  62
8
  10
 110.87207602339
  20
 81.743815690570
  30
0.0
  11
 110.87207602339
  21
 85.593815690570
  31
0.0
   0
LINE
   5
1F3
 100
AcDbEntity
   8
LEVEL001
 370
15
 100
AcDbLine
   6
CONTINUOUS
  62
8
  10
 110.87207602339
  20
 89.443815690570
  30
0.0
  11
 110.87207602339
  21
 85.593815690570
  31
0.0
   0
SOLID
   5
1F4
 100
AcDbEntity
   8
LEVEL001
 100
AcDbTrace
   6
CONTINUOUS
  62
8
  10
 110.87207602339
  20
 81.743815690570
  30
0.0
  11
 111.04840300410
  21
 82.743815690570
  31
0.0
  12
 110.69574904268
  22
 82.743815690570
  32
0.0
  13
 110.69574904268
  23
 82.743815690570
  33
0.0
   0
SOLID
   5
1F5
 100
AcDbEntity
   8
LEVEL001
 100
AcDbTrace
   6
CONTINUOUS
  62
8
  10
 110.87207602339
  20
 89.443815690570
  30
0.0
  11
 110.69574904268
  21
 88.443815690570
  31
0.0
  12
 111.04840300410
  22
 88.443815690570
  32
0.0
  13
 111.04840300410
  23
 88.443815690570
  33
0.0
   0
MTEXT
   5
1F6
 100
AcDbEntity
   8
LEVEL001
 370
15
  62
8
 100
AcDbMText
  10
 110.37207602339
  20
 85.593815690570
  30
0.0
  40
 1.2500000000000
  41
0.0
  71
8
  72
1
   1
\A1;7.7
   7
GMM002
  11
0.0
  21
 1.0000000000000
  31
0.0
   0
ENDBLK
   5
1F7
 100
AcDbEntity
   8
0
 100
AcDbBlockEnd
   0
BLOCK
   5
1F8
 100
AcDbEntity
   8
0
 100
AcDbBlockBegin
   2
*D33
  70
65
  10
0.0
  20
0.0
  30
0.0
   3
*D33
   0
LINE
   5
1F9
 100
AcDbEntity
   8
LEVEL001
 370
15
 100
AcDbLine
   6
CONTINUOUS
  62
8
  10
 93.872076023392
  20
 86.943815690570
  30
0.0
  11
 93.872076023392
  21
 78.743815690570
  31
0.0
   0
LINE
   5
1FA
 100
AcDbEntity
   8
LEVEL001
 370
15
 100
AcDbLine
   6
CONTINUOUS
  62
8
  10
 102.87207602339
  20
 86.943815690570
  30
0.0
  11
 102.87207602339
  21
 78.743815690570
  31
0.0
   0
LINE
   5
1FB
 100
AcDbEntity
   8
LEVEL001
 370
15
 100
AcDbLine
   6
CONTINUOUS
  62
8
  10
 93.872076023392
  20
 79.243815690570
  30
0.0
  11
 98.372076023392
  21
 79.243815690570
  31
0.0
   0
LINE
   5
1FC
 100
AcDbEntity
   8
LEVEL001
 370
15
 100
AcDbLine
   6
CONTINUOUS
  62
8
  10
 102.87207602339
  20
 79.243815690570
  30
0.0
  11
 98.372076023392
  21
 79.243815690570
  31
0.0
   0
SOLID
   5
1FD
 100
AcDbEntity
   8
LEVEL001
 100
AcDbTrace
   6
CONTINUOUS
  62
8
  10
 93.872076023392
  20
 79.243815690570
  30
0.0
  11
 94.872076023392
  21
 79.067488709861
  31
0.0
  12
 94.872076023392
  22
 79.420142671278
  32
0.0
  13
 94.872076023392
  23
 79.420142671278
  33
0.0
   0
SOLID
   5
1FE
 100
AcDbEntity
   8
LEVEL001
 100
AcDbTrace
   6
CONTINUOUS
  62
8
  10
 102.87207602339
  20
 79.243815690570
  30
0.0
  11
 101.87207602339
  21
 79.420142671278
  31
0.0
  12
 101.87207602339
  22
 79.067488709861
  32
0.0
  13
 101.87207602339
  23
 79.067488709861
  33
0.0
   0
MTEXT
   5
1FF
 100
AcDbEntity
   8
LEVEL001
 370
15
  62
8
 100
AcDbMText
  10
 98.372076023392
  20
 79.743815690570
  30
0.0
  40
 1.2500000000000
  41
0.0
  71
8
  72
1
   1
\A1;9
   7
GMM002
   0
ENDBLK
   5
200
 100
AcDbEntity
   8
0
 100
AcDbBlockEnd
   0
BLOCK
   5
201
 100
AcDbEntity
   8
0
 100
AcDbBlockBegin
   2
*D34
  70
65
  10
0.0
  20
0.0
  30
0.0
   3
*D34
   0
LINE
   5
202
 100
AcDbEntity
   8
LEVEL001
 370
15
 100
AcDbLine
   6
CONTINUOUS
  62
8
  10
 22.030886092041
  20
 57.625000000004
  30
0.0
  11
 22.030886092041
  21
 60.625000000004
  31
0.0
   0
LINE
   5
203
 100
AcDbEntity
   8
LEVEL001
 370
15
 100
AcDbLine
   6
CONTINUOUS
  62
8
  10
 30.630886092042
  20
 57.625000000004
  30
0.0
  11
 30.630886092042
  21
 60.625000000004
  31
0.0
   0
LINE
   5
204
 100
AcDbEntity
   8
LEVEL001
 370
15
 100
AcDbLine
   6
CONTINUOUS
  62
8
  10
 22.030886092041
  20
 60.125000000004
  30
0.0
  11
 26.330886092042
  21
 60.125000000004
  31
0.0
   0
LINE
   5
205
 100
AcDbEntity
   8
LEVEL001
 370
15
 100
AcDbLine
   6
CONTINUOUS
  62
8
  10
 30.630886092042
  20
 60.125000000004
  30
0.0
  11
 26.330886092042
  21
 60.125000000004
  31
0.0
   0
SOLID
   5
206
 100
AcDbEntity
   8
LEVEL001
 100
AcDbTrace
   6
CONTINUOUS
  62
8
  10
 22.030886092041
  20
 60.125000000004
  30
0.0
  11
 23.030886092041
  21
 59.948673019295
  31
0.0
  12
 23.030886092041
  22
 60.301326980712
  32
0.0
  13
 23.030886092041
  23
 60.301326980712
  33
0.0
   0
SOLID
   5
207
 100
AcDbEntity
   8
LEVEL001
 100
AcDbTrace
   6
CONTINUOUS
  62
8
  10
 30.630886092042
  20
 60.125000000004
  30
0.0
  11
 29.630886092042
  21
 60.301326980712
  31
0.0
  12
 29.630886092042
  22
 59.948673019295
  32
0.0
  13
 29.630886092042
  23
 59.948673019295
  33
0.0
   0
MTEXT
   5
208
 100
AcDbEntity
   8
LEVEL001
 370
15
  62
8
 100
AcDbMText
  10
 26.330886092042
  20
 60.625000000004
  30
0.0
  40
 1.2500000000000
  41
0.0
  71
8
  72
1
   1
\A1;8.6
   7
GMM002
   0
ENDBLK
   5
209
 100
AcDbEntity
   8
0
 100
AcDbBlockEnd
   0
BLOCK
   5
20A
 100
AcDbEntity
   8
0
 100
AcDbBlockBegin
   2
*D35
  70
65
  10
0.0
  20
0.0
  30
0.0
   3
*D35
   0
LINE
   5
20B
 100
AcDbEntity
   8
LEVEL001
 370
15
 100
AcDbLine
   6
CONTINUOUS
  62
8
  10
 20.230886092041
  20
 57.625000000004
  30
0.0
  11
 20.230886092041
  21
 63.625000000004
  31
0.0
   0
LINE
   5
20C
 100
AcDbEntity
   8
LEVEL001
 370
15
 100
AcDbLine
   6
CONTINUOUS
  62
8
  10
 32.430886092042
  20
 57.625000000004
  30
0.0
  11
 32.430886092042
  21
 63.625000000004
  31
0.0
   0
LINE
   5
20D
 100
AcDbEntity
   8
LEVEL001
 370
15
 100
AcDbLine
   6
CONTINUOUS
  62
8
  10
 20.230886092041
  20
 63.125000000004
  30
0.0
  11
 26.330886092042
  21
 63.125000000004
  31
0.0
   0
LINE
   5
20E
 100
AcDbEntity
   8
LEVEL001
 370
15
 100
AcDbLine
   6
CONTINUOUS
  62
8
  10
 32.430886092042
  20
 63.125000000004
  30
0.0
  11
 26.330886092042
  21
 63.125000000004
  31
0.0
   0
SOLID
   5
20F
 100
AcDbEntity
   8
LEVEL001
 100
AcDbTrace
   6
CONTINUOUS
  62
8
  10
 20.230886092041
  20
 63.125000000004
  30
0.0
  11
 21.230886092041
  21
 62.948673019295
  31
0.0
  12
 21.230886092041
  22
 63.301326980712
  32
0.0
  13
 21.230886092041
  23
 63.301326980712
  33
0.0
   0
SOLID
   5
210
 100
AcDbEntity
   8
LEVEL001
 100
AcDbTrace
   6
CONTINUOUS
  62
8
  10
 32.430886092042
  20
 63.125000000004
  30
0.0
  11
 31.430886092042
  21
 63.301326980712
  31
0.0
  12
 31.430886092042
  22
 62.948673019295
  32
0.0
  13
 31.430886092042
  23
 62.948673019295
  33
0.0
   0
MTEXT
   5
211
 100
AcDbEntity
   8
LEVEL001
 370
15
  62
8
 100
AcDbMText
  10
 26.330886092042
  20
 63.625000000004
  30
0.0
  40
 1.2500000000000
  41
0.0
  71
8
  72
1
   1
\A1;12.2
   7
GMM002
   0
ENDBLK
   5
212
 100
AcDbEntity
   8
0
 100
AcDbBlockEnd
   0
BLOCK
   5
213
 100
AcDbEntity
   8
0
 100
AcDbBlockBegin
   2
*D36
  70
65
  10
0.0
  20
0.0
  30
0.0
   3
*D36
   0
LINE
   5
214
 100
AcDbEntity
   8
LEVEL001
 370
15
 100
AcDbLine
   6
CONTINUOUS
  62
8
  10
 25.830886092042
  20
 53.525000000004
  30
0.0
  11
 17.230886092041
  21
 53.525000000004
  31
0.0
   0
LINE
   5
215
 100
AcDbEntity
   8
LEVEL001
 370
15
 100
AcDbLine
   6
CONTINUOUS
  62
8
  10
 19.730886092041
  20
 57.125000000004
  30
0.0
  11
 17.230886092041
  21
 57.125000000004
  31
0.0
   0
LINE
   5
216
 100
AcDbEntity
   8
LEVEL001
 370
15
 100
AcDbLine
   6
CONTINUOUS
  62
8
  10
 17.730886092041
  20
 53.525000000004
  30
0.0
  11
 17.730886092041
  21
 55.325000000004
  31
0.0
   0
LINE
   5
217
 100
AcDbEntity
   8
LEVEL001
 370
15
 100
AcDbLine
   6
CONTINUOUS
  62
8
  10
 17.730886092041
  20
 57.125000000004
  30
0.0
  11
 17.730886092041
  21
 55.325000000004
  31
0.0
   0
SOLID
   5
218
 100
AcDbEntity
   8
LEVEL001
 100
AcDbTrace
   6
CONTINUOUS
  62
8
  10
 17.730886092041
  20
 53.525000000004
  30
0.0
  11
 17.907213072750
  21
 54.525000000004
  31
0.0
  12
 17.554559111333
  22
 54.525000000004
  32
0.0
  13
 17.554559111333
  23
 54.525000000004
  33
0.0
   0
SOLID
   5
219
 100
AcDbEntity
   8
LEVEL001
 100
AcDbTrace
   6
CONTINUOUS
  62
8
  10
 17.730886092041
  20
 57.125000000004
  30
0.0
  11
 17.554559111333
  21
 56.125000000004
  31
0.0
  12
 17.907213072750
  22
 56.125000000004
  32
0.0
  13
 17.907213072750
  23
 56.125000000004
  33
0.0
   0
MTEXT
   5
21A
 100
AcDbEntity
   8
LEVEL001
 370
15
  62
8
 100
AcDbMText
  10
 17.230886092041
  20
 55.325000000004
  30
0.0
  40
 1.2500000000000
  41
0.0
  71
8
  72
1
   1
\A1;3.6
   7
GMM002
  11
0.0
  21
 1.0000000000000
  31
0.0
   0
ENDBLK
   5
21B
 100
AcDbEntity
   8
0
 100
AcDbBlockEnd
   0
BLOCK
   5
21C
 100
AcDbEntity
   8
0
 100
AcDbBlockBegin
   2
*D37
  70
65
  10
0.0
  20
0.0
  30
0.0
   3
*D37
   0
LINE
   5
21D
 100
AcDbEntity
   8
LEVEL001
 370
15
 100
AcDbLine
   6
CONTINUOUS
  62
8
  10
 31.980886092042
  20
 45.125000000004
  30
0.0
  11
 35.930886092042
  21
 45.125000000004
  31
0.0
   0
LINE
   5
21E
 100
AcDbEntity
   8
LEVEL001
 370
15
 100
AcDbLine
   6
CONTINUOUS
  62
8
  10
 32.930886092042
  20
 57.125000000004
  30
0.0
  11
 35.930886092042
  21
 57.125000000004
  31
0.0
   0
LINE
   5
21F
 100
AcDbEntity
   8
LEVEL001
 370
15
 100
AcDbLine
   6
CONTINUOUS
  62
8
  10
 35.430886092042
  20
 45.125000000004
  30
0.0
  11
 35.430886092042
  21
 51.125000000004
  31
0.0
   0
LINE
   5
220
 100
AcDbEntity
   8
LEVEL001
 370
15
 100
AcDbLine
   6
CONTINUOUS
  62
8
  10
 35.430886092042
  20
 57.125000000004
  30
0.0
  11
 35.430886092042
  21
 51.125000000004
  31
0.0
   0
SOLID
   5
221
 100
AcDbEntity
   8
LEVEL001
 100
AcDbTrace
   6
CONTINUOUS
  62
8
  10
 35.430886092042
  20
 45.125000000004
  30
0.0
  11
 35.607213072750
  21
 46.125000000004
  31
0.0
  12
 35.254559111333
  22
 46.125000000004
  32
0.0
  13
 35.254559111333
  23
 46.125000000004
  33
0.0
   0
SOLID
   5
222
 100
AcDbEntity
   8
LEVEL001
 100
AcDbTrace
   6
CONTINUOUS
  62
8
  10
 35.430886092042
  20
 57.125000000004
  30
0.0
  11
 35.254559111333
  21
 56.125000000004
  31
0.0
  12
 35.607213072750
  22
 56.125000000004
  32
0.0
  13
 35.607213072750
  23
 56.125000000004
  33
0.0
   0
MTEXT
   5
223
 100
AcDbEntity
   8
LEVEL001
 370
15
  62
8
 100
AcDbMText
  10
 34.930886092042
  20
 51.125000000004
  30
0.0
  40
 1.2500000000000
  41
0.0
  71
8
  72
1
   1
\A1;12
   7
GMM002
  11
0.0
  21
 1.0000000000000
  31
0.0
   0
ENDBLK
   5
224
 100
AcDbEntity
   8
0
 100
AcDbBlockEnd
   0
BLOCK
   5
225
 100
AcDbEntity
   8
0
 100
AcDbBlockBegin
   2
*D38
  70
65
  10
0.0
  20
0.0
  30
0.0
   3
*D38
   0
LINE
   5
226
 100
AcDbEntity
   8
LEVEL001
 370
15
 100
AcDbLine
   6
CONTINUOUS
  62
8
  10
 62.752510806001
  20
 50.325000000003
  30
0.0
  11
 55.752510806001
  21
 50.325000000003
  31
0.0
   0
LINE
   5
227
 100
AcDbEntity
   8
LEVEL001
 370
15
 100
AcDbLine
   6
CONTINUOUS
  62
8
  10
 58.252510806001
  20
 54.125000000004
  30
0.0
  11
 55.752510806001
  21
 54.125000000004
  31
0.0
   0
LINE
   5
228
 100
AcDbEntity
   8
LEVEL001
 370
15
 100
AcDbLine
   6
CONTINUOUS
  62
8
  10
 56.252510806001
  20
 50.325000000003
  30
0.0
  11
 56.252510806001
  21
 52.225000000004
  31
0.0
   0
LINE
   5
229
 100
AcDbEntity
   8
LEVEL001
 370
15
 100
AcDbLine
   6
CONTINUOUS
  62
8
  10
 56.252510806001
  20
 54.125000000004
  30
0.0
  11
 56.252510806001
  21
 52.225000000004
  31
0.0
   0
SOLID
   5
22A
 100
AcDbEntity
   8
LEVEL001
 100
AcDbTrace
   6
CONTINUOUS
  62
8
  10
 56.252510806001
  20
 50.325000000003
  30
0.0
  11
 56.428837786709
  21
 51.325000000003
  31
0.0
  12
 56.076183825292
  22
 51.325000000003
  32
0.0
  13
 56.076183825292
  23
 51.325000000003
  33
0.0
   0
SOLID
   5
22B
 100
AcDbEntity
   8
LEVEL001
 100
AcDbTrace
   6
CONTINUOUS
  62
8
  10
 56.252510806001
  20
 54.125000000004
  30
0.0
  11
 56.076183825292
  21
 53.125000000004
  31
0.0
  12
 56.428837786709
  22
 53.125000000004
  32
0.0
  13
 56.428837786709
  23
 53.125000000004
  33
0.0
   0
MTEXT
   5
22C
 100
AcDbEntity
   8
LEVEL001
 370
15
  62
8
 100
AcDbMText
  10
 55.752510806001
  20
 52.225000000004
  30
0.0
  40
 1.2500000000000
  41
0.0
  71
8
  72
1
   1
\A1;3.8
   7
GMM002
  11
0.0
  21
 1.0000000000000
  31
0.0
   0
ENDBLK
   5
22D
 100
AcDbEntity
   8
0
 100
AcDbBlockEnd
   0
BLOCK
   5
22E
 100
AcDbEntity
   8
0
 100
AcDbBlockBegin
   2
*D39
  70
65
  10
0.0
  20
0.0
  30
0.0
   3
*D39
   0
LINE
   5
22F
 100
AcDbEntity
   8
LEVEL001
 370
15
 100
AcDbLine
   6
CONTINUOUS
  62
8
  10
 67.652510806001
  20
 45.125000000004
  30
0.0
  11
 71.252510806001
  21
 45.125000000004
  31
0.0
   0
LINE
   5
230
 100
AcDbEntity
   8
LEVEL001
 370
15
 100
AcDbLine
   6
CONTINUOUS
  62
8
  10
 68.252510806001
  20
 54.125000000004
  30
0.0
  11
 71.252510806001
  21
 54.125000000004
  31
0.0
   0
LINE
   5
231
 100
AcDbEntity
   8
LEVEL001
 370
15
 100
AcDbLine
   6
CONTINUOUS
  62
8
  10
 70.752510806001
  20
 45.125000000004
  30
0.0
  11
 70.752510806001
  21
 49.625000000004
  31
0.0
   0
LINE
   5
232
 100
AcDbEntity
   8
LEVEL001
 370
15
 100
AcDbLine
   6
CONTINUOUS
  62
8
  10
 70.752510806001
  20
 54.125000000004
  30
0.0
  11
 70.752510806001
  21
 49.625000000004
  31
0.0
   0
SOLID
   5
233
 100
AcDbEntity
   8
LEVEL001
 100
AcDbTrace
   6
CONTINUOUS
  62
8
  10
 70.752510806001
  20
 45.125000000004
  30
0.0
  11
 70.928837786709
  21
 46.125000000004
  31
0.0
  12
 70.576183825292
  22
 46.125000000004
  32
0.0
  13
 70.576183825292
  23
 46.125000000004
  33
0.0
   0
SOLID
   5
234
 100
AcDbEntity
   8
LEVEL001
 100
AcDbTrace
   6
CONTINUOUS
  62
8
  10
 70.752510806001
  20
 54.125000000004
  30
0.0
  11
 70.576183825292
  21
 53.125000000004
  31
0.0
  12
 70.928837786709
  22
 53.125000000004
  32
0.0
  13
 70.928837786709
  23
 53.125000000004
  33
0.0
   0
MTEXT
   5
235
 100
AcDbEntity
   8
LEVEL001
 370
15
  62
8
 100
AcDbMText
  10
 70.252510806001
  20
 49.625000000004
  30
0.0
  40
 1.2500000000000
  41
0.0
  71
8
  72
1
   1
\A1;9
   7
GMM002
  11
0.0
  21
 1.0000000000000
  31
0.0
   0
ENDBLK
   5
236
 100
AcDbEntity
   8
0
 100
AcDbBlockEnd
   0
BLOCK
   5
237
 100
AcDbEntity
   8
0
 100
AcDbBlockBegin
   2
*D40
  70
65
  10
0.0
  20
0.0
  30
0.0
   3
*D40
   0
LINE
   5
238
 100
AcDbEntity
   8
LEVEL001
 370
15
 100
AcDbLine
   6
CONTINUOUS
  62
8
  10
 58.752510806001
  20
 54.625000000004
  30
0.0
  11
 58.752510806001
  21
 57.625000000004
  31
0.0
   0
LINE
   5
239
 100
AcDbEntity
   8
LEVEL001
 370
15
 100
AcDbLine
   6
CONTINUOUS
  62
8
  10
 67.752510806001
  20
 54.625000000004
  30
0.0
  11
 67.752510806001
  21
 57.625000000004
  31
0.0
   0
LINE
   5
23A
 100
AcDbEntity
   8
LEVEL001
 370
15
 100
AcDbLine
   6
CONTINUOUS
  62
8
  10
 58.752510806001
  20
 57.125000000004
  30
0.0
  11
 63.252510806001
  21
 57.125000000004
  31
0.0
   0
LINE
   5
23B
 100
AcDbEntity
   8
LEVEL001
 370
15
 100
AcDbLine
   6
CONTINUOUS
  62
8
  10
 67.752510806001
  20
 57.125000000004
  30
0.0
  11
 63.252510806001
  21
 57.125000000004
  31
0.0
   0
SOLID
   5
23C
 100
AcDbEntity
   8
LEVEL001
 100
AcDbTrace
   6
CONTINUOUS
  62
8
  10
 58.752510806001
  20
 57.125000000004
  30
0.0
  11
 59.752510806001
  21
 56.948673019295
  31
0.0
  12
 59.752510806001
  22
 57.301326980712
  32
0.0
  13
 59.752510806001
  23
 57.301326980712
  33
0.0
   0
SOLID
   5
23D
 100
AcDbEntity
   8
LEVEL001
 100
AcDbTrace
   6
CONTINUOUS
  62
8
  10
 67.752510806001
  20
 57.125000000004
  30
0.0
  11
 66.752510806001
  21
 57.301326980712
  31
0.0
  12
 66.752510806001
  22
 56.948673019295
  32
0.0
  13
 66.752510806001
  23
 56.948673019295
  33
0.0
   0
MTEXT
   5
23E
 100
AcDbEntity
   8
LEVEL001
 370
15
  62
8
 100
AcDbMText
  10
 63.252510806001
  20
 57.625000000004
  30
0.0
  40
 1.2500000000000
  41
0.0
  71
8
  72
1
   1
\A1;9
   7
GMM002
   0
ENDBLK
   5
23F
 100
AcDbEntity
   8
0
 100
AcDbBlockEnd
   0
BLOCK
   5
240
 100
AcDbEntity
   8
0
 100
AcDbBlockBegin
   2
*D41
  70
65
  10
0.0
  20
0.0
  30
0.0
   3
*D41
   0
LINE
   5
241
 100
AcDbEntity
   8
LEVEL001
 370
15
 100
AcDbLine
   6
CONTINUOUS
  62
8
  10
 108.87207602339
  20
 46.040677686111
  30
0.0
  11
 111.87207602339
  21
 46.040677686111
  31
0.0
   0
LINE
   5
242
 100
AcDbEntity
   8
LEVEL001
 370
15
 100
AcDbLine
   6
CONTINUOUS
  62
8
  10
 108.87207602339
  20
 50.040677686111
  30
0.0
  11
 111.87207602339
  21
 50.040677686111
  31
0.0
   0
LINE
   5
243
 100
AcDbEntity
   8
LEVEL001
 370
15
 100
AcDbLine
   6
CONTINUOUS
  62
8
  10
 111.37207602339
  20
 46.040677686111
  30
0.0
  11
 111.37207602339
  21
 48.040677686111
  31
0.0
   0
LINE
   5
244
 100
AcDbEntity
   8
LEVEL001
 370
15
 100
AcDbLine
   6
CONTINUOUS
  62
8
  10
 111.37207602339
  20
 50.040677686111
  30
0.0
  11
 111.37207602339
  21
 48.040677686111
  31
0.0
   0
SOLID
   5
245
 100
AcDbEntity
   8
LEVEL001
 100
AcDbTrace
   6
CONTINUOUS
  62
8
  10
 111.37207602339
  20
 46.040677686111
  30
0.0
  11
 111.54840300410
  21
 47.040677686111
  31
0.0
  12
 111.19574904268
  22
 47.040677686111
  32
0.0
  13
 111.19574904268
  23
 47.040677686111
  33
0.0
   0
SOLID
   5
246
 100
AcDbEntity
   8
LEVEL001
 100
AcDbTrace
   6
CONTINUOUS
  62
8
  10
 111.37207602339
  20
 50.040677686111
  30
0.0
  11
 111.19574904268
  21
 49.040677686111
  31
0.0
  12
 111.54840300410
  22
 49.040677686111
  32
0.0
  13
 111.54840300410
  23
 49.040677686111
  33
0.0
   0
MTEXT
   5
247
 100
AcDbEntity
   8
LEVEL001
 370
15
  62
8
 100
AcDbMText
  10
 110.87207602339
  20
 48.040677686111
  30
0.0
  40
 1.2500000000000
  41
0.0
  71
8
  72
1
   1
\A1;4
   7
GMM002
  11
0.0
  21
 1.0000000000000
  31
0.0
   0
ENDBLK
   5
248
 100
AcDbEntity
   8
0
 100
AcDbBlockEnd
   0
BLOCK
   5
249
 100
AcDbEntity
   8
0
 100
AcDbBlockBegin
   2
*D42
  70
65
  10
0.0
  20
0.0
  30
0.0
   3
*D42
   0
LINE
   5
24A
 100
AcDbEntity
   8
LEVEL001
 370
15
 100
AcDbLine
   6
CONTINUOUS
  62
8
  10
 88.372076023392
  20
 50.540677686111
  30
0.0
  11
 88.372076023392
  21
 53.540677686111
  31
0.0
   0
LINE
   5
24B
 100
AcDbEntity
   8
LEVEL001
 370
15
 100
AcDbLine
   6
CONTINUOUS
  62
8
  10
 88.372076023392
  20
 53.040677686111
  30
0.0
  11
 91.872076023392
  21
 53.040677686111
  31
0.0
   0
LINE
   5
24C
 100
AcDbEntity
   8
LEVEL001
 370
15
 100
AcDbLine
   6
CONTINUOUS
  62
8
  10
 95.372076023392
  20
 53.040677686111
  30
0.0
  11
 91.872076023392
  21
 53.040677686111
  31
0.0
   0
SOLID
   5
24D
 100
AcDbEntity
   8
LEVEL001
 100
AcDbTrace
   6
CONTINUOUS
  62
8
  10
 88.372076023392
  20
 53.040677686111
  30
0.0
  11
 89.372076023392
  21
 52.864350705403
  31
0.0
  12
 89.372076023392
  22
 53.217004666820
  32
0.0
  13
 89.372076023392
  23
 53.217004666820
  33
0.0
   0
SOLID
   5
24E
 100
AcDbEntity
   8
LEVEL001
 100
AcDbTrace
   6
CONTINUOUS
  62
8
  10
 95.372076023392
  20
 53.040677686111
  30
0.0
  11
 94.372076023392
  21
 53.217004666820
  31
0.0
  12
 94.372076023392
  22
 52.864350705403
  32
0.0
  13
 94.372076023392
  23
 52.864350705403
  33
0.0
   0
MTEXT
   5
24F
 100
AcDbEntity
   8
LEVEL001
 370
15
  62
8
 100
AcDbMText
  10
 91.872076023392
  20
 53.540677686111
  30
0.0
  40
 1.2500000000000
  41
0.0
  71
8
  72
1
   1
\A1;7
   7
GMM002
   0
ENDBLK
   5
250
 100
AcDbEntity
   8
0
 100
AcDbBlockEnd
   0
BLOCK
   5
251
 100
AcDbEntity
   8
0
 100
AcDbBlockBegin
   2
*D43
  70
65
  10
0.0
  20
0.0
  30
0.0
   3
*D43
   0
LINE
   5
252
 100
AcDbEntity
   8
LEVEL001
 370
15
 100
AcDbLine
   6
CONTINUOUS
  62
8
  10
 95.372076023392
  20
 51.413837840927
  30
0.0
  11
 95.372076023392
  21
 53.540677686111
  31
0.0
   0
LINE
   5
253
 100
AcDbEntity
   8
LEVEL001
 370
15
 100
AcDbLine
   6
CONTINUOUS
  62
8
  10
 108.37207602339
  20
 50.540677686111
  30
0.0
  11
 108.37207602339
  21
 53.540677686111
  31
0.0
   0
LINE
   5
254
 100
AcDbEntity
   8
LEVEL001
 370
15
 100
AcDbLine
   6
CONTINUOUS
  62
8
  10
 95.372076023392
  20
 53.040677686111
  30
0.0
  11
 101.87207602339
  21
 53.040677686111
  31
0.0
   0
LINE
   5
255
 100
AcDbEntity
   8
LEVEL001
 370
15
 100
AcDbLine
   6
CONTINUOUS
  62
8
  10
 108.37207602339
  20
 53.040677686111
  30
0.0
  11
 101.87207602339
  21
 53.040677686111
  31
0.0
   0
SOLID
   5
256
 100
AcDbEntity
   8
LEVEL001
 100
AcDbTrace
   6
CONTINUOUS
  62
8
  10
 95.372076023392
  20
 53.040677686111
  30
0.0
  11
 96.372076023392
  21
 52.864350705403
  31
0.0
  12
 96.372076023392
  22
 53.217004666820
  32
0.0
  13
 96.372076023392
  23
 53.217004666820
  33
0.0
   0
SOLID
   5
257
 100
AcDbEntity
   8
LEVEL001
 100
AcDbTrace
   6
CONTINUOUS
  62
8
  10
 108.37207602339
  20
 53.040677686111
  30
0.0
  11
 107.37207602339
  21
 53.217004666820
  31
0.0
  12
 107.37207602339
  22
 52.864350705403
  32
0.0
  13
 107.37207602339
  23
 52.864350705403
  33
0.0
   0
MTEXT
   5
258
 100
AcDbEntity
   8
LEVEL001
 370
15
  62
8
 100
AcDbMText
  10
 101.87207602339
  20
 53.540677686111
  30
0.0
  40
 1.2500000000000
  41
0.0
  71
8
  72
1
   1
\A1;13
   7
GMM002
   0
ENDBLK
   5
259
 100
AcDbEntity
   8
0
 100
AcDbBlockEnd
   0
BLOCK
   5
25A
 100
AcDbEntity
   8
0
 100
AcDbBlockBegin
   2
*D44
  70
65
  10
0.0
  20
0.0
  30
0.0
   3
*D44
   0
LINE
   5
25B
 100
AcDbEntity
   8
LEVEL001
 370
15
 100
AcDbLine
   6
CONTINUOUS
  62
8
  10
 88.372076023392
  20
 53.540677686111
  30
0.0
  11
 88.372076023392
  21
 56.540677686111
  31
0.0
   0
LINE
   5
25C
 100
AcDbEntity
   8
LEVEL001
 370
15
 100
AcDbLine
   6
CONTINUOUS
  62
8
  10
 108.37207602339
  20
 53.540677686111
  30
0.0
  11
 108.37207602339
  21
 56.540677686111
  31
0.0
   0
LINE
   5
25D
 100
AcDbEntity
   8
LEVEL001
 370
15
 100
AcDbLine
   6
CONTINUOUS
  62
8
  10
 88.372076023392
  20
 56.040677686111
  30
0.0
  11
 98.372076023392
  21
 56.040677686111
  31
0.0
   0
LINE
   5
25E
 100
AcDbEntity
   8
LEVEL001
 370
15
 100
AcDbLine
   6
CONTINUOUS
  62
8
  10
 108.37207602339
  20
 56.040677686111
  30
0.0
  11
 98.372076023392
  21
 56.040677686111
  31
0.0
   0
SOLID
   5
25F
 100
AcDbEntity
   8
LEVEL001
 100
AcDbTrace
   6
CONTINUOUS
  62
8
  10
 88.372076023392
  20
 56.040677686111
  30
0.0
  11
 89.372076023392
  21
 55.864350705403
  31
0.0
  12
 89.372076023392
  22
 56.217004666820
  32
0.0
  13
 89.372076023392
  23
 56.217004666820
  33
0.0
   0
SOLID
   5
260
 100
AcDbEntity
   8
LEVEL001
 100
AcDbTrace
   6
CONTINUOUS
  62
8
  10
 108.37207602339
  20
 56.040677686111
  30
0.0
  11
 107.37207602339
  21
 56.217004666820
  31
0.0
  12
 107.37207602339
  22
 55.864350705403
  32
0.0
  13
 107.37207602339
  23
 55.864350705403
  33
0.0
   0
MTEXT
   5
261
 100
AcDbEntity
   8
LEVEL001
 370
15
  62
8
 100
AcDbMText
  10
 98.372076023392
  20
 56.540677686111
  30
0.0
  40
 1.2500000000000
  41
0.0
  71
8
  72
1
   1
\A1;20
   7
GMM002
   0
ENDBLK
   5
262
 100
AcDbEntity
   8
0
 100
AcDbBlockEnd
   0
BLOCK
   5
263
 100
AcDbEntity
   8
0
 100
AcDbBlockBegin
   2
*D45
  70
65
  10
0.0
  20
0.0
  30
0.0
   3
*D45
   0
LINE
   5
264
 100
AcDbEntity
   8
LEVEL001
 370
15
 100
AcDbLine
   6
CONTINUOUS
  62
8
  10
 94.872076023392
  20
 47.440677686111
  30
0.0
  11
 85.372076023392
  21
 47.440677686111
  31
0.0
   0
LINE
   5
265
 100
AcDbEntity
   8
LEVEL001
 370
15
 100
AcDbLine
   6
CONTINUOUS
  62
8
  10
 87.872076023392
  20
 50.040677686111
  30
0.0
  11
 85.372076023392
  21
 50.040677686111
  31
0.0
   0
LINE
   5
266
 100
AcDbEntity
   8
LEVEL001
 370
15
 100
AcDbLine
   6
CONTINUOUS
  62
8
  10
 85.872076023392
  20
 47.440677686111
  30
0.0
  11
 85.872076023392
  21
 48.740677686111
  31
0.0
   0
LINE
   5
267
 100
AcDbEntity
   8
LEVEL001
 370
15
 100
AcDbLine
   6
CONTINUOUS
  62
8
  10
 85.872076023392
  20
 50.040677686111
  30
0.0
  11
 85.872076023392
  21
 48.740677686111
  31
0.0
   0
SOLID
   5
268
 100
AcDbEntity
   8
LEVEL001
 100
AcDbTrace
   6
CONTINUOUS
  62
8
  10
 85.872076023392
  20
 47.440677686111
  30
0.0
  11
 86.048403004101
  21
 48.440677686111
  31
0.0
  12
 85.695749042684
  22
 48.440677686111
  32
0.0
  13
 85.695749042684
  23
 48.440677686111
  33
0.0
   0
SOLID
   5
269
 100
AcDbEntity
   8
LEVEL001
 100
AcDbTrace
   6
CONTINUOUS
  62
8
  10
 85.872076023392
  20
 50.040677686111
  30
0.0
  11
 85.695749042684
  21
 49.040677686111
  31
0.0
  12
 86.048403004101
  22
 49.040677686111
  32
0.0
  13
 86.048403004101
  23
 49.040677686111
  33
0.0
   0
MTEXT
   5
26A
 100
AcDbEntity
   8
LEVEL001
 370
15
  62
8
 100
AcDbMText
  10
 85.372076023392
  20
 48.740677686111
  30
0.0
  40
 1.2500000000000
  41
0.0
  71
8
  72
1
   1
\A1;2.6
   7
GMM002
  11
0.0
  21
 1.0000000000000
  31
0.0
   0
ENDBLK
   5
26B
 100
AcDbEntity
   8
0
 100
AcDbBlockEnd
   0
BLOCK
   5
26C
 100
AcDbEntity
   8
0
 100
AcDbBlockBegin
   2
*D46
  70
65
  10
0.0
  20
0.0
  30
0.0
   3
*D46
   0
LINE
   5
26D
 100
AcDbEntity
   8
LEVEL001
 370
15
 100
AcDbLine
   6
CONTINUOUS
  62
8
  10
 20.230886092042
  20
 24.700000000005
  30
0.0
  11
 20.230886092042
  21
 10.500000000005
  31
0.0
   0
LINE
   5
26E
 100
AcDbEntity
   8
LEVEL001
 370
15
 100
AcDbLine
   6
CONTINUOUS
  62
8
  10
 32.430886092042
  20
 24.700000000005
  30
0.0
  11
 32.430886092042
  21
 10.500000000005
  31
0.0
   0
LINE
   5
26F
 100
AcDbEntity
   8
LEVEL001
 370
15
 100
AcDbLine
   6
CONTINUOUS
  62
8
  10
 20.230886092042
  20
 11.000000000005
  30
0.0
  11
 26.330886092042
  21
 11.000000000005
  31
0.0
   0
LINE
   5
270
 100
AcDbEntity
   8
LEVEL001
 370
15
 100
AcDbLine
   6
CONTINUOUS
  62
8
  10
 32.430886092042
  20
 11.000000000005
  30
0.0
  11
 26.330886092042
  21
 11.000000000005
  31
0.0
   0
SOLID
   5
271
 100
AcDbEntity
   8
LEVEL001
 100
AcDbTrace
   6
CONTINUOUS
  62
8
  10
 20.230886092042
  20
 11.000000000005
  30
0.0
  11
 21.230886092042
  21
 10.823673019297
  31
0.0
  12
 21.230886092042
  22
 11.176326980713
  32
0.0
  13
 21.230886092042
  23
 11.176326980713
  33
0.0
   0
SOLID
   5
272
 100
AcDbEntity
   8
LEVEL001
 100
AcDbTrace
   6
CONTINUOUS
  62
8
  10
 32.430886092042
  20
 11.000000000005
  30
0.0
  11
 31.430886092042
  21
 11.176326980713
  31
0.0
  12
 31.430886092042
  22
 10.823673019297
  32
0.0
  13
 31.430886092042
  23
 10.823673019297
  33
0.0
   0
MTEXT
   5
273
 100
AcDbEntity
   8
LEVEL001
 370
15
  62
8
 100
AcDbMText
  10
 26.330886092042
  20
 11.500000000005
  30
0.0
  40
 1.2500000000000
  41
0.0
  71
8
  72
1
   1
\A1;12.2
   7
GMM002
   0
ENDBLK
   5
274
 100
AcDbEntity
   8
0
 100
AcDbBlockEnd
   0
BLOCK
   5
275
 100
AcDbEntity
   8
0
 100
AcDbBlockBegin
   2
*D47
  70
65
  10
0.0
  20
0.0
  30
0.0
   3
*D47
   0
LINE
   5
276
 100
AcDbEntity
   8
LEVEL001
 370
15
 100
AcDbLine
   6
CONTINUOUS
  62
8
  10
 18.230886092042
  20
 26.534748488215
  30
0.0
  11
 18.230886092042
  21
 30.500000000005
  31
0.0
   0
LINE
   5
277
 100
AcDbEntity
   8
LEVEL001
 370
15
 100
AcDbLine
   6
CONTINUOUS
  62
8
  10
 34.430886092042
  20
 26.624247598309
  30
0.0
  11
 34.430886092042
  21
 30.500000000005
  31
0.0
   0
LINE
   5
278
 100
AcDbEntity
   8
LEVEL001
 370
15
 100
AcDbLine
   6
CONTINUOUS
  62
8
  10
 18.230886092042
  20
 30.000000000005
  30
0.0
  11
 26.330886092042
  21
 30.000000000005
  31
0.0
   0
LINE
   5
279
 100
AcDbEntity
   8
LEVEL001
 370
15
 100
AcDbLine
   6
CONTINUOUS
  62
8
  10
 34.430886092042
  20
 30.000000000005
  30
0.0
  11
 26.330886092042
  21
 30.000000000005
  31
0.0
   0
SOLID
   5
27A
 100
AcDbEntity
   8
LEVEL001
 100
AcDbTrace
   6
CONTINUOUS
  62
8
  10
 18.230886092042
  20
 30.000000000005
  30
0.0
  11
 19.230886092042
  21
 29.823673019297
  31
0.0
  12
 19.230886092042
  22
 30.176326980713
  32
0.0
  13
 19.230886092042
  23
 30.176326980713
  33
0.0
   0
SOLID
   5
27B
 100
AcDbEntity
   8
LEVEL001
 100
AcDbTrace
   6
CONTINUOUS
  62
8
  10
 34.430886092042
  20
 30.000000000005
  30
0.0
  11
 33.430886092042
  21
 30.176326980713
  31
0.0
  12
 33.430886092042
  22
 29.823673019297
  32
0.0
  13
 33.430886092042
  23
 29.823673019297
  33
0.0
   0
MTEXT
   5
27C
 100
AcDbEntity
   8
LEVEL001
 370
15
  62
8
 100
AcDbMText
  10
 26.330886092042
  20
 30.500000000005
  30
0.0
  40
 1.2500000000000
  41
0.0
  71
8
  72
1
   1
\A1;16.2
   7
GMM002
   0
ENDBLK
   5
27D
 100
AcDbEntity
   8
0
 100
AcDbBlockEnd
   0
BLOCK
   5
27E
 100
AcDbEntity
   8
0
 100
AcDbBlockBegin
   2
*D48
  70
65
  10
0.0
  20
0.0
  30
0.0
   3
*D48
   0
LINE
   5
27F
 100
AcDbEntity
   8
LEVEL001
 370
15
 100
AcDbLine
   6
CONTINUOUS
  62
8
  10
 37.430886092042
  20
 14.000000000005
  30
0.0
  11
 39.930886092042
  21
 14.000000000005
  31
0.0
   0
LINE
   5
280
 100
AcDbEntity
   8
LEVEL001
 370
15
 100
AcDbLine
   6
CONTINUOUS
  62
8
  10
 37.430886092042
  20
 27.000000000005
  30
0.0
  11
 39.930886092042
  21
 27.000000000005
  31
0.0
   0
LINE
   5
281
 100
AcDbEntity
   8
LEVEL001
 370
15
 100
AcDbLine
   6
CONTINUOUS
  62
8
  10
 39.430886092042
  20
 14.000000000005
  30
0.0
  11
 39.430886092042
  21
 20.500000000005
  31
0.0
   0
LINE
   5
282
 100
AcDbEntity
   8
LEVEL001
 370
15
 100
AcDbLine
   6
CONTINUOUS
  62
8
  10
 39.430886092042
  20
 27.000000000005
  30
0.0
  11
 39.430886092042
  21
 20.500000000005
  31
0.0
   0
SOLID
   5
283
 100
AcDbEntity
   8
LEVEL001
 100
AcDbTrace
   6
CONTINUOUS
  62
8
  10
 39.430886092042
  20
 14.000000000005
  30
0.0
  11
 39.607213072750
  21
 15.000000000005
  31
0.0
  12
 39.254559111333
  22
 15.000000000005
  32
0.0
  13
 39.254559111333
  23
 15.000000000005
  33
0.0
   0
SOLID
   5
284
 100
AcDbEntity
   8
LEVEL001
 100
AcDbTrace
   6
CONTINUOUS
  62
8
  10
 39.430886092042
  20
 27.000000000005
  30
0.0
  11
 39.254559111333
  21
 26.000000000005
  31
0.0
  12
 39.607213072750
  22
 26.000000000005
  32
0.0
  13
 39.607213072750
  23
 26.000000000005
  33
0.0
   0
MTEXT
   5
285
 100
AcDbEntity
   8
LEVEL001
 370
15
  62
8
 100
AcDbMText
  10
 38.930886092042
  20
 20.500000000005
  30
0.0
  40
 1.2500000000000
  41
0.0
  71
8
  72
1
   1
\A1;13
   7
GMM002
  11
0.0
  21
 1.0000000000000
  31
0.0
   0
ENDBLK
   5
286
 100
AcDbEntity
   8
0
 100
AcDbBlockEnd
   0
BLOCK
   5
287
 100
AcDbEntity
   8
0
 100
AcDbBlockBegin
   2
*D49
  70
65
  10
0.0
  20
0.0
  30
0.0
   3
*D49
   0
LINE
   5
288
 100
AcDbEntity
   8
LEVEL001
 370
15
 100
AcDbLine
   6
CONTINUOUS
  62
8
  10
 32.080886092042
  20
 14.000000000005
  30
0.0
  11
 37.430886092042
  21
 14.000000000005
  31
0.0
   0
LINE
   5
289
 100
AcDbEntity
   8
LEVEL001
 370
15
 100
AcDbLine
   6
CONTINUOUS
  62
8
  10
 36.930886092042
  20
 14.000000000005
  30
0.0
  11
 36.930886092042
  21
 20.000000000005
  31
0.0
   0
LINE
   5
28A
 100
AcDbEntity
   8
LEVEL001
 370
15
 100
AcDbLine
   6
CONTINUOUS
  62
8
  10
 36.930886092042
  20
 26.000000000005
  30
0.0
  11
 36.930886092042
  21
 20.000000000005
  31
0.0
   0
SOLID
   5
28B
 100
AcDbEntity
   8
LEVEL001
 100
AcDbTrace
   6
CONTINUOUS
  62
8
  10
 36.930886092042
  20
 14.000000000005
  30
0.0
  11
 37.107213072750
  21
 15.000000000005
  31
0.0
  12
 36.754559111333
  22
 15.000000000005
  32
0.0
  13
 36.754559111333
  23
 15.000000000005
  33
0.0
   0
SOLID
   5
28C
 100
AcDbEntity
   8
LEVEL001
 100
AcDbTrace
   6
CONTINUOUS
  62
8
  10
 36.930886092042
  20
 26.000000000005
  30
0.0
  11
 36.754559111333
  21
 25.000000000005
  31
0.0
  12
 37.107213072750
  22
 25.000000000005
  32
0.0
  13
 37.107213072750
  23
 25.000000000005
  33
0.0
   0
MTEXT
   5
28D
 100
AcDbEntity
   8
LEVEL001
 370
15
  62
8
 100
AcDbMText
  10
 36.430886092042
  20
 20.000000000005
  30
0.0
  40
 1.2500000000000
  41
0.0
  71
8
  72
1
   1
\A1;12
   7
GMM002
  11
0.0
  21
 1.0000000000000
  31
0.0
   0
ENDBLK
   5
28E
 100
AcDbEntity
   8
0
 100
AcDbBlockEnd
   0
BLOCK
   5
28F
 100
AcDbEntity
   8
0
 100
AcDbBlockBegin
   2
*D50
  70
65
  10
0.0
  20
0.0
  30
0.0
   3
*D50
   0
LINE
   5
290
 100
AcDbEntity
   8
LEVEL001
 370
15
 100
AcDbLine
   6
CONTINUOUS
  62
8
  10
 34.630886092041
  20
 26.000000000005
  30
0.0
  11
 37.430886092042
  21
 26.000000000005
  31
0.0
   0
LINE
   5
291
 100
AcDbEntity
   8
LEVEL001
 370
15
 100
AcDbLine
   6
CONTINUOUS
  62
8
  10
 33.130886092041
  20
 27.000000000005
  30
0.0
  11
 37.430886092042
  21
 27.000000000005
  31
0.0
   0
LINE
   5
292
 100
AcDbEntity
   8
LEVEL001
 370
15
 100
AcDbLine
   6
CONTINUOUS
  62
8
  10
 36.930886092042
  20
 26.000000000005
  30
0.0
  11
 36.930886092042
  21
 26.500000000005
  31
0.0
   0
LINE
   5
293
 100
AcDbEntity
   8
LEVEL001
 370
15
 100
AcDbLine
   6
CONTINUOUS
  62
8
  10
 36.930886092042
  20
 29.089647208446
  30
0.0
  11
 36.930886092042
  21
 26.500000000005
  31
0.0
   0
SOLID
   5
294
 100
AcDbEntity
   8
LEVEL001
 100
AcDbTrace
   6
CONTINUOUS
  62
8
  10
 36.930886092042
  20
 27.000000000005
  30
0.0
  11
 37.107213072750
  21
 28.000000000005
  31
0.0
  12
 36.754559111333
  22
 28.000000000005
  32
0.0
  13
 36.754559111333
  23
 28.000000000005
  33
0.0
   0
MTEXT
   5
295
 100
AcDbEntity
   8
LEVEL001
 370
15
  62
8
 100
AcDbMText
  10
 36.415005649545
  20
 27.839647208446
  30
0.0
  40
 1.2500000000000
  41
0.0
  71
7
  72
1
   1
\A1;1
   7
GMM002
  11
0.0
  21
 1.0000000000000
  31
0.0
   0
ENDBLK
   5
296
 100
AcDbEntity
   8
0
 100
AcDbBlockEnd
   0
BLOCK
   5
297
 100
AcDbEntity
   8
0
 100
AcDbBlockBegin
   2
*D51
  70
65
  10
0.0
  20
0.0
  30
0.0
   3
*D51
   0
LINE
   5
298
 100
AcDbEntity
   8
LEVEL001
 370
15
 100
AcDbLine
   6
CONTINUOUS
  62
8
  10
 25.830886092042
  20
 23.400000000005
  30
0.0
  11
 15.230886092042
  21
 23.400000000005
  31
0.0
   0
LINE
   5
299
 100
AcDbEntity
   8
LEVEL001
 370
15
 100
AcDbLine
   6
CONTINUOUS
  62
8
  10
 19.730886092042
  20
 27.000000000005
  30
0.0
  11
 15.230886092042
  21
 27.000000000005
  31
0.0
   0
LINE
   5
29A
 100
AcDbEntity
   8
LEVEL001
 370
15
 100
AcDbLine
   6
CONTINUOUS
  62
8
  10
 15.730886092042
  20
 23.400000000005
  30
0.0
  11
 15.730886092042
  21
 25.200000000005
  31
0.0
   0
LINE
   5
29B
 100
AcDbEntity
   8
LEVEL001
 370
15
 100
AcDbLine
   6
CONTINUOUS
  62
8
  10
 15.730886092042
  20
 27.000000000005
  30
0.0
  11
 15.730886092042
  21
 25.200000000005
  31
0.0
   0
SOLID
   5
29C
 100
AcDbEntity
   8
LEVEL001
 100
AcDbTrace
   6
CONTINUOUS
  62
8
  10
 15.730886092042
  20
 23.400000000005
  30
0.0
  11
 15.907213072750
  21
 24.400000000005
  31
0.0
  12
 15.554559111333
  22
 24.400000000005
  32
0.0
  13
 15.554559111333
  23
 24.400000000005
  33
0.0
   0
SOLID
   5
29D
 100
AcDbEntity
   8
LEVEL001
 100
AcDbTrace
   6
CONTINUOUS
  62
8
  10
 15.730886092042
  20
 27.000000000005
  30
0.0
  11
 15.554559111333
  21
 26.000000000005
  31
0.0
  12
 15.907213072750
  22
 26.000000000005
  32
0.0
  13
 15.907213072750
  23
 26.000000000005
  33
0.0
   0
MTEXT
   5
29E
 100
AcDbEntity
   8
LEVEL001
 370
15
  62
8
 100
AcDbMText
  10
 15.230886092042
  20
 25.200000000005
  30
0.0
  40
 1.2500000000000
  41
0.0
  71
8
  72
1
   1
\A1;3.6
   7
GMM002
  11
0.0
  21
 1.0000000000000
  31
0.0
   0
ENDBLK
   5
29F
 100
AcDbEntity
   8
0
 100
AcDbBlockEnd
   0
BLOCK
   5
2A0
 100
AcDbEntity
   8
0
 100
AcDbBlockBegin
   2
*D52
  70
65
  10
0.0
  20
0.0
  30
0.0
   3
*D52
   0
LINE
   5
2A1
 100
AcDbEntity
   8
LEVEL001
 370
15
 100
AcDbLine
   6
CONTINUOUS
  62
8
  10
 57.226115560641
  20
 27.026887871851
  30
0.0
  11
 57.226115560641
  21
 30.026887871851
  31
0.0
   0
LINE
   5
2A2
 100
AcDbEntity
   8
LEVEL001
 370
15
 100
AcDbLine
   6
CONTINUOUS
  62
8
  10
 69.226115560641
  20
 27.026887871851
  30
0.0
  11
 69.226115560641
  21
 30.026887871851
  31
0.0
   0
LINE
   5
2A3
 100
AcDbEntity
   8
LEVEL001
 370
15
 100
AcDbLine
   6
CONTINUOUS
  62
8
  10
 57.226115560641
  20
 29.526887871851
  30
0.0
  11
 63.226115560641
  21
 29.526887871851
  31
0.0
   0
LINE
   5
2A4
 100
AcDbEntity
   8
LEVEL001
 370
15
 100
AcDbLine
   6
CONTINUOUS
  62
8
  10
 69.226115560641
  20
 29.526887871851
  30
0.0
  11
 63.226115560641
  21
 29.526887871851
  31
0.0
   0
SOLID
   5
2A5
 100
AcDbEntity
   8
LEVEL001
 100
AcDbTrace
   6
CONTINUOUS
  62
8
  10
 57.226115560641
  20
 29.526887871851
  30
0.0
  11
 58.226115560641
  21
 29.350560891143
  31
0.0
  12
 58.226115560641
  22
 29.703214852560
  32
0.0
  13
 58.226115560641
  23
 29.703214852560
  33
0.0
   0
SOLID
   5
2A6
 100
AcDbEntity
   8
LEVEL001
 100
AcDbTrace
   6
CONTINUOUS
  62
8
  10
 69.226115560641
  20
 29.526887871851
  30
0.0
  11
 68.226115560641
  21
 29.703214852560
  31
0.0
  12
 68.226115560641
  22
 29.350560891143
  32
0.0
  13
 68.226115560641
  23
 29.350560891143
  33
0.0
   0
MTEXT
   5
2A7
 100
AcDbEntity
   8
LEVEL001
 370
15
  62
8
 100
AcDbMText
  10
 63.226115560641
  20
 30.026887871851
  30
0.0
  40
 1.2500000000000
  41
0.0
  71
8
  72
1
   1
\A1;24
   7
GMM002
   0
ENDBLK
   5
2A8
 100
AcDbEntity
   8
0
 100
AcDbBlockEnd
   0
BLOCK
   5
2A9
 100
AcDbEntity
   8
0
 100
AcDbBlockBegin
   2
*D53
  70
65
  10
0.0
  20
0.0
  30
0.0
   3
*D53
   0
LINE
   5
2AA
 100
AcDbEntity
   8
LEVEL001
 370
15
 100
AcDbLine
   6
CONTINUOUS
  62
8
  10
 62.726115560639
  20
 23.495798958602
  30
0.0
  11
 54.226115560641
  21
 23.495798958602
  31
0.0
   0
LINE
   5
2AB
 100
AcDbEntity
   8
LEVEL001
 370
15
 100
AcDbLine
   6
CONTINUOUS
  62
8
  10
 56.726115560641
  20
 26.526887871851
  30
0.0
  11
 54.226115560641
  21
 26.526887871851
  31
0.0
   0
LINE
   5
2AC
 100
AcDbEntity
   8
LEVEL001
 370
15
 100
AcDbLine
   6
CONTINUOUS
  62
8
  10
 54.726115560641
  20
 23.495798958602
  30
0.0
  11
 54.726115560641
  21
 25.011343415227
  31
0.0
   0
LINE
   5
2AD
 100
AcDbEntity
   8
LEVEL001
 370
15
 100
AcDbLine
   6
CONTINUOUS
  62
8
  10
 54.726115560641
  20
 26.526887871851
  30
0.0
  11
 54.726115560641
  21
 25.011343415227
  31
0.0
   0
SOLID
   5
2AE
 100
AcDbEntity
   8
LEVEL001
 100
AcDbTrace
   6
CONTINUOUS
  62
8
  10
 54.726115560641
  20
 23.495798958602
  30
0.0
  11
 54.902442541349
  21
 24.495798958602
  31
0.0
  12
 54.549788579932
  22
 24.495798958602
  32
0.0
  13
 54.549788579932
  23
 24.495798958602
  33
0.0
   0
SOLID
   5
2AF
 100
AcDbEntity
   8
LEVEL001
 100
AcDbTrace
   6
CONTINUOUS
  62
8
  10
 54.726115560641
  20
 26.526887871851
  30
0.0
  11
 54.549788579932
  21
 25.526887871851
  31
0.0
  12
 54.902442541349
  22
 25.526887871851
  32
0.0
  13
 54.902442541349
  23
 25.526887871851
  33
0.0
   0
MTEXT
   5
2B0
 100
AcDbEntity
   8
LEVEL001
 370
15
  62
8
 100
AcDbMText
  10
 54.226115560641
  20
 25.011343415227
  30
0.0
  40
 1.2500000000000
  41
0.0
  71
8
  72
1
   1
\A1;6
   7
GMM002
  11
0.0
  21
 1.0000000000000
  31
0.0
   0
ENDBLK
   5
2B1
 100
AcDbEntity
   8
0
 100
AcDbBlockEnd
   0
BLOCK
   5
2B2
 100
AcDbEntity
   8
0
 100
AcDbBlockBegin
   2
*D54
  70
65
  10
0.0
  20
0.0
  30
0.0
   3
*D54
   0
LINE
   5
2B3
 100
AcDbEntity
   8
LEVEL001
 370
15
 100
AcDbLine
   6
CONTINUOUS
  62
8
  10
 68.976115560641
  20
 14.026887871853
  30
0.0
  11
 72.726115560641
  21
 14.026887871853
  31
0.0
   0
LINE
   5
2B4
 100
AcDbEntity
   8
LEVEL001
 370
15
 100
AcDbLine
   6
CONTINUOUS
  62
8
  10
 69.726115560641
  20
 26.526887871851
  30
0.0
  11
 72.726115560641
  21
 26.526887871851
  31
0.0
   0
LINE
   5
2B5
 100
AcDbEntity
   8
LEVEL001
 370
15
 100
AcDbLine
   6
CONTINUOUS
  62
8
  10
 72.226115560641
  20
 14.026887871853
  30
0.0
  11
 72.226115560641
  21
 20.276887871852
  31
0.0
   0
LINE
   5
2B6
 100
AcDbEntity
   8
LEVEL001
 370
15
 100
AcDbLine
   6
CONTINUOUS
  62
8
  10
 72.226115560641
  20
 26.526887871851
  30
0.0
  11
 72.226115560641
  21
 20.276887871852
  31
0.0
   0
SOLID
   5
2B7
 100
AcDbEntity
   8
LEVEL001
 100
AcDbTrace
   6
CONTINUOUS
  62
8
  10
 72.226115560641
  20
 14.026887871853
  30
0.0
  11
 72.402442541349
  21
 15.026887871853
  31
0.0
  12
 72.049788579932
  22
 15.026887871853
  32
0.0
  13
 72.049788579932
  23
 15.026887871853
  33
0.0
   0
SOLID
   5
2B8
 100
AcDbEntity
   8
LEVEL001
 100
AcDbTrace
   6
CONTINUOUS
  62
8
  10
 72.226115560641
  20
 26.526887871851
  30
0.0
  11
 72.049788579932
  21
 25.526887871851
  31
0.0
  12
 72.402442541349
  22
 25.526887871851
  32
0.0
  13
 72.402442541349
  23
 25.526887871851
  33
0.0
   0
MTEXT
   5
2B9
 100
AcDbEntity
   8
LEVEL001
 370
15
  62
8
 100
AcDbMText
  10
 71.726115560641
  20
 20.276887871852
  30
0.0
  40
 1.2500000000000
  41
0.0
  71
8
  72
1
   1
\A1;25
   7
GMM002
  11
0.0
  21
 1.0000000000000
  31
0.0
   0
ENDBLK
   5
2BA
 100
AcDbEntity
   8
0
 100
AcDbBlockEnd
   0
ENDSEC
   0
SECTION
   2
ENTITIES
   0
LINE
   5
2BB
 100
AcDbEntity
   8
LEVEL002
 370
30
 100
AcDbLine
   6
CONTINUOUS
  62
7
  10
 172.07500000000
  20
 136.03750000000
  30
0.0
  11
 168.47500000000
  21
 136.03750000000
  31
0.0
   0
LINE
   5
2BC
 100
AcDbEntity
   8
LEVEL002
 370
30
 100
AcDbLine
   6
CONTINUOUS
  62
7
  10
 168.47500000000
  20
 136.03750000000
  30
0.0
  11
 168.47500000000
  21
 130.63750000000
  31
0.0
   0
LINE
   5
2BD
 100
AcDbEntity
   8
LEVEL002
 370
30
 100
AcDbLine
   6
CONTINUOUS
  62
7
  10
 168.47500000000
  20
 130.63750000000
  30
0.0
  11
 170.27500000000
  21
 130.63750000000
  31
0.0
   0
LINE
   5
2BE
 100
AcDbEntity
   8
LEVEL002
 370
30
 100
AcDbLine
   6
CONTINUOUS
  62
7
  10
 170.27500000000
  20
 130.63750000000
  30
0.0
  11
 170.27500000000
  21
 131.53750000000
  31
0.0
   0
LINE
   5
2BF
 100
AcDbEntity
   8
LEVEL002
 370
30
 100
AcDbLine
   6
CONTINUOUS
  62
7
  10
 170.27500000000
  20
 131.53750000000
  30
0.0
  11
 172.07500000000
  21
 131.53750000000
  31
0.0
   0
ARC
   5
2C0
 100
AcDbEntity
   8
LEVEL002
 370
30
   6
CONTINUOUS
  62
7
 100
AcDbCircle
  10
 172.07500000000
  20
 133.78750000000
  30
0.0
  40
 2.2500000000000
 100
AcDbArc
  50
 270.00000000000
  51
 90.000000000000
   0
LINE
   5
2C1
 100
AcDbEntity
   8
LEVEL002
 370
30
 100
AcDbLine
   6
CONTINUOUS
  62
7
  10
 170.27500000000
  20
 133.33750000000
  30
0.0
  11
 172.07500000000
  21
 133.33750000000
  31
0.0
   0
ARC
   5
2C2
 100
AcDbEntity
   8
LEVEL002
 370
30
   6
CONTINUOUS
  62
7
 100
AcDbCircle
  10
 172.07500000000
  20
 133.78750000000
  30
0.0
  40
 0.45000000000000
 100
AcDbArc
  50
 270.00000000000
  51
 90.000000000000
   0
LINE
   5
2C3
 100
AcDbEntity
   8
LEVEL002
 370
30
 100
AcDbLine
   6
CONTINUOUS
  62
7
  10
 172.07500000000
  20
 134.23750000000
  30
0.0
  11
 170.27500000000
  21
 134.23750000000
  31
0.0
   0
LINE
   5
2C4
 100
AcDbEntity
   8
LEVEL002
 370
30
 100
AcDbLine
   6
CONTINUOUS
  62
7
  10
 170.27500000000
  20
 134.23750000000
  30
0.0
  11
 170.27500000000
  21
 133.33750000000
  31
0.0
   0
LINE
   5
2C5
 100
AcDbEntity
   8
LEVEL002
 370
30
 100
AcDbLine
   6
CONTINUOUS
  62
7
  10
 172.97500000000
  20
 130.63750000000
  30
0.0
  11
 176.57500000000
  21
 136.03750000000
  31
0.0
   0
LINE
   5
2C6
 100
AcDbEntity
   8
LEVEL002
 370
30
 100
AcDbLine
   6
CONTINUOUS
  62
7
  10
 176.57500000000
  20
 136.03750000000
  30
0.0
  11
 181.07500000000
  21
 136.03750000000
  31
0.0
   0
LINE
   5
2C7
 100
AcDbEntity
   8
LEVEL002
 370
30
 100
AcDbLine
   6
CONTINUOUS
  62
7
  10
 181.07500000000
  20
 136.03750000000
  30
0.0
  11
 181.07500000000
  21
 132.43750000000
  31
0.0
   0
LINE
   5
2C8
 100
AcDbEntity
   8
LEVEL002
 370
30
 100
AcDbLine
   6
CONTINUOUS
  62
7
  10
 181.07500000000
  20
 132.43750000000
  30
0.0
  11
 183.77500000000
  21
 132.43750000000
  31
0.0
   0
LINE
   5
2C9
 100
AcDbEntity
   8
LEVEL002
 370
30
 100
AcDbLine
   6
CONTINUOUS
  62
7
  10
 183.77500000000
  20
 132.43750000000
  30
0.0
  11
 183.77500000000
  21
 134.23750000000
  31
0.0
   0
LINE
   5
2CA
 100
AcDbEntity
   8
LEVEL002
 370
30
 100
AcDbLine
   6
CONTINUOUS
  62
7
  10
 183.77500000000
  20
 134.23750000000
  30
0.0
  11
 181.97500000000
  21
 134.23750000000
  31
0.0
   0
LINE
   5
2CB
 100
AcDbEntity
   8
LEVEL002
 370
30
 100
AcDbLine
   6
CONTINUOUS
  62
7
  10
 181.97500000000
  20
 134.23750000000
  30
0.0
  11
 181.97500000000
  21
 136.03750000000
  31
0.0
   0
LINE
   5
2CC
 100
AcDbEntity
   8
LEVEL002
 370
30
 100
AcDbLine
   6
CONTINUOUS
  62
7
  10
 181.97500000000
  20
 136.03750000000
  30
0.0
  11
 192.77500000000
  21
 136.03750000000
  31
0.0
   0
LINE
   5
2CD
 100
AcDbEntity
   8
LEVEL002
 370
30
 100
AcDbLine
   6
CONTINUOUS
  62
7
  10
 192.77500000000
  20
 136.03750000000
  30
0.0
  11
 192.77500000000
  21
 134.23750000000
  31
0.0
   0
LINE
   5
2CE
 100
AcDbEntity
   8
LEVEL002
 370
30
 100
AcDbLine
   6
CONTINUOUS
  62
7
  10
 192.77500000000
  20
 134.23750000000
  30
0.0
  11
 189.17500000000
  21
 134.23750000000
  31
0.0
   0
LINE
   5
2CF
 100
AcDbEntity
   8
LEVEL002
 370
30
 100
AcDbLine
   6
CONTINUOUS
  62
7
  10
 189.17500000000
  20
 134.23750000000
  30
0.0
  11
 189.17500000000
  21
 133.78750000000
  31
0.0
   0
LINE
   5
2D0
 100
AcDbEntity
   8
LEVEL002
 370
30
 100
AcDbLine
   6
CONTINUOUS
  62
7
  10
 189.17500000000
  20
 133.78750000000
  30
0.0
  11
 192.32500000000
  21
 133.78750000000
  31
0.0
   0
LINE
   5
2D1
 100
AcDbEntity
   8
LEVEL002
 370
30
 100
AcDbLine
   6
CONTINUOUS
  62
7
  10
 192.32500000000
  20
 133.78750000000
  30
0.0
  11
 192.32500000000
  21
 132.88750000000
  31
0.0
   0
LINE
   5
2D2
 100
AcDbEntity
   8
LEVEL002
 370
30
 100
AcDbLine
   6
CONTINUOUS
  62
7
  10
 192.32500000000
  20
 132.88750000000
  30
0.0
  11
 189.17500000000
  21
 132.88750000000
  31
0.0
   0
LINE
   5
2D3
 100
AcDbEntity
   8
LEVEL002
 370
30
 100
AcDbLine
   6
CONTINUOUS
  62
7
  10
 189.17500000000
  20
 132.88750000000
  30
0.0
  11
 189.17500000000
  21
 132.43750000000
  31
0.0
   0
LINE
   5
2D4
 100
AcDbEntity
   8
LEVEL002
 370
30
 100
AcDbLine
   6
CONTINUOUS
  62
7
  10
 189.17500000000
  20
 132.43750000000
  30
0.0
  11
 192.77500000000
  21
 132.43750000000
  31
0.0
   0
LINE
   5
2D5
 100
AcDbEntity
   8
LEVEL002
 370
30
 100
AcDbLine
   6
CONTINUOUS
  62
7
  10
 192.77500000000
  20
 132.43750000000
  30
0.0
  11
 192.77500000000
  21
 130.63750000000
  31
0.0
   0
LINE
   5
2D6
 100
AcDbEntity
   8
LEVEL002
 370
30
 100
AcDbLine
   6
CONTINUOUS
  62
7
  10
 192.77500000000
  20
 130.63750000000
  30
0.0
  11
 187.37500000000
  21
 130.63750000000
  31
0.0
   0
LINE
   5
2D7
 100
AcDbEntity
   8
LEVEL002
 370
30
 100
AcDbLine
   6
CONTINUOUS
  62
7
  10
 187.37500000000
  20
 130.63750000000
  30
0.0
  11
 187.37500000000
  21
 134.23750000000
  31
0.0
   0
LINE
   5
2D8
 100
AcDbEntity
   8
LEVEL002
 370
30
 100
AcDbLine
   6
CONTINUOUS
  62
7
  10
 187.37500000000
  20
 134.23750000000
  30
0.0
  11
 185.57500000000
  21
 134.23750000000
  31
0.0
   0
LINE
   5
2D9
 100
AcDbEntity
   8
LEVEL002
 370
30
 100
AcDbLine
   6
CONTINUOUS
  62
7
  10
 185.57500000000
  20
 134.23750000000
  30
0.0
  11
 185.57500000000
  21
 130.63750000000
  31
0.0
   0
LINE
   5
2DA
 100
AcDbEntity
   8
LEVEL002
 370
30
 100
AcDbLine
   6
CONTINUOUS
  62
7
  10
 185.57500000000
  20
 130.63750000000
  30
0.0
  11
 179.27500000000
  21
 130.63750000000
  31
0.0
   0
LINE
   5
2DB
 100
AcDbEntity
   8
LEVEL002
 370
30
 100
AcDbLine
   6
CONTINUOUS
  62
7
  10
 179.27500000000
  20
 130.63750000000
  30
0.0
  11
 179.27500000000
  21
 136.03750000000
  31
0.0
   0
LINE
   5
2DC
 100
AcDbEntity
   8
LEVEL002
 370
30
 100
AcDbLine
   6
CONTINUOUS
  62
7
  10
 179.27500000000
  20
 136.03750000000
  30
0.0
  11
 175.67500000000
  21
 130.63750000000
  31
0.0
   0
LINE
   5
2DD
 100
AcDbEntity
   8
LEVEL002
 370
30
 100
AcDbLine
   6
CONTINUOUS
  62
7
  10
 175.67500000000
  20
 130.63750000000
  30
0.0
  11
 172.97500000000
  21
 130.63750000000
  31
0.0
   0
LINE
   5
2DE
 100
AcDbEntity
   8
LEVEL002
 370
30
 100
AcDbLine
   6
CONTINUOUS
  62
7
  10
 178.67500000000
  20
 134.05583461735
  30
0.0
  11
 176.39611025510
  21
 130.63750000000
  31
0.0
   0
LINE
   5
2DF
 100
AcDbEntity
   8
LEVEL002
 370
30
 100
AcDbLine
   6
CONTINUOUS
  62
7
  10
 176.39611025510
  20
 130.63750000000
  30
0.0
  11
 178.67500000000
  21
 130.63750000000
  31
0.0
   0
LINE
   5
2E0
 100
AcDbEntity
   8
LEVEL002
 370
30
 100
AcDbLine
   6
CONTINUOUS
  62
7
  10
 178.67500000000
  20
 130.63750000000
  30
0.0
  11
 178.67500000000
  21
 134.05583461735
  31
0.0
   0
ARC
   5
2E1
 100
AcDbEntity
   8
LEVEL002
 370
30
   6
CONTINUOUS
  62
7
 100
AcDbCircle
  10
 195.47500000000
  20
 133.33750000000
  30
0.0
  40
 2.7000000000000
 100
AcDbArc
  50
 90.000000000000
  51
 270.00000000000
   0
ARC
   5
2E2
 100
AcDbEntity
   8
LEVEL002
 370
30
   6
CONTINUOUS
  62
7
 100
AcDbCircle
  10
 195.47500000000
  20
 133.33750000000
  30
0.0
  40
 0.90000000000000
 100
AcDbArc
  50
 90.000000000000
  51
 270.00000000000
   0
LINE
   5
2E3
 100
AcDbEntity
   8
LEVEL002
 370
30
 100
AcDbLine
   6
CONTINUOUS
  62
7
  10
 195.47500000000
  20
 136.03750000000
  30
0.0
  11
 198.17500000000
  21
 136.03750000000
  31
0.0
   0
LINE
   5
2E4
 100
AcDbEntity
   8
LEVEL002
 370
30
 100
AcDbLine
   6
CONTINUOUS
  62
7
  10
 198.17500000000
  20
 136.03750000000
  30
0.0
  11
 198.17500000000
  21
 134.23750000000
  31
0.0
   0
LINE
   5
2E5
 100
AcDbEntity
   8
LEVEL002
 370
30
 100
AcDbLine
   6
CONTINUOUS
  62
7
  10
 198.17500000000
  20
 134.23750000000
  30
0.0
  11
 195.47500000000
  21
 134.23750000000
  31
0.0
   0
LINE
   5
2E6
 100
AcDbEntity
   8
LEVEL002
 370
30
 100
AcDbLine
   6
CONTINUOUS
  62
7
  10
 168.47500000000
  20
 136.03750000000
  30
0.0
  11
 168.47500000000
  21
 130.63750000000
  31
0.0
   0
LINE
   5
2E7
 100
AcDbEntity
   8
LEVEL002
 370
30
 100
AcDbLine
   6
CONTINUOUS
  62
7
  10
 168.47500000000
  20
 130.63750000000
  30
0.0
  11
 170.27500000000
  21
 130.63750000000
  31
0.0
   0
LINE
   5
2E8
 100
AcDbEntity
   8
LEVEL002
 370
30
 100
AcDbLine
   6
CONTINUOUS
  62
7
  10
 170.27500000000
  20
 130.63750000000
  30
0.0
  11
 170.27500000000
  21
 131.53750000000
  31
0.0
   0
LINE
   5
2E9
 100
AcDbEntity
   8
LEVEL002
 370
30
 100
AcDbLine
   6
CONTINUOUS
  62
7
  10
 170.27500000000
  20
 131.53750000000
  30
0.0
  11
 172.07500000000
  21
 131.53750000000
  31
0.0
   0
ARC
   5
2EA
 100
AcDbEntity
   8
LEVEL002
 370
30
   6
CONTINUOUS
  62
7
 100
AcDbCircle
  10
 172.07500000000
  20
 133.78750000000
  30
0.0
  40
 2.2500000000000
 100
AcDbArc
  50
 270.00000000000
  51
 90.000000000000
   0
LINE
   5
2EB
 100
AcDbEntity
   8
LEVEL002
 370
30
 100
AcDbLine
   6
CONTINUOUS
  62
7
  10
 172.07500000000
  20
 136.03750000000
  30
0.0
  11
 168.47500000000
  21
 136.03750000000
  31
0.0
   0
LINE
   5
2EC
 100
AcDbEntity
   8
LEVEL002
 370
30
 100
AcDbLine
   6
CONTINUOUS
  62
7
  10
 170.27500000000
  20
 134.23750000000
  30
0.0
  11
 170.27500000000
  21
 133.33750000000
  31
0.0
   0
LINE
   5
2ED
 100
AcDbEntity
   8
LEVEL002
 370
30
 100
AcDbLine
   6
CONTINUOUS
  62
7
  10
 170.27500000000
  20
 133.33750000000
  30
0.0
  11
 172.07500000000
  21
 133.33750000000
  31
0.0
   0
ARC
   5
2EE
 100
AcDbEntity
   8
LEVEL002
 370
30
   6
CONTINUOUS
  62
7
 100
AcDbCircle
  10
 172.07500000000
  20
 133.78750000000
  30
0.0
  40
 0.45000000000000
 100
AcDbArc
  50
 270.00000000000
  51
 90.000000000000
   0
LINE
   5
2EF
 100
AcDbEntity
   8
LEVEL002
 370
30
 100
AcDbLine
   6
CONTINUOUS
  62
7
  10
 172.07500000000
  20
 134.23750000000
  30
0.0
  11
 170.27500000000
  21
 134.23750000000
  31
0.0
   0
LINE
   5
2F0
 100
AcDbEntity
   8
LEVEL002
 370
30
 100
AcDbLine
   6
CONTINUOUS
  62
7
  10
 176.57500000000
  20
 136.03750000000
  30
0.0
  11
 172.97500000000
  21
 130.63750000000
  31
0.0
   0
LINE
   5
2F1
 100
AcDbEntity
   8
LEVEL002
 370
30
 100
AcDbLine
   6
CONTINUOUS
  62
7
  10
 172.97500000000
  20
 130.63750000000
  30
0.0
  11
 175.67500000000
  21
 130.63750000000
  31
0.0
   0
LINE
   5
2F2
 100
AcDbEntity
   8
LEVEL002
 370
30
 100
AcDbLine
   6
CONTINUOUS
  62
7
  10
 175.67500000000
  20
 130.63750000000
  30
0.0
  11
 179.27500000000
  21
 136.03750000000
  31
0.0
   0
LINE
   5
2F3
 100
AcDbEntity
   8
LEVEL002
 370
30
 100
AcDbLine
   6
CONTINUOUS
  62
7
  10
 179.27500000000
  20
 136.03750000000
  30
0.0
  11
 176.57500000000
  21
 136.03750000000
  31
0.0
   0
LINE
   5
2F4
 100
AcDbEntity
   8
LEVEL002
 370
30
 100
AcDbLine
   6
CONTINUOUS
  62
7
  10
 178.67500000000
  20
 130.63750000000
  30
0.0
  11
 178.67500000000
  21
 134.05583461735
  31
0.0
   0
LINE
   5
2F5
 100
AcDbEntity
   8
LEVEL002
 370
30
 100
AcDbLine
   6
CONTINUOUS
  62
7
  10
 178.67500000000
  20
 134.05583461735
  30
0.0
  11
 176.39611025510
  21
 130.63750000000
  31
0.0
   0
LINE
   5
2F6
 100
AcDbEntity
   8
LEVEL002
 370
30
 100
AcDbLine
   6
CONTINUOUS
  62
7
  10
 176.39611025510
  20
 130.63750000000
  30
0.0
  11
 178.67500000000
  21
 130.63750000000
  31
0.0
   0
LINE
   5
2F7
 100
AcDbEntity
   8
LEVEL002
 370
30
 100
AcDbLine
   6
CONTINUOUS
  62
7
  10
 179.27500000000
  20
 130.63750000000
  30
0.0
  11
 185.57500000000
  21
 130.63750000000
  31
0.0
   0
LINE
   5
2F8
 100
AcDbEntity
   8
LEVEL002
 370
30
 100
AcDbLine
   6
CONTINUOUS
  62
7
  10
 185.57500000000
  20
 130.63750000000
  30
0.0
  11
 185.57500000000
  21
 134.23750000000
  31
0.0
   0
LINE
   5
2F9
 100
AcDbEntity
   8
LEVEL002
 370
30
 100
AcDbLine
   6
CONTINUOUS
  62
7
  10
 185.57500000000
  20
 134.23750000000
  30
0.0
  11
 187.37500000000
  21
 134.23750000000
  31
0.0
   0
LINE
   5
2FA
 100
AcDbEntity
   8
LEVEL002
 370
30
 100
AcDbLine
   6
CONTINUOUS
  62
7
  10
 187.37500000000
  20
 134.23750000000
  30
0.0
  11
 187.37500000000
  21
 130.63750000000
  31
0.0
   0
LINE
   5
2FB
 100
AcDbEntity
   8
LEVEL002
 370
30
 100
AcDbLine
   6
CONTINUOUS
  62
7
  10
 187.37500000000
  20
 130.63750000000
  30
0.0
  11
 192.77500000000
  21
 130.63750000000
  31
0.0
   0
LINE
   5
2FC
 100
AcDbEntity
   8
LEVEL002
 370
30
 100
AcDbLine
   6
CONTINUOUS
  62
7
  10
 192.77500000000
  20
 130.63750000000
  30
0.0
  11
 192.77500000000
  21
 132.43750000000
  31
0.0
   0
LINE
   5
2FD
 100
AcDbEntity
   8
LEVEL002
 370
30
 100
AcDbLine
   6
CONTINUOUS
  62
7
  10
 192.77500000000
  20
 132.43750000000
  30
0.0
  11
 189.17500000000
  21
 132.43750000000
  31
0.0
   0
LINE
   5
2FE
 100
AcDbEntity
   8
LEVEL002
 370
30
 100
AcDbLine
   6
CONTINUOUS
  62
7
  10
 189.17500000000
  20
 132.43750000000
  30
0.0
  11
 189.17500000000
  21
 132.88750000000
  31
0.0
   0
LINE
   5
2FF
 100
AcDbEntity
   8
LEVEL002
 370
30
 100
AcDbLine
   6
CONTINUOUS
  62
7
  10
 189.17500000000
  20
 132.88750000000
  30
0.0
  11
 192.32500000000
  21
 132.88750000000
  31
0.0
   0
LINE
   5
300
 100
AcDbEntity
   8
LEVEL002
 370
30
 100
AcDbLine
   6
CONTINUOUS
  62
7
  10
 192.32500000000
  20
 132.88750000000
  30
0.0
  11
 192.32500000000
  21
 133.78750000000
  31
0.0
   0
LINE
   5
301
 100
AcDbEntity
   8
LEVEL002
 370
30
 100
AcDbLine
   6
CONTINUOUS
  62
7
  10
 192.32500000000
  20
 133.78750000000
  30
0.0
  11
 189.17500000000
  21
 133.78750000000
  31
0.0
   0
LINE
   5
302
 100
AcDbEntity
   8
LEVEL002
 370
30
 100
AcDbLine
   6
CONTINUOUS
  62
7
  10
 189.17500000000
  20
 133.78750000000
  30
0.0
  11
 189.17500000000
  21
 134.23750000000
  31
0.0
   0
LINE
   5
303
 100
AcDbEntity
   8
LEVEL002
 370
30
 100
AcDbLine
   6
CONTINUOUS
  62
7
  10
 189.17500000000
  20
 134.23750000000
  30
0.0
  11
 192.77500000000
  21
 134.23750000000
  31
0.0
   0
LINE
   5
304
 100
AcDbEntity
   8
LEVEL002
 370
30
 100
AcDbLine
   6
CONTINUOUS
  62
7
  10
 192.77500000000
  20
 134.23750000000
  30
0.0
  11
 192.77500000000
  21
 136.03750000000
  31
0.0
   0
LINE
   5
305
 100
AcDbEntity
   8
LEVEL002
 370
30
 100
AcDbLine
   6
CONTINUOUS
  62
7
  10
 192.77500000000
  20
 136.03750000000
  30
0.0
  11
 181.97500000000
  21
 136.03750000000
  31
0.0
   0
LINE
   5
306
 100
AcDbEntity
   8
LEVEL002
 370
30
 100
AcDbLine
   6
CONTINUOUS
  62
7
  10
 181.97500000000
  20
 136.03750000000
  30
0.0
  11
 181.97500000000
  21
 134.23750000000
  31
0.0
   0
LINE
   5
307
 100
AcDbEntity
   8
LEVEL002
 370
30
 100
AcDbLine
   6
CONTINUOUS
  62
7
  10
 181.97500000000
  20
 134.23750000000
  30
0.0
  11
 183.77500000000
  21
 134.23750000000
  31
0.0
   0
LINE
   5
308
 100
AcDbEntity
   8
LEVEL002
 370
30
 100
AcDbLine
   6
CONTINUOUS
  62
7
  10
 183.77500000000
  20
 134.23750000000
  30
0.0
  11
 183.77500000000
  21
 132.43750000000
  31
0.0
   0
LINE
   5
309
 100
AcDbEntity
   8
LEVEL002
 370
30
 100
AcDbLine
   6
CONTINUOUS
  62
7
  10
 183.77500000000
  20
 132.43750000000
  30
0.0
  11
 181.07500000000
  21
 132.43750000000
  31
0.0
   0
LINE
   5
30A
 100
AcDbEntity
   8
LEVEL002
 370
30
 100
AcDbLine
   6
CONTINUOUS
  62
7
  10
 181.07500000000
  20
 132.43750000000
  30
0.0
  11
 181.07500000000
  21
 136.03750000000
  31
0.0
   0
LINE
   5
30B
 100
AcDbEntity
   8
LEVEL002
 370
30
 100
AcDbLine
   6
CONTINUOUS
  62
7
  10
 181.07500000000
  20
 136.03750000000
  30
0.0
  11
 179.27500000000
  21
 136.03750000000
  31
0.0
   0
LINE
   5
30C
 100
AcDbEntity
   8
LEVEL002
 370
30
 100
AcDbLine
   6
CONTINUOUS
  62
7
  10
 179.27500000000
  20
 136.03750000000
  30
0.0
  11
 179.27500000000
  21
 130.63750000000
  31
0.0
   0
LINE
   5
30D
 100
AcDbEntity
   8
LEVEL002
 370
30
 100
AcDbLine
   6
CONTINUOUS
  62
7
  10
 195.47500000000
  20
 130.63750000000
  30
0.0
  11
 198.17500000000
  21
 130.63750000000
  31
0.0
   0
LINE
   5
30E
 100
AcDbEntity
   8
LEVEL002
 370
30
 100
AcDbLine
   6
CONTINUOUS
  62
7
  10
 198.17500000000
  20
 130.63750000000
  30
0.0
  11
 198.17500000000
  21
 132.43750000000
  31
0.0
   0
LINE
   5
30F
 100
AcDbEntity
   8
LEVEL002
 370
30
 100
AcDbLine
   6
CONTINUOUS
  62
7
  10
 198.17500000000
  20
 132.43750000000
  30
0.0
  11
 195.47500000000
  21
 132.43750000000
  31
0.0
   0
ARC
   5
310
 100
AcDbEntity
   8
LEVEL002
 370
30
   6
CONTINUOUS
  62
7
 100
AcDbCircle
  10
 195.47500000000
  20
 133.33750000000
  30
0.0
  40
 0.90000000000000
 100
AcDbArc
  50
 90.000000000000
  51
 270.00000000000
   0
LINE
   5
311
 100
AcDbEntity
   8
LEVEL002
 370
30
 100
AcDbLine
   6
CONTINUOUS
  62
7
  10
 195.47500000000
  20
 134.23750000000
  30
0.0
  11
 198.17500000000
  21
 134.23750000000
  31
0.0
   0
LINE
   5
312
 100
AcDbEntity
   8
LEVEL002
 370
30
 100
AcDbLine
   6
CONTINUOUS
  62
7
  10
 198.17500000000
  20
 134.23750000000
  30
0.0
  11
 198.17500000000
  21
 136.03750000000
  31
0.0
   0
LINE
   5
313
 100
AcDbEntity
   8
LEVEL002
 370
30
 100
AcDbLine
   6
CONTINUOUS
  62
7
  10
 198.17500000000
  20
 136.03750000000
  30
0.0
  11
 195.47500000000
  21
 136.03750000000
  31
0.0
   0
ARC
   5
314
 100
AcDbEntity
   8
LEVEL002
 370
30
   6
CONTINUOUS
  62
7
 100
AcDbCircle
  10
 195.47500000000
  20
 133.33750000000
  30
0.0
  40
 2.7000000000000
 100
AcDbArc
  50
 90.000000000000
  51
 270.00000000000
   0
MTEXT
   5
316
 100
AcDbEntity
   8
LEVEL002
 370
30
  62
7
 100
AcDbMText
  10
 168.47500000000
  20
 136.93750000000
  30
0.0
  40
 1.8750000000000
  41
0.0
  71
7
  72
1
   1
\T1.000000;ケージーパルテック株式会社
   7
GMM001
  44
 0.79999984000003
   0
LINE
   5
317
 100
AcDbEntity
   8
LEVEL002
 370
30
 100
AcDbLine
   6
CONTINUOUS
  62
7
  10
 166.67500000000
  20
 131.83750000000
  30
0.0
  11
 164.42500000000
  21
 135.43750000000
  31
0.0
   0
LINE
   5
318
 100
AcDbEntity
   8
LEVEL002
 370
30
 100
AcDbLine
   6
CONTINUOUS
  62
7
  10
 164.42500000000
  20
 135.43750000000
  30
0.0
  11
 166.67500000000
  21
 135.43750000000
  31
0.0
   0
LINE
   5
319
 100
AcDbEntity
   8
LEVEL002
 370
30
 100
AcDbLine
   6
CONTINUOUS
  62
7
  10
 166.67500000000
  20
 135.43750000000
  30
0.0
  11
 166.67500000000
  21
 131.83750000000
  31
0.0
   0
LINE
   5
31A
 100
AcDbEntity
   8
LEVEL002
 370
30
 100
AcDbLine
   6
CONTINUOUS
  62
7
  10
 164.42500000000
  20
 135.43750000000
  30
0.0
  11
 166.67500000000
  21
 131.83750000000
  31
0.0
   0
LINE
   5
31B
 100
AcDbEntity
   8
LEVEL002
 370
30
 100
AcDbLine
   6
CONTINUOUS
  62
7
  10
 166.67500000000
  20
 131.83750000000
  30
0.0
  11
 166.67500000000
  21
 135.43750000000
  31
0.0
   0
LINE
   5
31C
 100
AcDbEntity
   8
LEVEL002
 370
30
 100
AcDbLine
   6
CONTINUOUS
  62
7
  10
 166.67500000000
  20
 135.43750000000
  30
0.0
  11
 164.42500000000
  21
 135.43750000000
  31
0.0
   0
LINE
   5
31D
 100
AcDbEntity
   8
LEVEL002
 370
30
 100
AcDbLine
   6
CONTINUOUS
  62
7
  10
 159.52500000000
  20
 140.23750000000
  30
0.0
  11
 156.32500000000
  21
 135.43750000000
  31
0.0
   0
LINE
   5
31E
 100
AcDbEntity
   8
LEVEL002
 370
30
 100
AcDbLine
   6
CONTINUOUS
  62
7
  10
 156.32500000000
  20
 135.43750000000
  30
0.0
  11
 159.52500000000
  21
 130.63750000000
  31
0.0
   0
LINE
   5
31F
 100
AcDbEntity
   8
LEVEL002
 370
30
 100
AcDbLine
   6
CONTINUOUS
  62
7
  10
 162.22500000000
  20
 130.63750000000
  30
0.0
  11
 159.02500000000
  21
 135.43750000000
  31
0.0
   0
LINE
   5
320
 100
AcDbEntity
   8
LEVEL002
 370
30
 100
AcDbLine
   6
CONTINUOUS
  62
7
  10
 159.02500000000
  20
 135.43750000000
  30
0.0
  11
 162.22500000000
  21
 140.23750000000
  31
0.0
   0
LINE
   5
321
 100
AcDbEntity
   8
LEVEL002
 370
30
 100
AcDbLine
   6
CONTINUOUS
  62
7
  10
 163.57500000000
  20
 140.23750000000
  30
0.0
  11
 160.37500000000
  21
 135.43750000000
  31
0.0
   0
LINE
   5
322
 100
AcDbEntity
   8
LEVEL002
 370
30
 100
AcDbLine
   6
CONTINUOUS
  62
7
  10
 160.37500000000
  20
 135.43750000000
  30
0.0
  11
 163.57500000000
  21
 130.63750000000
  31
0.0
   0
LINE
   5
323
 100
AcDbEntity
   8
LEVEL002
 370
30
 100
AcDbLine
   6
CONTINUOUS
  62
7
  10
 166.27500000000
  20
 130.63750000000
  30
0.0
  11
 163.07500000000
  21
 135.43750000000
  31
0.0
   0
LINE
   5
324
 100
AcDbEntity
   8
LEVEL002
 370
30
 100
AcDbLine
   6
CONTINUOUS
  62
7
  10
 163.07500000000
  20
 135.43750000000
  30
0.0
  11
 166.27500000000
  21
 140.23750000000
  31
0.0
   0
LINE
   5
325
 100
AcDbEntity
   8
LEVEL002
 370
30
 100
AcDbLine
   6
CONTINUOUS
  62
7
  10
 159.52500000000
  20
 130.63750000000
  30
0.0
  11
 156.32500000000
  21
 135.43750000000
  31
0.0
   0
LINE
   5
326
 100
AcDbEntity
   8
LEVEL002
 370
30
 100
AcDbLine
   6
CONTINUOUS
  62
7
  10
 156.32500000000
  20
 135.43750000000
  30
0.0
  11
 159.52500000000
  21
 140.23750000000
  31
0.0
   0
LINE
   5
327
 100
AcDbEntity
   8
LEVEL002
 370
30
 100
AcDbLine
   6
CONTINUOUS
  62
7
  10
 159.52500000000
  20
 140.23750000000
  30
0.0
  11
 162.22500000000
  21
 140.23750000000
  31
0.0
   0
LINE
   5
328
 100
AcDbEntity
   8
LEVEL002
 370
30
 100
AcDbLine
   6
CONTINUOUS
  62
7
  10
 162.22500000000
  20
 140.23750000000
  30
0.0
  11
 159.02500000000
  21
 135.43750000000
  31
0.0
   0
LINE
   5
329
 100
AcDbEntity
   8
LEVEL002
 370
30
 100
AcDbLine
   6
CONTINUOUS
  62
7
  10
 159.02500000000
  20
 135.43750000000
  30
0.0
  11
 162.22500000000
  21
 130.63750000000
  31
0.0
   0
LINE
   5
32A
 100
AcDbEntity
   8
LEVEL002
 370
30
 100
AcDbLine
   6
CONTINUOUS
  62
7
  10
 162.22500000000
  20
 130.63750000000
  30
0.0
  11
 159.52500000000
  21
 130.63750000000
  31
0.0
   0
LINE
   5
32B
 100
AcDbEntity
   8
LEVEL002
 370
30
 100
AcDbLine
   6
CONTINUOUS
  62
7
  10
 163.57500000000
  20
 130.63750000000
  30
0.0
  11
 160.37500000000
  21
 135.43750000000
  31
0.0
   0
LINE
   5
32C
 100
AcDbEntity
   8
LEVEL002
 370
30
 100
AcDbLine
   6
CONTINUOUS
  62
7
  10
 160.37500000000
  20
 135.43750000000
  30
0.0
  11
 163.57500000000
  21
 140.23750000000
  31
0.0
   0
LINE
   5
32D
 100
AcDbEntity
   8
LEVEL002
 370
30
 100
AcDbLine
   6
CONTINUOUS
  62
7
  10
 163.57500000000
  20
 140.23750000000
  30
0.0
  11
 166.27500000000
  21
 140.23750000000
  31
0.0
   0
LINE
   5
32E
 100
AcDbEntity
   8
LEVEL002
 370
30
 100
AcDbLine
   6
CONTINUOUS
  62
7
  10
 166.27500000000
  20
 140.23750000000
  30
0.0
  11
 163.07500000000
  21
 135.43750000000
  31
0.0
   0
LINE
   5
32F
 100
AcDbEntity
   8
LEVEL002
 370
30
 100
AcDbLine
   6
CONTINUOUS
  62
7
  10
 163.07500000000
  20
 135.43750000000
  30
0.0
  11
 166.27500000000
  21
 130.63750000000
  31
0.0
   0
LINE
   5
330
 100
AcDbEntity
   8
LEVEL002
 370
30
 100
AcDbLine
   6
CONTINUOUS
  62
7
  10
 166.27500000000
  20
 130.63750000000
  30
0.0
  11
 163.57500000000
  21
 130.63750000000
  31
0.0
   0
LINE
   5
331
 100
AcDbEntity
   8
LEVEL001
 370
30
 100
AcDbLine
   6
DOT
  62
7
  10
0.0
  20
0.0
  30
0.0
  11
 210.00000000000
  21
0.0
  31
0.0
   0
LINE
   5
332
 100
AcDbEntity
   8
LEVEL001
 370
30
 100
AcDbLine
   6
DOT
  62
7
  10
 210.00000000000
  20
0.0
  30
0.0
  11
 210.00000000000
  21
 148.50000000000
  31
0.0
   0
LINE
   5
333
 100
AcDbEntity
   8
LEVEL001
 370
30
 100
AcDbLine
   6
DOT
  62
7
  10
 210.00000000000
  20
 148.50000000000
  30
0.0
  11
0.0
  21
 148.50000000000
  31
0.0
   0
LINE
   5
334
 100
AcDbEntity
   8
LEVEL001
 370
30
 100
AcDbLine
   6
DOT
  62
7
  10
0.0
  20
 148.50000000000
  30
0.0
  11
0.0
  21
0.0
  31
0.0
   0
LINE
   5
335
 100
AcDbEntity
   8
LEVEL002
 370
40
 100
AcDbLine
   6
CONTINUOUS
  62
3
  10
 7.7499999999750
  20
 137.50000000000
  30
0.0
  11
 152.24999999997
  21
 137.50000000000
  31
0.0
   0
LINE
   5
336
 100
AcDbEntity
   8
LEVEL002
 370
40
 100
AcDbLine
   6
CONTINUOUS
  62
3
  10
 152.24999999997
  20
 128.37500000000
  30
0.0
  11
 202.24999999997
  21
 128.37500000000
  31
0.0
   0
LINE
   5
337
 100
AcDbEntity
   8
LEVEL002
 370
40
 100
AcDbLine
   6
CONTINUOUS
  62
3
  10
 152.24999999997
  20
 118.37500000000
  30
0.0
  11
 202.24999999997
  21
 118.37500000000
  31
0.0
   0
LINE
   5
338
 100
AcDbEntity
   8
LEVEL002
 370
40
 100
AcDbLine
   6
CONTINUOUS
  62
3
  10
 152.24999999997
  20
 108.37500000000
  30
0.0
  11
 202.24999999997
  21
 108.37500000000
  31
0.0
   0
LINE
   5
339
 100
AcDbEntity
   8
LEVEL002
 370
40
 100
AcDbLine
   6
CONTINUOUS
  62
3
  10
 152.24999999997
  20
 36.000000000005
  30
0.0
  11
 202.24999999997
  21
 36.000000000005
  31
0.0
   0
LINE
   5
33A
 100
AcDbEntity
   8
LEVEL002
 370
40
 100
AcDbLine
   6
CONTINUOUS
  62
3
  10
 152.24999999997
  20
 26.000000000005
  30
0.0
  11
 202.24999999997
  21
 26.000000000005
  31
0.0
   0
LINE
   5
33B
 100
AcDbEntity
   8
LEVEL002
 370
40
 100
AcDbLine
   6
CONTINUOUS
  62
3
  10
 152.24999999997
  20
 16.000000000005
  30
0.0
  11
 202.24999999997
  21
 16.000000000005
  31
0.0
   0
LINE
   5
33C
 100
AcDbEntity
   8
LEVEL002
 370
40
 100
AcDbLine
   6
CONTINUOUS
  62
3
  10
 177.24999999997
  20
 26.000000000005
  30
0.0
  11
 177.24999999997
  21
 6.0000000000050
  31
0.0
   0
LINE
   5
33D
 100
AcDbEntity
   8
LEVEL002
 370
40
 100
AcDbLine
   6
CONTINUOUS
  62
3
  10
 177.24999999997
  20
 19.333333333340
  30
0.0
  11
 202.24999999997
  21
 19.333333333340
  31
0.0
   0
LINE
   5
33E
 100
AcDbEntity
   8
LEVEL002
 370
40
 100
AcDbLine
   6
CONTINUOUS
  62
3
  10
 177.24999999997
  20
 22.666666666673
  30
0.0
  11
 202.24999999997
  21
 22.666666666673
  31
0.0
   0
LINE
   5
33F
 100
AcDbEntity
   8
LEVEL002
 370
50
 100
AcDbLine
   6
CONTINUOUS
  62
4
  10
 202.24999999997
  20
 142.50000000000
  30
0.0
  11
 7.7499999999750
  21
 142.50000000000
  31
0.0
   0
LINE
   5
340
 100
AcDbEntity
   8
LEVEL002
 370
50
 100
AcDbLine
   6
CONTINUOUS
  62
4
  10
 152.24999999997
  20
 142.50000000000
  30
0.0
  11
 152.24999999997
  21
 6.0000000000050
  31
0.0
   0
LINE
   5
341
 100
AcDbEntity
   8
LEVEL002
 370
50
 100
AcDbLine
   6
CONTINUOUS
  62
4
  10
 202.24999999997
  20
 6.0000000000050
  30
0.0
  11
 202.24999999997
  21
 142.50000000000
  31
0.0
   0
LINE
   5
342
 100
AcDbEntity
   8
LEVEL002
 370
50
 100
AcDbLine
   6
CONTINUOUS
  62
4
  10
 7.7499999999750
  20
 142.50000000000
  30
0.0
  11
 7.7499999999750
  21
 6.0000000000050
  31
0.0
   0
LINE
   5
343
 100
AcDbEntity
   8
LEVEL002
 370
50
 100
AcDbLine
   6
CONTINUOUS
  62
4
  10
 7.7499999999750
  20
 6.0000000000050
  30
0.0
  11
 202.24999999997
  21
 6.0000000000050
  31
0.0
   0
HATCH
   5
344
 100
AcDbEntity
   8
LEVEL001
  62
1
 100
AcDbHatch
  10
0.0
  20
0.0
  30
0.0
 210
0.0
 220
0.0
 230
 1.0000000000000
   2
SOLID
  70
1
  71
1
  91
7
  92
1
  93
6
  72
1
  10
 162.22500000000
  20
 140.23750000000
  11
 159.02500000000
  21
 135.43750000000
  72
1
  10
 159.02500000000
  20
 135.43750000000
  11
 162.22500000000
  21
 130.63750000000
  72
1
  10
 162.22500000000
  20
 130.63750000000
  11
 159.52500000000
  21
 130.63750000000
  72
1
  10
 159.52500000000
  20
 130.63750000000
  11
 156.32500000000
  21
 135.43750000000
  72
1
  10
 156.32500000000
  20
 135.43750000000
  11
 159.52500000000
  21
 140.23750000000
  72
1
  10
 159.52500000000
  20
 140.23750000000
  11
 162.22500000000
  21
 140.23750000000
  97
1
 330

  92
16
  93
6
  72
1
  10
 163.57500000000
  20
 140.23750000000
  11
 166.27500000000
  21
 140.23750000000
  72
1
  10
 166.27500000000
  20
 140.23750000000
  11
 163.07500000000
  21
 135.43750000000
  72
1
  10
 163.07500000000
  20
 135.43750000000
  11
 166.27500000000
  21
 130.63750000000
  72
1
  10
 166.27500000000
  20
 130.63750000000
  11
 163.57500000000
  21
 130.63750000000
  72
1
  10
 163.57500000000
  20
 130.63750000000
  11
 160.37500000000
  21
 135.43750000000
  72
1
  10
 160.37500000000
  20
 135.43750000000
  11
 163.57500000000
  21
 140.23750000000
  97
1
 330

  92
16
  93
3
  72
1
  10
 166.67500000000
  20
 135.43750000000
  11
 164.42500000000
  21
 135.43750000000
  72
1
  10
 164.42500000000
  20
 135.43750000000
  11
 166.67500000000
  21
 131.83750000000
  72
1
  10
 166.67500000000
  20
 131.83750000000
  11
 166.67500000000
  21
 135.43750000000
  97
1
 330

  92
16
  93
6
  72
1
  10
 168.47500000000
  20
 136.03750000000
  11
 172.07500000000
  21
 136.03750000000
  72
2
  10
 172.07500000000
  20
 133.78750000000
  40
 2.2500000000000
  50
 270.00000000000
  51
 90.000000000000
  73
0
  72
1
  10
 172.07500000000
  20
 131.53750000000
  11
 170.27500000000
  21
 131.53750000000
  72
1
  10
 170.27500000000
  20
 131.53750000000
  11
 170.27500000000
  21
 130.63750000000
  72
1
  10
 170.27500000000
  20
 130.63750000000
  11
 168.47500000000
  21
 130.63750000000
  72
1
  10
 168.47500000000
  20
 130.63750000000
  11
 168.47500000000
  21
 136.03750000000
  97
1
 330

  92
16
  93
4
  72
1
  10
 172.07500000000
  20
 134.23750000000
  11
 170.27500000000
  21
 134.23750000000
  72
1
  10
 170.27500000000
  20
 134.23750000000
  11
 170.27500000000
  21
 133.33750000000
  72
1
  10
 170.27500000000
  20
 133.33750000000
  11
 172.07500000000
  21
 133.33750000000
  72
2
  10
 172.07500000000
  20
 133.78750000000
  40
 0.45000000000000
  50
 270.00000000000
  51
 90.000000000000
  73
1
  97
1
 330

  92
16
  93
4
  72
1
  10
 172.97500000000
  20
 130.63750000000
  11
 176.57500000000
  21
 136.03750000000
  72
1
  10
 176.57500000000
  20
 136.03750000000
  11
 179.27500000000
  21
 136.03750000000
  72
1
  10
 179.27500000000
  20
 136.03750000000
  11
 175.67500000000
  21
 130.63750000000
  72
1
  10
 175.67500000000
  20
 130.63750000000
  11
 172.97500000000
  21
 130.63750000000
  97
1
 330

  92
16
  93
3
  72
1
  10
 178.67500000000
  20
 134.05583461735
  11
 176.39611025510
  21
 130.63750000000
  72
1
  10
 176.39611025510
  20
 130.63750000000
  11
 178.67500000000
  21
 130.63750000000
  72
1
  10
 178.67500000000
  20
 130.63750000000
  11
 178.67500000000
  21
 134.05583461735
  97
1
 330

  75
0
  76
1
  98
1
  10
0.0
  20
0.0
   0
HATCH
   5
345
 100
AcDbEntity
   8
LEVEL001
  62
1
 100
AcDbHatch
  10
0.0
  20
0.0
  30
0.0
 210
0.0
 220
0.0
 230
 1.0000000000000
   2
SOLID
  70
1
  71
1
  91
1
  92
1
  93
22
  72
1
  10
 179.27500000000
  20
 136.03750000000
  11
 181.07500000000
  21
 136.03750000000
  72
1
  10
 181.07500000000
  20
 136.03750000000
  11
 181.07500000000
  21
 132.43750000000
  72
1
  10
 181.07500000000
  20
 132.43750000000
  11
 183.77500000000
  21
 132.43750000000
  72
1
  10
 183.77500000000
  20
 132.43750000000
  11
 183.77500000000
  21
 134.23750000000
  72
1
  10
 183.77500000000
  20
 134.23750000000
  11
 181.97500000000
  21
 134.23750000000
  72
1
  10
 181.97500000000
  20
 134.23750000000
  11
 181.97500000000
  21
 136.03750000000
  72
1
  10
 181.97500000000
  20
 136.03750000000
  11
 192.77500000000
  21
 136.03750000000
  72
1
  10
 192.77500000000
  20
 136.03750000000
  11
 192.77500000000
  21
 134.23750000000
  72
1
  10
 192.77500000000
  20
 134.23750000000
  11
 189.17500000000
  21
 134.23750000000
  72
1
  10
 189.17500000000
  20
 134.23750000000
  11
 189.17500000000
  21
 133.78750000000
  72
1
  10
 189.17500000000
  20
 133.78750000000
  11
 192.32500000000
  21
 133.78750000000
  72
1
  10
 192.32500000000
  20
 133.78750000000
  11
 192.32500000000
  21
 132.88750000000
  72
1
  10
 192.32500000000
  20
 132.88750000000
  11
 189.17500000000
  21
 132.88750000000
  72
1
  10
 189.17500000000
  20
 132.88750000000
  11
 189.17500000000
  21
 132.43750000000
  72
1
  10
 189.17500000000
  20
 132.43750000000
  11
 192.77500000000
  21
 132.43750000000
  72
1
  10
 192.77500000000
  20
 132.43750000000
  11
 192.77500000000
  21
 130.63750000000
  72
1
  10
 192.77500000000
  20
 130.63750000000
  11
 187.37500000000
  21
 130.63750000000
  72
1
  10
 187.37500000000
  20
 130.63750000000
  11
 187.37500000000
  21
 134.23750000000
  72
1
  10
 187.37500000000
  20
 134.23750000000
  11
 185.57500000000
  21
 134.23750000000
  72
1
  10
 185.57500000000
  20
 134.23750000000
  11
 185.57500000000
  21
 130.63750000000
  72
1
  10
 185.57500000000
  20
 130.63750000000
  11
 179.27500000000
  21
 130.63750000000
  72
1
  10
 179.27500000000
  20
 130.63750000000
  11
 179.27500000000
  21
 136.03750000000
  97
1
 330

  75
0
  76
1
  98
1
  10
0.0
  20
0.0
   0
HATCH
   5
346
 100
AcDbEntity
   8
LEVEL001
  62
1
 100
AcDbHatch
  10
0.0
  20
0.0
  30
0.0
 210
0.0
 220
0.0
 230
 1.0000000000000
   2
SOLID
  70
1
  71
1
  91
1
  92
1
  93
8
  72
1
  10
 198.17500000000
  20
 136.03750000000
  11
 195.47500000000
  21
 136.03750000000
  72
2
  10
 195.47500000000
  20
 133.33750000000
  40
 2.7000000000000
  50
 90.000000000000
  51
 270.00000000000
  73
1
  72
1
  10
 195.47500000000
  20
 130.63750000000
  11
 198.17500000000
  21
 130.63750000000
  72
1
  10
 198.17500000000
  20
 130.63750000000
  11
 198.17500000000
  21
 132.43750000000
  72
1
  10
 198.17500000000
  20
 132.43750000000
  11
 195.47500000000
  21
 132.43750000000
  72
2
  10
 195.47500000000
  20
 133.33750000000
  40
 0.90000000000000
  50
 90.000000000000
  51
 270.00000000000
  73
0
  72
1
  10
 195.47500000000
  20
 134.23750000000
  11
 198.17500000000
  21
 134.23750000000
  72
1
  10
 198.17500000000
  20
 134.23750000000
  11
 198.17500000000
  21
 136.03750000000
  97
1
 330

  75
0
  76
1
  98
1
  10
0.0
  20
0.0
   0
MTEXT
   5
348
 100
AcDbEntity
   8
LEVEL002
 370
15
  62
8
 100
AcDbMText
  10
 155.39999999997
  20
 14.125000000005
  30
0.0
  40
 1.5000000000000
  41
0.0
  71
5
  72
1
   1
\T1.000000;サイズ：
   7
GMM002
  44
 0.79999984000003
   0
MTEXT
   5
34A
 100
AcDbEntity
   8
LEVEL002
 370
15
  62
8
 100
AcDbMText
  10
 154.64999999997
  20
 24.125000000005
  30
0.0
  40
 1.5000000000000
  41
0.0
  71
5
  72
1
   1
\T1.000000;縮尺：
   7
GMM002
  44
 0.79999984000003
   0
MTEXT
   5
34C
 100
AcDbEntity
   8
LEVEL002
 370
15
  62
8
 100
AcDbMText
  10
 156.14999999997
  20
 34.125000000005
  30
0.0
  40
 1.5000000000000
  41
0.0
  71
5
  72
1
   1
\T1.000000;図面名称：
   7
GMM002
  44
 0.79999984000003
   0
MTEXT
   5
34E
 100
AcDbEntity
   8
LEVEL002
 370
15
  62
8
 100
AcDbMText
  10
 181.89999999997
  20
 14.125000000005
  30
0.0
  40
 1.5000000000000
  41
0.0
  71
5
  72
1
   1
\T1.000000;ファイル名：
   7
GMM002
  44
 0.79999984000003
   0
MTEXT
   5
350
 100
AcDbEntity
   8
LEVEL002
 370
15
  62
8
 100
AcDbMText
  10
 181.14999999997
  20
 21.000000000005
  30
0.0
  40
 1.4000000000000
  41
0.0
  71
5
  72
1
   1
\T1.000000;変更日付：
   7
GMM003
  44
 0.79999984000003
   0
MTEXT
   5
352
 100
AcDbEntity
   8
LEVEL002
 370
15
  62
8
 100
AcDbMText
  10
 164.74999999997
  20
 9.1250000000050
  30
0.0
  40
 1.8750000000000
  41
0.0
  71
5
  72
1
   1
\T1.000000;Ａ３
   7
GMM002
  44
 0.79999984000003
   0
MTEXT
   5
354
 100
AcDbEntity
   8
LEVEL002
 370
15
  62
8
 100
AcDbMText
  10
 154.64999999997
  20
 106.50000000000
  30
0.0
  40
 1.5000000000000
  41
0.0
  71
5
  72
1
   1
\T1.000000;仕様：
   7
GMM002
  44
 0.79999984000003
   0
MTEXT
   5
356
 100
AcDbEntity
   8
LEVEL002
 370
15
  62
8
 100
AcDbMText
  10
 154.64999999997
  20
 116.50000000000
  30
0.0
  40
 1.5000000000000
  41
0.0
  71
5
  72
1
   1
\T1.000000;形式：
   7
GMM002
  44
 0.79999984000003
   0
MTEXT
   5
358
 100
AcDbEntity
   8
LEVEL002
 370
15
  62
8
 100
AcDbMText
  10
 155.39999999997
  20
 126.50000000000
  30
0.0
  40
 1.5000000000000
  41
0.0
  71
5
  72
1
   1
\T1.000000;商品名：
   7
GMM002
  44
 0.79999984000003
   0
MTEXT
   5
35A
 100
AcDbEntity
   8
LEVEL002
 370
15
  62
8
 100
AcDbMText
  10
 173.44999999998
  20
 38.435401729506
  30
0.0
  40
 2.0000000000000
  41
0.0
  71
5
  72
1
   1
\T1.000000;　※本製品は予告無しに変更する事があります。
   7
GMM002
  44
 0.79999984000003
   0
LINE
   5
35B
 100
AcDbEntity
   8
LEVEL001
 370
40
 100
AcDbLine
   6
CONTINUOUS
  62
3
  10
 43.874999999975
  20
 142.50000000000
  30
0.0
  11
 43.874999999975
  21
 6.0000000000050
  31
0.0
   0
LINE
   5
35C
 100
AcDbEntity
   8
LEVEL001
 370
40
 100
AcDbLine
   6
CONTINUOUS
  62
3
  10
 79.999999999975
  20
 142.50000000000
  30
0.0
  11
 79.999999999975
  21
 6.0000000000050
  31
0.0
   0
LINE
   5
35D
 100
AcDbEntity
   8
LEVEL001
 370
40
 100
AcDbLine
   6
CONTINUOUS
  62
3
  10
 116.12499999997
  20
 142.50000000000
  30
0.0
  11
 116.12499999997
  21
 6.0000000000050
  31
0.0
   0
MTEXT
   5
35F
 100
AcDbEntity
   8
LEVEL002
 370
15
  62
8
 100
AcDbMText
  10
 181.14999999997
  20
 24.333333333340
  30
0.0
  40
 1.4000000000000
  41
0.0
  71
5
  72
1
   1
\T1.000000;作成日付：
   7
GMM003
  44
 0.79999984000003
   0
MTEXT
   5
361
 100
AcDbEntity
   8
LEVEL002
 370
15
  62
8
 100
AcDbMText
  10
 193.60754228038
  20
 21.000000000005
  30
0.0
  40
 1.5000000000000
  41
0.0
  71
5
  72
1
   1
\T1.000000;令和　　年　　月　　日
   7
GMM002
  44
 0.79999984000003
   0
MTEXT
   5
363
 100
AcDbEntity
   8
LEVEL002
 370
15
  62
8
 100
AcDbMText
  10
 193.60754228038
  20
 17.666666666673
  30
0.0
  40
 1.5000000000000
  41
0.0
  71
5
  72
1
   1
\T1.000000;令和　　年　　月　　日
   7
GMM002
  44
 0.79999984000003
   0
LINE
   5
364
 100
AcDbEntity
   8
LEVEL002
 370
40
 100
AcDbLine
   6
CONTINUOUS
  62
3
  10
 7.7499999999750
  20
 35.125000000004
  30
0.0
  11
 152.24999999997
  21
 35.125000000004
  31
0.0
   0
LINE
   5
365
 100
AcDbEntity
   8
LEVEL002
 370
40
 100
AcDbLine
   6
CONTINUOUS
  62
3
  10
 7.7499999999750
  20
 40.125000000004
  30
0.0
  11
 152.24999999997
  21
 40.125000000004
  31
0.0
   0
LINE
   5
366
 100
AcDbEntity
   8
LEVEL002
 370
40
 100
AcDbLine
   6
CONTINUOUS
  62
3
  10
 7.7499999999750
  20
 69.250000000003
  30
0.0
  11
 152.24999999997
  21
 69.250000000003
  31
0.0
   0
LINE
   5
367
 100
AcDbEntity
   8
LEVEL002
 370
40
 100
AcDbLine
   6
CONTINUOUS
  62
3
  10
 7.7499999999750
  20
 74.250000000003
  30
0.0
  11
 152.24999999997
  21
 74.250000000003
  31
0.0
   0
LINE
   5
368
 100
AcDbEntity
   8
LEVEL002
 370
40
 100
AcDbLine
   6
CONTINUOUS
  62
3
  10
 7.7499999999750
  20
 103.37500000000
  30
0.0
  11
 152.24999999997
  21
 103.37500000000
  31
0.0
   0
LINE
   5
369
 100
AcDbEntity
   8
LEVEL002
 370
40
 100
AcDbLine
   6
CONTINUOUS
  62
3
  10
 7.7499999999750
  20
 108.37500000000
  30
0.0
  11
 152.24999999997
  21
 108.37500000000
  31
0.0
   0
MTEXT
   5
36B
 100
AcDbEntity
   8
LEVEL002
 370
15
  62
8
 100
AcDbMText
  10
 164.74999999997
  20
 19.125000000005
  30
0.0
  40
 1.8750000000000
  41
0.0
  71
5
  72
1
   1
\T1.000000;Ｓ＝２：１
   7
GMM002
  44
 0.79999984000003
   0
MTEXT
   5
36D
 100
AcDbEntity
   8
LEVEL001
 370
15
  62
8
 100
AcDbMText
  10
 7.8999999999750
  20
 110.87500000000
  30
0.0
  40
 1.5000000000000
  41
0.0
  71
4
  72
1
   1
\W0.500000;\T1.000000; \W1.000000;\T1.000000;　堀込寸法：１２×１２
   7
GMM002
  44
 0.79999984000003
   0
MTEXT
   5
36F
 100
AcDbEntity
   8
LEVEL001
 370
15
  62
8
 100
AcDbMText
  10
 44.024999999975
  20
 110.87500000000
  30
0.0
  40
 1.5000000000000
  41
0.0
  71
4
  72
1
   1
\W0.500000;\T1.000000; \W1.000000;\T1.000000;　堀込寸法：１２×７
   7
GMM002
  44
 0.79999984000003
   0
MTEXT
   5
371
 100
AcDbEntity
   8
LEVEL001
 370
15
  62
8
 100
AcDbMText
  10
 80.149999999975
  20
 110.87500000000
  30
0.0
  40
 1.5000000000000
  41
0.0
  71
4
  72
1
   1
\W0.500000;\T1.000000; \W1.000000;\T1.000000;　堀込寸法：９×９
   7
GMM002
  44
 0.79999984000003
   0
MTEXT
   5
373
 100
AcDbEntity
   8
LEVEL002
 370
15
  62
8
 100
AcDbMText
  10
 167.24999999997
  20
 122.25000000000
  30
0.0
  40
 2.2500000000000
  41
0.0
  71
7
  72
1
   1
\T1.000000;　パルフラットレール
   7
GMM004
  44
 0.79999984000003
   0
MTEXT
   5
375
 100
AcDbEntity
   8
LEVEL002
 370
15
  62
8
 100
AcDbMText
  10
 177.24999999997
  20
 29.125000000005
  30
0.0
  40
 1.8750000000000
  41
0.0
  71
5
  72
1
   1
\T1.000000;断面図
   7
GMM002
  44
 0.79999984000003
   0
MTEXT
   5
377
 100
AcDbEntity
   8
LEVEL002
 370
15
  62
8
 100
AcDbMText
  10
 193.60754228038
  20
 24.333333333340
  30
0.0
  40
 1.5000000000000
  41
0.0
  71
5
  72
1
   1
\T1.000000;令和　４年　９月　１日
   7
GMM002
  44
 0.79999984000003
   0
MTEXT
   5
379
 100
AcDbEntity
   8
LEVEL002
 370
15
  62
8
 100
AcDbMText
  10
 189.74999999997
  20
 10.041666666673
  30
0.0
  40
 1.2500000000000
  41
0.0
  71
5
  72
1
   1
\T1.000000;ＰＦ－１２
   7
GMM002
  44
 0.79999984000003
   0
MTEXT
   5
37B
 100
AcDbEntity
   8
LEVEL001
 370
15
  62
8
 100
AcDbMText
  10
 7.8999999999750
  20
 140.00000000000
  30
0.0
  40
 1.5000000000000
  41
0.0
  71
4
  72
1
   1
\W0.500000;\T1.000000; \W1.000000;\T1.000000;　ＴＢ１２
   7
GMM002
  44
 0.79999984000003
   0
MTEXT
   5
37D
 100
AcDbEntity
   8
LEVEL001
 370
15
  62
8
 100
AcDbMText
  10
 44.024999999975
  20
 140.00000000000
  30
0.0
  40
 1.5000000000000
  41
0.0
  71
4
  72
1
   1
\W0.500000;\T1.000000; \W1.000000;\T1.000000;　ＴＢ７
   7
GMM002
  44
 0.79999984000003
   0
MTEXT
   5
37F
 100
AcDbEntity
   8
LEVEL001
 370
15
  62
8
 100
AcDbMText
  10
 80.149999999975
  20
 140.00000000000
  30
0.0
  40
 1.5000000000000
  41
0.0
  71
4
  72
1
   1
\W0.500000;\T1.000000; \W1.000000;\T1.000000;　ＴＢ９
   7
GMM002
  44
 0.79999984000003
   0
MTEXT
   5
381
 100
AcDbEntity
   8
LEVEL001
 370
15
  62
8
 100
AcDbMText
  10
 7.8999999999750
  20
 76.750000000003
  30
0.0
  40
 1.5000000000000
  41
0.0
  71
4
  72
1
   1
\W0.500000;\T1.000000; \W1.000000;\T1.000000;　堀込寸法：１２×１２
   7
GMM002
  44
 0.79999984000003
   0
MTEXT
   5
383
 100
AcDbEntity
   8
LEVEL001
 370
15
  62
8
 100
AcDbMText
  10
 7.8999999999750
  20
 105.87500000000
  30
0.0
  40
 1.5000000000000
  41
0.0
  71
4
  72
1
   1
\W0.500000;\T1.000000; \W1.000000;\T1.000000;　ＤＴＢ１２
   7
GMM002
  44
 0.79999984000003
   0
MTEXT
   5
385
 100
AcDbEntity
   8
LEVEL001
 370
15
  62
8
 100
AcDbMText
  10
 80.149999999975
  20
 105.87500000000
  30
0.0
  40
 1.5000000000000
  41
0.0
  71
4
  72
1
   1
\W0.500000;\T1.000000; \W1.000000;\T1.000000;　ＤＴＢ６５
   7
GMM002
  44
 0.79999984000003
   0
MTEXT
   5
387
 100
AcDbEntity
   8
LEVEL001
 370
15
  62
8
 100
AcDbMText
  10
 44.024999999975
  20
 76.750000000003
  30
0.0
  40
 1.5000000000000
  41
0.0
  71
4
  72
1
   1
\W0.500000;\T1.000000; \W1.000000;\T1.000000;　堀込寸法：９×９
   7
GMM002
  44
 0.79999984000003
   0
MTEXT
   5
389
 100
AcDbEntity
   8
LEVEL001
 370
15
  62
8
 100
AcDbMText
  10
 80.149999999975
  20
 76.750000000003
  30
0.0
  40
 1.5000000000000
  41
0.0
  71
4
  72
1
   1
\W0.500000;\T1.000000; \W1.000000;\T1.000000;　堀込寸法：９×６\W0.500000;\T1.000000;.\W1.000000;\T1.000000;５
   7
GMM002
  44
 0.79999984000003
   0
MTEXT
   5
38B
 100
AcDbEntity
   8
LEVEL001
 370
15
  62
8
 100
AcDbMText
  10
 7.8999999999750
  20
 42.625000000004
  30
0.0
  40
 1.5000000000000
  41
0.0
  71
4
  72
1
   1
\W0.500000;\T1.000000; \W1.000000;\T1.000000;　堀込寸法：１２×１２
   7
GMM002
  44
 0.79999984000003
   0
MTEXT
   5
38D
 100
AcDbEntity
   8
LEVEL001
 370
15
  62
8
 100
AcDbMText
  10
 7.8999999999750
  20
 71.750000000003
  30
0.0
  40
 1.5000000000000
  41
0.0
  71
4
  72
1
   1
\W0.500000;\T1.000000; \W1.000000;\T1.000000;　ＵＢ１２
   7
GMM002
  44
 0.79999984000003
   0
MTEXT
   5
38F
 100
AcDbEntity
   8
LEVEL001
 370
15
  62
8
 100
AcDbMText
  10
 44.024999999975
  20
 71.750000000003
  30
0.0
  40
 1.5000000000000
  41
0.0
  71
4
  72
1
   1
\W0.500000;\T1.000000; \W1.000000;\T1.000000;　ＵＢ９
   7
GMM002
  44
 0.79999984000003
   0
MTEXT
   5
391
 100
AcDbEntity
   8
LEVEL001
 370
15
  62
8
 100
AcDbMText
  10
 80.149999999975
  20
 71.750000000003
  30
0.0
  40
 1.5000000000000
  41
0.0
  71
4
  72
1
   1
\W0.500000;\T1.000000; \W1.000000;\T1.000000;　ＦＸＢ２２
   7
GMM002
  44
 0.79999984000003
   0
MTEXT
   5
393
 100
AcDbEntity
   8
LEVEL001
 370
15
  62
8
 100
AcDbMText
  10
 7.8999999999750
  20
 37.625000000004
  30
0.0
  40
 1.5000000000000
  41
0.0
  71
4
  72
1
   1
\W0.500000;\T1.000000; \W1.000000;\T1.000000;　ＤＵＢ１２
   7
GMM002
  44
 0.79999984000003
   0
MTEXT
   5
395
 100
AcDbEntity
   8
LEVEL001
 370
15
  62
8
 100
AcDbMText
  10
 7.8999999999750
  20
 8.5000000000050
  30
0.0
  40
 1.5000000000000
  41
0.0
  71
4
  72
1
   1
\W0.500000;\T1.000000; \W1.000000;\T1.000000;　堀込寸法：１２×１２
   7
GMM002
  44
 0.79999984000003
   0
LINE
   5
396
 100
AcDbEntity
   8
LEVEL002
 370
15
 100
AcDbLine
   6
DASHDOT
  62
8
  10
 26.330886092042
  20
 127.51882461931
  30
0.0
  11
 26.330886092042
  21
 112.26508284299
  31
0.0
   0
DIMENSION
   5
397
 100
AcDbEntity
   8
LEVEL001
 370
15
   6
CONTINUOUS
  62
8
 100
AcDbDimension
   2
*D1
  10
 28.330886092130
  20
 128.52069665379
  30
0.0
  11
 26.330886092036
  21
 128.52069665379
  31
0.0
  70
0
   3
GMM001
 100
AcDbAlignedDimension
  13
 24.330886091941
  23
 123.72069665395
  33
0.0
  14
 28.330886092130
  24
 123.55412328900
  34
0.0
 100
AcDbRotatedDimension
   0
DIMENSION
   5
398
 100
AcDbEntity
   8
LEVEL001
 370
15
   6
CONTINUOUS
  62
8
 100
AcDbDimension
   2
*D2
  10
 32.430886092042
  20
 131.52069665379
  30
0.0
  11
 26.330886092042
  21
 131.52069665379
  31
0.0
  70
0
   3
GMM001
 100
AcDbAlignedDimension
  13
 20.230886092042
  23
 125.52069665379
  33
0.0
  14
 32.430886092042
  24
 125.52069665379
  34
0.0
 100
AcDbRotatedDimension
   0
DIMENSION
   5
399
 100
AcDbEntity
   8
LEVEL001
 370
15
   6
CONTINUOUS
  62
8
 100
AcDbDimension
   2
*D3
  10
 17.730886092042
  20
 125.52069665379
  30
0.0
  11
 17.730886092042
  21
 123.87069665387
  31
0.0
  70
0
   3
GMM001
 100
AcDbAlignedDimension
  13
 24.330886092042
  23
 122.22069665395
  33
0.0
  14
 20.230886092042
  24
 125.52069665379
  34
0.0
  50
 90.000000000000
 100
AcDbRotatedDimension
   0
DIMENSION
   5
39A
 100
AcDbEntity
   8
LEVEL001
 370
15
   6
CONTINUOUS
  62
8
 100
AcDbDimension
   2
*D4
  10
 15.230886092042
  20
 125.52069665379
  30
0.0
  11
 15.230886092042
  21
 119.52069665379
  31
0.0
  70
0
   3
GMM001
 100
AcDbAlignedDimension
  13
 21.380886092042
  23
 113.52069665379
  33
0.0
  14
 17.730886092042
  24
 125.52069665379
  34
0.0
  50
 90.000000000000
 100
AcDbRotatedDimension
   0
ARC
   5
39B
 100
AcDbEntity
   8
LEVEL002
 370
30
   6
CONTINUOUS
  62
7
 100
AcDbCircle
  10
 29.480886092041
  20
 113.72069665379
  30
0.0
  40
 0.20000000000000
 100
AcDbArc
  50
 165.52248781404
  51
 270.00000000008
   0
ARC
   5
39C
 100
AcDbEntity
   8
LEVEL002
 370
30
   6
CONTINUOUS
  62
7
 100
AcDbCircle
  10
 30.255482761283
  20
 113.52069665379
  30
0.0
  40
 1.0000000000000
 100
AcDbArc
  50
 90.000000000000
  51
 165.52248781407
   0
LINE
   5
39D
 100
AcDbEntity
   8
LEVEL002
 370
30
 100
AcDbLine
   6
CONTINUOUS
  62
7
  10
 29.480886092042
  20
 113.52069665379
  30
0.0
  11
 31.280886092042
  21
 113.52069665379
  31
0.0
   0
LINE
   5
39E
 100
AcDbEntity
   8
LEVEL002
 370
30
 100
AcDbLine
   6
CONTINUOUS
  62
7
  10
 31.480886091989
  20
 125.52069665379
  30
0.0
  11
 30.480886092028
  21
 124.52069665379
  31
0.0
   0
LINE
   5
39F
 100
AcDbEntity
   8
LEVEL002
 370
30
 100
AcDbLine
   6
CONTINUOUS
  62
7
  10
 31.480886091989
  20
 125.52069665379
  30
0.0
  11
 32.430886092042
  21
 125.52069665379
  31
0.0
   0
LINE
   5
3A0
 100
AcDbEntity
   8
LEVEL002
 370
30
 100
AcDbLine
   6
CONTINUOUS
  62
7
  10
 29.130886092042
  20
 120.90795495378
  30
0.0
  11
 29.130886092042
  21
 120.82069665379
  31
0.0
   0
LINE
   5
3A1
 100
AcDbEntity
   8
LEVEL002
 370
30
 100
AcDbLine
   6
CONTINUOUS
  62
7
  10
 29.130886092042
  20
 120.82069665379
  30
0.0
  11
 26.330886092042
  21
 120.82069665379
  31
0.0
   0
LINE
   5
3A2
 100
AcDbEntity
   8
LEVEL002
 370
30
 100
AcDbLine
   6
CONTINUOUS
  62
7
  10
 29.130886092042
  20
 120.90795495378
  30
0.0
  11
 30.268754057682
  21
 122.04582291946
  31
0.0
   0
ARC
   5
3A3
 100
AcDbEntity
   8
LEVEL002
 370
30
   6
CONTINUOUS
  62
7
 100
AcDbCircle
  10
 30.480886092042
  20
 121.83369088511
  30
0.0
  40
 0.30000000000000
 100
AcDbArc
  50
 0.54281466563644E-11
  51
 135.00000000095
   0
LINE
   5
3A4
 100
AcDbEntity
   8
LEVEL002
 370
30
 100
AcDbLine
   6
CONTINUOUS
  62
7
  10
 30.255482761283
  20
 114.52069665379
  30
0.0
  11
 30.780886092042
  21
 114.52069665379
  31
0.0
   0
LINE
   5
3A5
 100
AcDbEntity
   8
LEVEL002
 370
30
 100
AcDbLine
   6
CONTINUOUS
  62
7
  10
 30.780886092042
  20
 114.52069665379
  30
0.0
  11
 30.780886092042
  21
 121.83369088511
  31
0.0
   0
LINE
   5
3A6
 100
AcDbEntity
   8
LEVEL002
 370
30
 100
AcDbLine
   6
CONTINUOUS
  62
7
  10
 26.330886092042
  20
 122.22069665395
  30
0.0
  11
 28.330886092042
  21
 122.22069665395
  31
0.0
   0
LINE
   5
3A7
 100
AcDbEntity
   8
LEVEL002
 370
30
 100
AcDbLine
   6
CONTINUOUS
  62
7
  10
 28.330886092042
  20
 122.22069665395
  30
0.0
  11
 28.330886092142
  21
 123.72069665395
  31
0.0
   0
LINE
   5
3A8
 100
AcDbEntity
   8
LEVEL002
 370
30
 100
AcDbLine
   6
CONTINUOUS
  62
7
  10
 28.330886092142
  20
 123.72069665395
  30
0.0
  11
 29.130886092014
  21
 123.72069665399
  31
0.0
   0
LINE
   5
3A9
 100
AcDbEntity
   8
LEVEL002
 370
30
 100
AcDbLine
   6
CONTINUOUS
  62
7
  10
 29.130886092014
  20
 123.72069665399
  30
0.0
  11
 29.130886091979
  21
 124.52069665379
  31
0.0
   0
LINE
   5
3AA
 100
AcDbEntity
   8
LEVEL002
 370
30
 100
AcDbLine
   6
CONTINUOUS
  62
7
  10
 29.130886091979
  20
 124.52069665379
  30
0.0
  11
 30.480886092028
  21
 124.52069665379
  31
0.0
   0
LINE
   5
3AB
 100
AcDbEntity
   8
LEVEL002
 370
30
 100
AcDbLine
   6
CONTINUOUS
  62
7
  10
 32.430886092042
  20
 125.52069665379
  30
0.0
  11
 32.430886092042
  21
 124.52069665379
  31
0.0
   0
LINE
   5
3AC
 100
AcDbEntity
   8
LEVEL002
 370
30
 100
AcDbLine
   6
CONTINUOUS
  62
7
  10
 32.430886092042
  20
 124.52069665379
  30
0.0
  11
 31.780886092042
  21
 123.52069665379
  31
0.0
   0
LINE
   5
3AD
 100
AcDbEntity
   8
LEVEL002
 370
30
 100
AcDbLine
   6
CONTINUOUS
  62
7
  10
 31.780886092042
  20
 116.52069665379
  30
0.0
  11
 32.180886092042
  21
 116.52069665379
  31
0.0
   0
LINE
   5
3AE
 100
AcDbEntity
   8
LEVEL002
 370
30
 100
AcDbLine
   6
CONTINUOUS
  62
7
  10
 31.280886092042
  20
 113.52069665379
  30
0.0
  11
 32.180886092042
  21
 116.52069665379
  31
0.0
   0
LINE
   5
3AF
 100
AcDbEntity
   8
LEVEL002
 370
30
 100
AcDbLine
   6
CONTINUOUS
  62
7
  10
 31.780886092042
  20
 123.52069665379
  30
0.0
  11
 32.280886092042
  21
 122.52069665379
  31
0.0
   0
LINE
   5
3B0
 100
AcDbEntity
   8
LEVEL002
 370
30
 100
AcDbLine
   6
CONTINUOUS
  62
7
  10
 32.280886092042
  20
 122.52069665379
  30
0.0
  11
 31.780886092042
  21
 120.52069665379
  31
0.0
   0
LINE
   5
3B1
 100
AcDbEntity
   8
LEVEL002
 370
30
 100
AcDbLine
   6
CONTINUOUS
  62
7
  10
 31.780886092042
  20
 120.52069665379
  30
0.0
  11
 32.280886092042
  21
 120.52069665379
  31
0.0
   0
LINE
   5
3B2
 100
AcDbEntity
   8
LEVEL002
 370
30
 100
AcDbLine
   6
CONTINUOUS
  62
7
  10
 32.280886092042
  20
 120.52069665379
  30
0.0
  11
 31.780886092042
  21
 118.52069665379
  31
0.0
   0
LINE
   5
3B3
 100
AcDbEntity
   8
LEVEL002
 370
30
 100
AcDbLine
   6
CONTINUOUS
  62
7
  10
 31.780886092042
  20
 118.52069665379
  30
0.0
  11
 32.280886092042
  21
 118.52069665379
  31
0.0
   0
LINE
   5
3B4
 100
AcDbEntity
   8
LEVEL002
 370
30
 100
AcDbLine
   6
CONTINUOUS
  62
7
  10
 31.780886092042
  20
 116.52069665379
  30
0.0
  11
 32.280886092042
  21
 118.52069665379
  31
0.0
   0
ARC
   5
3B5
 100
AcDbEntity
   8
LEVEL002
 370
30
   6
CONTINUOUS
  62
7
 100
AcDbCircle
  10
 23.180886092042
  20
 113.72069665379
  30
0.0
  40
 0.20000000000000
 100
AcDbArc
  50
 270.00000000002
  51
 14.477512185929
   0
ARC
   5
3B6
 100
AcDbEntity
   8
LEVEL002
 370
30
   6
CONTINUOUS
  62
7
 100
AcDbCircle
  10
 22.406289422800
  20
 113.52069665379
  30
0.0
  40
 1.0000000000000
 100
AcDbArc
  50
 14.477512185937
  51
 90.000000000002
   0
LINE
   5
3B7
 100
AcDbEntity
   8
LEVEL002
 370
30
 100
AcDbLine
   6
CONTINUOUS
  62
7
  10
 23.180886092042
  20
 113.52069665379
  30
0.0
  11
 21.380886092042
  21
 113.52069665379
  31
0.0
   0
LINE
   5
3B8
 100
AcDbEntity
   8
LEVEL002
 370
30
 100
AcDbLine
   6
CONTINUOUS
  62
7
  10
 21.180886092094
  20
 125.52069665379
  30
0.0
  11
 22.180886092056
  21
 124.52069665379
  31
0.0
   0
LINE
   5
3B9
 100
AcDbEntity
   8
LEVEL002
 370
30
 100
AcDbLine
   6
CONTINUOUS
  62
7
  10
 21.180886092094
  20
 125.52069665379
  30
0.0
  11
 20.230886092042
  21
 125.52069665379
  31
0.0
   0
LINE
   5
3BA
 100
AcDbEntity
   8
LEVEL002
 370
30
 100
AcDbLine
   6
CONTINUOUS
  62
7
  10
 23.530886092042
  20
 120.90795495378
  30
0.0
  11
 23.530886092042
  21
 120.82069665379
  31
0.0
   0
LINE
   5
3BB
 100
AcDbEntity
   8
LEVEL002
 370
30
 100
AcDbLine
   6
CONTINUOUS
  62
7
  10
 23.530886092042
  20
 120.82069665379
  30
0.0
  11
 26.330886092042
  21
 120.82069665379
  31
0.0
   0
LINE
   5
3BC
 100
AcDbEntity
   8
LEVEL002
 370
30
 100
AcDbLine
   6
CONTINUOUS
  62
7
  10
 23.530886092042
  20
 120.90795495378
  30
0.0
  11
 22.393018126402
  21
 122.04582291946
  31
0.0
   0
ARC
   5
3BD
 100
AcDbEntity
   8
LEVEL002
 370
30
   6
CONTINUOUS
  62
7
 100
AcDbCircle
  10
 22.180886092042
  20
 121.83369088511
  30
0.0
  40
 0.30000000000000
 100
AcDbArc
  50
 44.999999999062
  51
 179.99999999977
   0
LINE
   5
3BE
 100
AcDbEntity
   8
LEVEL002
 370
30
 100
AcDbLine
   6
CONTINUOUS
  62
7
  10
 22.406289422800
  20
 114.52069665379
  30
0.0
  11
 21.880886092042
  21
 114.52069665379
  31
0.0
   0
LINE
   5
3BF
 100
AcDbEntity
   8
LEVEL002
 370
30
 100
AcDbLine
   6
CONTINUOUS
  62
7
  10
 21.880886092042
  20
 114.52069665379
  30
0.0
  11
 21.880886092042
  21
 121.83369088511
  31
0.0
   0
LINE
   5
3C0
 100
AcDbEntity
   8
LEVEL002
 370
30
 100
AcDbLine
   6
CONTINUOUS
  62
7
  10
 26.330886092042
  20
 122.22069665395
  30
0.0
  11
 24.330886092042
  21
 122.22069665395
  31
0.0
   0
LINE
   5
3C1
 100
AcDbEntity
   8
LEVEL002
 370
30
 100
AcDbLine
   6
CONTINUOUS
  62
7
  10
 24.330886092042
  20
 122.22069665395
  30
0.0
  11
 24.330886091941
  21
 123.72069665395
  31
0.0
   0
LINE
   5
3C2
 100
AcDbEntity
   8
LEVEL002
 370
30
 100
AcDbLine
   6
CONTINUOUS
  62
7
  10
 24.330886091941
  20
 123.72069665395
  30
0.0
  11
 23.530886092070
  21
 123.72069665399
  31
0.0
   0
LINE
   5
3C3
 100
AcDbEntity
   8
LEVEL002
 370
30
 100
AcDbLine
   6
CONTINUOUS
  62
7
  10
 23.530886092070
  20
 123.72069665399
  30
0.0
  11
 23.530886092105
  21
 124.52069665379
  31
0.0
   0
LINE
   5
3C4
 100
AcDbEntity
   8
LEVEL002
 370
30
 100
AcDbLine
   6
CONTINUOUS
  62
7
  10
 23.530886092105
  20
 124.52069665379
  30
0.0
  11
 22.180886092056
  21
 124.52069665379
  31
0.0
   0
LINE
   5
3C5
 100
AcDbEntity
   8
LEVEL002
 370
30
 100
AcDbLine
   6
CONTINUOUS
  62
7
  10
 20.230886092042
  20
 125.52069665379
  30
0.0
  11
 20.230886092042
  21
 124.52069665379
  31
0.0
   0
LINE
   5
3C6
 100
AcDbEntity
   8
LEVEL002
 370
30
 100
AcDbLine
   6
CONTINUOUS
  62
7
  10
 20.230886092042
  20
 124.52069665379
  30
0.0
  11
 20.880886092042
  21
 123.52069665379
  31
0.0
   0
LINE
   5
3C7
 100
AcDbEntity
   8
LEVEL002
 370
30
 100
AcDbLine
   6
CONTINUOUS
  62
7
  10
 20.880886092042
  20
 116.52069665379
  30
0.0
  11
 20.480886092042
  21
 116.52069665379
  31
0.0
   0
LINE
   5
3C8
 100
AcDbEntity
   8
LEVEL002
 370
30
 100
AcDbLine
   6
CONTINUOUS
  62
7
  10
 21.380886092042
  20
 113.52069665379
  30
0.0
  11
 20.480886092042
  21
 116.52069665379
  31
0.0
   0
LINE
   5
3C9
 100
AcDbEntity
   8
LEVEL002
 370
30
 100
AcDbLine
   6
CONTINUOUS
  62
7
  10
 20.880886092042
  20
 123.52069665379
  30
0.0
  11
 20.380886092042
  21
 122.52069665379
  31
0.0
   0
LINE
   5
3CA
 100
AcDbEntity
   8
LEVEL002
 370
30
 100
AcDbLine
   6
CONTINUOUS
  62
7
  10
 20.380886092042
  20
 122.52069665379
  30
0.0
  11
 20.880886092042
  21
 120.52069665379
  31
0.0
   0
LINE
   5
3CB
 100
AcDbEntity
   8
LEVEL002
 370
30
 100
AcDbLine
   6
CONTINUOUS
  62
7
  10
 20.880886092042
  20
 120.52069665379
  30
0.0
  11
 20.380886092042
  21
 120.52069665379
  31
0.0
   0
LINE
   5
3CC
 100
AcDbEntity
   8
LEVEL002
 370
30
 100
AcDbLine
   6
CONTINUOUS
  62
7
  10
 20.380886092042
  20
 120.52069665379
  30
0.0
  11
 20.880886092042
  21
 118.52069665379
  31
0.0
   0
LINE
   5
3CD
 100
AcDbEntity
   8
LEVEL002
 370
30
 100
AcDbLine
   6
CONTINUOUS
  62
7
  10
 20.880886092042
  20
 118.52069665379
  30
0.0
  11
 20.380886092042
  21
 118.52069665379
  31
0.0
   0
LINE
   5
3CE
 100
AcDbEntity
   8
LEVEL002
 370
30
 100
AcDbLine
   6
CONTINUOUS
  62
7
  10
 20.880886092042
  20
 116.52069665379
  30
0.0
  11
 20.380886092042
  21
 118.52069665379
  31
0.0
   0
LINE
   5
3CF
 100
AcDbEntity
   8
LEVEL002
 370
30
 100
AcDbLine
   6
CONTINUOUS
  62
7
  10
 68.652510806001
  20
 113.52069665379
  30
0.0
  11
 69.193499100665
  21
 115.26133781872
  31
0.0
   0
LINE
   5
3D0
 100
AcDbEntity
   8
LEVEL002
 370
30
 100
AcDbLine
   6
CONTINUOUS
  62
7
  10
 68.652510806001
  20
 115.52069665379
  30
0.0
  11
 69.002510806001
  21
 115.52069665379
  31
0.0
   0
LINE
   5
3D1
 100
AcDbEntity
   8
LEVEL002
 370
30
 100
AcDbLine
   6
CONTINUOUS
  62
7
  10
 68.652510806001
  20
 115.52069665379
  30
0.0
  11
 69.195162811834
  21
 117.46698255277
  31
0.0
   0
LINE
   5
3D2
 100
AcDbEntity
   8
LEVEL002
 370
30
 100
AcDbLine
   6
CONTINUOUS
  62
7
  10
 68.652510806001
  20
 118.27069665379
  30
0.0
  11
 69.157938306777
  21
 117.64656282082
  31
0.0
   0
LINE
   5
3D3
 100
AcDbEntity
   8
LEVEL002
 370
30
 100
AcDbLine
   6
CONTINUOUS
  62
7
  10
 68.652510806001
  20
 118.27069665379
  30
0.0
  11
 69.352510806001
  21
 119.02069665379
  31
0.0
   0
LINE
   5
3D4
 100
AcDbEntity
   8
LEVEL002
 370
30
 100
AcDbLine
   6
CONTINUOUS
  62
7
  10
 69.352510806001
  20
 119.02069665379
  30
0.0
  11
 69.352510806001
  21
 120.52069665379
  31
0.0
   0
LINE
   5
3D5
 100
AcDbEntity
   8
LEVEL002
 370
30
 100
AcDbLine
   6
CONTINUOUS
  62
7
  10
 68.652510806001
  20
 113.52069665379
  30
0.0
  11
 67.402510806001
  21
 113.52069665379
  31
0.0
   0
LINE
   5
3D6
 100
AcDbEntity
   8
LEVEL002
 370
30
 100
AcDbLine
   6
CONTINUOUS
  62
7
  10
 67.402510806001
  20
 113.52069665379
  30
0.0
  11
 67.402510806001
  21
 115.82069665379
  31
0.0
   0
LINE
   5
3D7
 100
AcDbEntity
   8
LEVEL002
 370
30
 100
AcDbLine
   6
CONTINUOUS
  62
7
  10
 66.052510806001
  20
 115.82069665379
  30
0.0
  11
 63.252510806001
  21
 115.82069665379
  31
0.0
   0
ARC
   5
3D8
 100
AcDbEntity
   8
LEVEL002
 370
30
   6
CONTINUOUS
  62
7
 100
AcDbCircle
  10
 66.727510806001
  20
 115.82069665379
  30
0.0
  40
 0.67500000000000
 100
AcDbArc
  50
0.0
  51
 180.00000000000
   0
ARC
   5
3D9
 100
AcDbEntity
   8
LEVEL002
 370
30
   6
CONTINUOUS
  62
7
 100
AcDbCircle
  10
 69.002510806001
  20
 115.32069665379
  30
0.0
  40
 0.20000000000000
 100
AcDbArc
  50
 342.73484478673
  51
 90.000000000077
   0
ARC
   5
3DA
 100
AcDbEntity
   8
LEVEL002
 370
30
   6
CONTINUOUS
  62
7
 100
AcDbCircle
  10
 69.002510806000
  20
 117.52069665379
  30
0.0
  40
 0.20000000000000
 100
AcDbArc
  50
 344.42077872658
  51
 39.000770004197
   0
LINE
   5
3DB
 100
AcDbEntity
   8
LEVEL002
 370
30
 100
AcDbLine
   6
CONTINUOUS
  62
7
  10
 65.252510806001
  20
 118.42069665379
  30
0.0
  11
 65.252510806001
  21
 117.22069665379
  31
0.0
   0
LINE
   5
3DC
 100
AcDbEntity
   8
LEVEL002
 370
30
 100
AcDbLine
   6
CONTINUOUS
  62
7
  10
 65.252510806001
  20
 117.22069665379
  30
0.0
  11
 63.252510806001
  21
 117.22069665379
  31
0.0
   0
ARC
   5
3DD
 100
AcDbEntity
   8
LEVEL002
 370
30
   6
CONTINUOUS
  62
7
 100
AcDbCircle
  10
 65.552510806001
  20
 118.42069665379
  30
0.0
  40
 0.30000000000000
 100
AcDbArc
  50
 90.000000000003
  51
 179.99999999993
   0
LINE
   5
3DE
 100
AcDbEntity
   8
LEVEL002
 370
30
 100
AcDbLine
   6
CONTINUOUS
  62
7
  10
 69.352510806001
  20
 120.52069665379
  30
0.0
  11
 68.402510806001
  21
 120.52069665369
  31
0.0
   0
LINE
   5
3DF
 100
AcDbEntity
   8
LEVEL002
 370
30
 100
AcDbLine
   6
CONTINUOUS
  62
7
  10
 68.402510806001
  20
 120.52069665369
  30
0.0
  11
 67.402510806001
  21
 119.52069665369
  31
0.0
   0
LINE
   5
3E0
 100
AcDbEntity
   8
LEVEL002
 370
30
 100
AcDbLine
   6
CONTINUOUS
  62
7
  10
 67.402510806001
  20
 119.52069665369
  30
0.0
  11
 66.352510806022
  21
 119.52069665377
  31
0.0
   0
LINE
   5
3E1
 100
AcDbEntity
   8
LEVEL002
 370
30
 100
AcDbLine
   6
CONTINUOUS
  62
7
  10
 66.052510806001
  20
 119.22069665377
  30
0.0
  11
 66.052510806001
  21
 118.72069665379
  31
0.0
   0
LINE
   5
3E2
 100
AcDbEntity
   8
LEVEL002
 370
30
 100
AcDbLine
   6
CONTINUOUS
  62
7
  10
 66.052510806001
  20
 118.72069665379
  30
0.0
  11
 65.552510806001
  21
 118.72069665379
  31
0.0
   0
ARC
   5
3E3
 100
AcDbEntity
   8
LEVEL002
 370
30
   6
CONTINUOUS
  62
7
 100
AcDbCircle
  10
 66.352510806001
  20
 119.22069665377
  30
0.0
  40
 0.30000000000000
 100
AcDbArc
  50
 89.999999995807
  51
 179.99999999999
   0
LINE
   5
3E4
 100
AcDbEntity
   8
LEVEL002
 370
30
 100
AcDbLine
   6
CONTINUOUS
  62
7
  10
 57.852510806001
  20
 113.52069665379
  30
0.0
  11
 57.311522511336
  21
 115.26133781872
  31
0.0
   0
LINE
   5
3E5
 100
AcDbEntity
   8
LEVEL002
 370
30
 100
AcDbLine
   6
CONTINUOUS
  62
7
  10
 57.852510806001
  20
 115.52069665379
  30
0.0
  11
 57.502510806001
  21
 115.52069665379
  31
0.0
   0
LINE
   5
3E6
 100
AcDbEntity
   8
LEVEL002
 370
30
 100
AcDbLine
   6
CONTINUOUS
  62
7
  10
 57.852510806001
  20
 115.52069665379
  30
0.0
  11
 57.309858800167
  21
 117.46698255277
  31
0.0
   0
LINE
   5
3E7
 100
AcDbEntity
   8
LEVEL002
 370
30
 100
AcDbLine
   6
CONTINUOUS
  62
7
  10
 57.852510806001
  20
 118.27069665379
  30
0.0
  11
 57.347083305225
  21
 117.64656282082
  31
0.0
   0
LINE
   5
3E8
 100
AcDbEntity
   8
LEVEL002
 370
30
 100
AcDbLine
   6
CONTINUOUS
  62
7
  10
 57.852510806001
  20
 118.27069665379
  30
0.0
  11
 57.152510806001
  21
 119.02069665379
  31
0.0
   0
LINE
   5
3E9
 100
AcDbEntity
   8
LEVEL002
 370
30
 100
AcDbLine
   6
CONTINUOUS
  62
7
  10
 57.152510806001
  20
 119.02069665379
  30
0.0
  11
 57.152510806001
  21
 120.52069665379
  31
0.0
   0
LINE
   5
3EA
 100
AcDbEntity
   8
LEVEL002
 370
30
 100
AcDbLine
   6
CONTINUOUS
  62
7
  10
 57.852510806001
  20
 113.52069665379
  30
0.0
  11
 59.102510806001
  21
 113.52069665379
  31
0.0
   0
LINE
   5
3EB
 100
AcDbEntity
   8
LEVEL002
 370
30
 100
AcDbLine
   6
CONTINUOUS
  62
7
  10
 59.102510806001
  20
 113.52069665379
  30
0.0
  11
 59.102510806001
  21
 115.82069665379
  31
0.0
   0
LINE
   5
3EC
 100
AcDbEntity
   8
LEVEL002
 370
30
 100
AcDbLine
   6
CONTINUOUS
  62
7
  10
 60.452510806001
  20
 115.82069665379
  30
0.0
  11
 63.252510806001
  21
 115.82069665379
  31
0.0
   0
ARC
   5
3ED
 100
AcDbEntity
   8
LEVEL002
 370
30
   6
CONTINUOUS
  62
7
 100
AcDbCircle
  10
 59.777510806001
  20
 115.82069665379
  30
0.0
  40
 0.67500000000000
 100
AcDbArc
  50
0.0
  51
 180.00000000000
   0
ARC
   5
3EE
 100
AcDbEntity
   8
LEVEL002
 370
30
   6
CONTINUOUS
  62
7
 100
AcDbCircle
  10
 57.502510806000
  20
 115.32069665379
  30
0.0
  40
 0.20000000000000
 100
AcDbArc
  50
 89.999999999980
  51
 197.26515521327
   0
ARC
   5
3EF
 100
AcDbEntity
   8
LEVEL002
 370
30
   6
CONTINUOUS
  62
7
 100
AcDbCircle
  10
 57.502510806001
  20
 117.52069665379
  30
0.0
  40
 0.20000000000000
 100
AcDbArc
  50
 140.99922999579
  51
 195.57922127339
   0
LINE
   5
3F0
 100
AcDbEntity
   8
LEVEL002
 370
30
 100
AcDbLine
   6
CONTINUOUS
  62
7
  10
 61.252510806001
  20
 118.42069665379
  30
0.0
  11
 61.252510806001
  21
 117.22069665379
  31
0.0
   0
LINE
   5
3F1
 100
AcDbEntity
   8
LEVEL002
 370
30
 100
AcDbLine
   6
CONTINUOUS
  62
7
  10
 61.252510806001
  20
 117.22069665379
  30
0.0
  11
 63.252510806001
  21
 117.22069665379
  31
0.0
   0
ARC
   5
3F2
 100
AcDbEntity
   8
LEVEL002
 370
30
   6
CONTINUOUS
  62
7
 100
AcDbCircle
  10
 60.952510806001
  20
 118.42069665379
  30
0.0
  40
 0.30000000000000
 100
AcDbArc
  50
0.0
  51
 89.999999999997
   0
LINE
   5
3F3
 100
AcDbEntity
   8
LEVEL002
 370
30
 100
AcDbLine
   6
CONTINUOUS
  62
7
  10
 57.152510806001
  20
 120.52069665379
  30
0.0
  11
 58.102510806001
  21
 120.52069665369
  31
0.0
   0
LINE
   5
3F4
 100
AcDbEntity
   8
LEVEL002
 370
30
 100
AcDbLine
   6
CONTINUOUS
  62
7
  10
 58.102510806001
  20
 120.52069665369
  30
0.0
  11
 59.102510806001
  21
 119.52069665369
  31
0.0
   0
LINE
   5
3F5
 100
AcDbEntity
   8
LEVEL002
 370
30
 100
AcDbLine
   6
CONTINUOUS
  62
7
  10
 59.102510806001
  20
 119.52069665369
  30
0.0
  11
 60.152510805979
  21
 119.52069665377
  31
0.0
   0
LINE
   5
3F6
 100
AcDbEntity
   8
LEVEL002
 370
30
 100
AcDbLine
   6
CONTINUOUS
  62
7
  10
 60.452510806001
  20
 119.22069665377
  30
0.0
  11
 60.452510806001
  21
 118.72069665379
  31
0.0
   0
LINE
   5
3F7
 100
AcDbEntity
   8
LEVEL002
 370
30
 100
AcDbLine
   6
CONTINUOUS
  62
7
  10
 60.452510806001
  20
 118.72069665379
  30
0.0
  11
 60.952510806001
  21
 118.72069665379
  31
0.0
   0
ARC
   5
3F8
 100
AcDbEntity
   8
LEVEL002
 370
30
   6
CONTINUOUS
  62
7
 100
AcDbCircle
  10
 60.152510806001
  20
 119.22069665377
  30
0.0
  40
 0.30000000000000
 100
AcDbArc
  50
0.0
  51
 90.000000004188
   0
LINE
   5
3F9
 100
AcDbEntity
   8
LEVEL002
 370
15
 100
AcDbLine
   6
DASHDOT
  62
8
  10
 63.252510806001
  20
 112.77003958577
  30
0.0
  11
 63.252510806001
  21
 121.27135372181
  31
0.0
   0
DIMENSION
   5
3FA
 100
AcDbEntity
   8
LEVEL001
 370
15
   6
CONTINUOUS
  62
8
 100
AcDbDimension
   2
*D5
  10
 65.252510806001
  20
 123.52069665369
  30
0.0
  11
 63.252510806001
  21
 123.52069665369
  31
0.0
  70
0
   3
GMM001
 100
AcDbAlignedDimension
  13
 61.252510806001
  23
 118.42069665379
  33
0.0
  14
 65.252510806001
  24
 118.42069665379
  34
0.0
 100
AcDbRotatedDimension
   0
DIMENSION
   5
3FB
 100
AcDbEntity
   8
LEVEL001
 370
15
   6
CONTINUOUS
  62
8
 100
AcDbDimension
   2
*D6
  10
 69.352510806001
  20
 126.52069665369
  30
0.0
  11
 63.252510806001
  21
 126.52069665369
  31
0.0
  70
0
   3
GMM001
 100
AcDbAlignedDimension
  13
 57.152510806001
  23
 120.52069665379
  33
0.0
  14
 69.352510806001
  24
 120.52069665379
  34
0.0
 100
AcDbRotatedDimension
   0
DIMENSION
   5
3FC
 100
AcDbEntity
   8
LEVEL001
 370
15
   6
CONTINUOUS
  62
8
 100
AcDbDimension
   2
*D7
  10
 54.652510806001
  20
 120.52069665379
  30
0.0
  11
 54.652510806001
  21
 118.87069665379
  31
0.0
  70
0
   3
GMM001
 100
AcDbAlignedDimension
  13
 61.252510806001
  23
 117.22069665379
  33
0.0
  14
 57.152510806001
  24
 120.52069665379
  34
0.0
  50
 90.000000000000
 100
AcDbRotatedDimension
   0
DIMENSION
   5
3FD
 100
AcDbEntity
   8
LEVEL001
 370
15
   6
CONTINUOUS
  62
8
 100
AcDbDimension
   2
*D8
  10
 52.152510806001
  20
 120.52069665379
  30
0.0
  11
 52.152510806001
  21
 117.02069665379
  31
0.0
  70
0
   3
GMM001
 100
AcDbAlignedDimension
  13
 57.852510806001
  23
 113.52069665379
  33
0.0
  14
 54.652510806001
  24
 120.52069665379
  34
0.0
  50
 90.000000000000
 100
AcDbRotatedDimension
   0
LINE
   5
3FE
 100
AcDbEntity
   8
LEVEL002
 370
15
 100
AcDbLine
   6
DASHDOT
  62
8
  10
 98.372076023392
  20
 112.75006692891
  30
0.0
  11
 98.372076023392
  21
 123.07674450665
  31
0.0
   0
DIMENSION
   5
3FF
 100
AcDbEntity
   8
LEVEL001
 370
15
   6
CONTINUOUS
  62
8
 100
AcDbDimension
   2
*D9
  10
 100.37207602339
  20
 125.52069665379
  30
0.0
  11
 98.372076023392
  21
 125.52069665379
  31
0.0
  70
0
   3
GMM001
 100
AcDbAlignedDimension
  13
 96.372076023392
  23
 120.42069665379
  33
0.0
  14
 100.37207602339
  24
 120.42069665379
  34
0.0
 100
AcDbRotatedDimension
   0
DIMENSION
   5
400
 100
AcDbEntity
   8
LEVEL001
 370
15
   6
CONTINUOUS
  62
8
 100
AcDbDimension
   2
*D10
  10
 102.87207602339
  20
 128.52069665379
  30
0.0
  11
 98.372076023392
  21
 128.52069665379
  31
0.0
  70
0
   3
GMM001
 100
AcDbAlignedDimension
  13
 93.872076023392
  23
 122.52069665379
  33
0.0
  14
 102.87207602339
  24
 122.52069665379
  34
0.0
 100
AcDbRotatedDimension
   0
DIMENSION
   5
401
 100
AcDbEntity
   8
LEVEL001
 370
15
   6
CONTINUOUS
  62
8
 100
AcDbDimension
   2
*D11
  10
 89.772076023392
  20
 122.52069665379
  30
0.0
  11
 89.772076023392
  21
 120.87069665379
  31
0.0
  70
0
   3
GMM001
 100
AcDbAlignedDimension
  13
 96.372076023392
  23
 119.22069665379
  33
0.0
  14
 93.872076023392
  24
 122.52069665379
  34
0.0
  50
 90.000000000000
 100
AcDbRotatedDimension
   0
DIMENSION
   5
402
 100
AcDbEntity
   8
LEVEL001
 370
15
   6
CONTINUOUS
  62
8
 100
AcDbDimension
   2
*D12
  10
 87.272076023392
  20
 122.52069665379
  30
0.0
  11
 87.272076023392
  21
 118.02069665379
  31
0.0
  70
0
   3
GMM001
 100
AcDbAlignedDimension
  13
 94.472076023392
  23
 113.52069665379
  33
0.0
  14
 89.772076023392
  24
 122.52069665379
  34
0.0
  50
 90.000000000000
 100
AcDbRotatedDimension
   0
LINE
   5
403
 100
AcDbEntity
   8
LEVEL002
 370
30
 100
AcDbLine
   6
CONTINUOUS
  62
7
  10
 98.372076023392
  20
 119.22069665379
  30
0.0
  11
 96.372076023392
  21
 119.22069665379
  31
0.0
   0
LINE
   5
404
 100
AcDbEntity
   8
LEVEL002
 370
30
 100
AcDbLine
   6
CONTINUOUS
  62
7
  10
 96.372076023392
  20
 119.22069665379
  30
0.0
  11
 96.372076023392
  21
 120.42069665379
  31
0.0
   0
LINE
   5
405
 100
AcDbEntity
   8
LEVEL002
 370
30
 100
AcDbLine
   6
CONTINUOUS
  62
7
  10
 96.072076023392
  20
 120.72069665379
  30
0.0
  11
 95.572076023392
  21
 120.72069665379
  31
0.0
   0
LINE
   5
406
 100
AcDbEntity
   8
LEVEL002
 370
30
 100
AcDbLine
   6
CONTINUOUS
  62
7
  10
 95.572076023392
  20
 120.72069665379
  30
0.0
  11
 95.572076023392
  21
 121.52069665379
  31
0.0
   0
LINE
   5
407
 100
AcDbEntity
   8
LEVEL002
 370
30
 100
AcDbLine
   6
CONTINUOUS
  62
7
  10
 95.572076023392
  20
 121.52069665379
  30
0.0
  11
 94.572076023392
  21
 122.52069665379
  31
0.0
   0
LINE
   5
408
 100
AcDbEntity
   8
LEVEL002
 370
30
 100
AcDbLine
   6
CONTINUOUS
  62
7
  10
 94.572076023392
  20
 122.52069665379
  30
0.0
  11
 93.872076023392
  21
 122.52069665379
  31
0.0
   0
ARC
   5
409
 100
AcDbEntity
   8
LEVEL002
 370
30
   6
CONTINUOUS
  62
7
 100
AcDbCircle
  10
 96.072076023392
  20
 120.42069665379
  30
0.0
  40
 0.30000000000000
 100
AcDbArc
  50
0.0
  51
 90.000000000062
   0
LINE
   5
40A
 100
AcDbEntity
   8
LEVEL002
 370
30
 100
AcDbLine
   6
CONTINUOUS
  62
7
  10
 95.372076023392
  20
 114.72069665379
  30
0.0
  11
 96.272076023392
  21
 114.72069665379
  31
0.0
   0
LINE
   5
40B
 100
AcDbEntity
   8
LEVEL002
 370
30
 100
AcDbLine
   6
CONTINUOUS
  62
7
  10
 94.472076023392
  20
 113.52069665379
  30
0.0
  11
 96.272076023392
  21
 113.52069665379
  31
0.0
   0
LINE
   5
40C
 100
AcDbEntity
   8
LEVEL002
 370
30
 100
AcDbLine
   6
CONTINUOUS
  62
7
  10
 94.472076023392
  20
 113.52069665379
  30
0.0
  11
 93.975724776086
  21
 116.67404970083
  31
0.0
   0
LINE
   5
40D
 100
AcDbEntity
   8
LEVEL002
 370
30
 100
AcDbLine
   6
CONTINUOUS
  62
7
  10
 94.472076023392
  20
 117.02069665379
  30
0.0
  11
 93.997458631222
  21
 118.09992708843
  31
0.0
   0
LINE
   5
40E
 100
AcDbEntity
   8
LEVEL002
 370
30
 100
AcDbLine
   6
CONTINUOUS
  62
7
  10
 94.472076023392
  20
 117.02069665379
  30
0.0
  11
 94.272076023392
  21
 117.02069665379
  31
0.0
   0
LINE
   5
40F
 100
AcDbEntity
   8
LEVEL002
 370
30
 100
AcDbLine
   6
CONTINUOUS
  62
7
  10
 94.472076023392
  20
 118.52069665379
  30
0.0
  11
 94.272076023392
  21
 118.52069665379
  31
0.0
   0
LINE
   5
410
 100
AcDbEntity
   8
LEVEL002
 370
30
 100
AcDbLine
   6
CONTINUOUS
  62
7
  10
 94.472076023392
  20
 118.52069665379
  30
0.0
  11
 93.988469969314
  21
 119.92288251325
  31
0.0
   0
LINE
   5
411
 100
AcDbEntity
   8
LEVEL002
 370
30
 100
AcDbLine
   6
CONTINUOUS
  62
7
  10
 94.472076023392
  20
 120.72069665379
  30
0.0
  11
 94.043211417364
  21
 120.21465796980
  31
0.0
   0
LINE
   5
412
 100
AcDbEntity
   8
LEVEL002
 370
30
 100
AcDbLine
   6
CONTINUOUS
  62
7
  10
 94.472076023392
  20
 120.72069665379
  30
0.0
  11
 93.872076023392
  21
 121.52069665379
  31
0.0
   0
LINE
   5
413
 100
AcDbEntity
   8
LEVEL002
 370
30
 100
AcDbLine
   6
CONTINUOUS
  62
7
  10
 93.872076023392
  20
 121.52069665379
  30
0.0
  11
 93.872076023392
  21
 122.52069665379
  31
0.0
   0
LINE
   5
414
 100
AcDbEntity
   8
LEVEL002
 370
30
 100
AcDbLine
   6
CONTINUOUS
  62
7
  10
 96.350755679751
  20
 117.82069665379
  30
0.0
  11
 98.372076023392
  21
 117.82069665379
  31
0.0
   0
LINE
   5
415
 100
AcDbEntity
   8
LEVEL002
 370
30
 100
AcDbLine
   6
CONTINUOUS
  62
7
  10
 95.372076023392
  20
 118.07511224144
  30
0.0
  11
 95.372076023392
  21
 114.72069665379
  31
0.0
   0
ARC
   5
416
 100
AcDbEntity
   8
LEVEL002
 370
30
   6
CONTINUOUS
  62
7
 100
AcDbCircle
  10
 95.672076023392
  20
 118.07511224144
  30
0.0
  40
 0.30000000000000
 100
AcDbArc
  50
 45.000000000052
  51
 179.99999999998
   0
LINE
   5
417
 100
AcDbEntity
   8
LEVEL002
 370
30
 100
AcDbLine
   6
CONTINUOUS
  62
7
  10
 95.884208057748
  20
 118.28724427579
  30
0.0
  11
 96.350755679751
  21
 117.82069665379
  31
0.0
   0
ARC
   5
418
 100
AcDbEntity
   8
LEVEL002
 370
30
   6
CONTINUOUS
  62
7
 100
AcDbCircle
  10
 94.272076023392
  20
 120.02069665379
  30
0.0
  40
 0.30000000000000
 100
AcDbArc
  50
 139.71893342225
  51
 199.02902742232
   0
ARC
   5
419
 100
AcDbEntity
   8
LEVEL002
 370
30
   6
CONTINUOUS
  62
7
 100
AcDbCircle
  10
 94.272076023392
  20
 118.22069665379
  30
0.0
  40
 0.30000000000000
 100
AcDbArc
  50
 90.000000000038
  51
 203.73864088802
   0
ARC
   5
41A
 100
AcDbEntity
   8
LEVEL002
 370
30
   6
CONTINUOUS
  62
7
 100
AcDbCircle
  10
 94.272076023392
  20
 116.72069665379
  30
0.0
  40
 0.30000000000000
 100
AcDbArc
  50
 90.000000000005
  51
 188.94520664791
   0
ARC
   5
41B
 100
AcDbEntity
   8
LEVEL002
 370
30
   6
CONTINUOUS
  62
7
 100
AcDbCircle
  10
 96.272076023392
  20
 114.12069665379
  30
0.0
  40
 0.60000000000000
 100
AcDbArc
  50
 270.00000000000
  51
 90.000000000000
   0
LINE
   5
41C
 100
AcDbEntity
   8
LEVEL002
 370
30
 100
AcDbLine
   6
CONTINUOUS
  62
7
  10
 98.372076023392
  20
 119.22069665379
  30
0.0
  11
 100.37207602339
  21
 119.22069665379
  31
0.0
   0
LINE
   5
41D
 100
AcDbEntity
   8
LEVEL002
 370
30
 100
AcDbLine
   6
CONTINUOUS
  62
7
  10
 100.37207602339
  20
 119.22069665379
  30
0.0
  11
 100.37207602339
  21
 120.42069665379
  31
0.0
   0
LINE
   5
41E
 100
AcDbEntity
   8
LEVEL002
 370
30
 100
AcDbLine
   6
CONTINUOUS
  62
7
  10
 100.67207602339
  20
 120.72069665379
  30
0.0
  11
 101.17207602339
  21
 120.72069665379
  31
0.0
   0
LINE
   5
41F
 100
AcDbEntity
   8
LEVEL002
 370
30
 100
AcDbLine
   6
CONTINUOUS
  62
7
  10
 101.17207602339
  20
 120.72069665379
  30
0.0
  11
 101.17207602339
  21
 121.52069665379
  31
0.0
   0
LINE
   5
420
 100
AcDbEntity
   8
LEVEL002
 370
30
 100
AcDbLine
   6
CONTINUOUS
  62
7
  10
 101.17207602339
  20
 121.52069665379
  30
0.0
  11
 102.17207602339
  21
 122.52069665379
  31
0.0
   0
LINE
   5
421
 100
AcDbEntity
   8
LEVEL002
 370
30
 100
AcDbLine
   6
CONTINUOUS
  62
7
  10
 102.17207602339
  20
 122.52069665379
  30
0.0
  11
 102.87207602339
  21
 122.52069665379
  31
0.0
   0
ARC
   5
422
 100
AcDbEntity
   8
LEVEL002
 370
30
   6
CONTINUOUS
  62
7
 100
AcDbCircle
  10
 100.67207602339
  20
 120.42069665379
  30
0.0
  40
 0.30000000000000
 100
AcDbArc
  50
 89.999999999981
  51
 180.00000000000
   0
LINE
   5
423
 100
AcDbEntity
   8
LEVEL002
 370
30
 100
AcDbLine
   6
CONTINUOUS
  62
7
  10
 101.37207602339
  20
 114.72069665379
  30
0.0
  11
 100.47207602339
  21
 114.72069665379
  31
0.0
   0
LINE
   5
424
 100
AcDbEntity
   8
LEVEL002
 370
30
 100
AcDbLine
   6
CONTINUOUS
  62
7
  10
 102.27207602339
  20
 113.52069665379
  30
0.0
  11
 100.47207602339
  21
 113.52069665379
  31
0.0
   0
LINE
   5
425
 100
AcDbEntity
   8
LEVEL002
 370
30
 100
AcDbLine
   6
CONTINUOUS
  62
7
  10
 102.27207602339
  20
 113.52069665379
  30
0.0
  11
 102.76842727070
  21
 116.67404970083
  31
0.0
   0
LINE
   5
426
 100
AcDbEntity
   8
LEVEL002
 370
30
 100
AcDbLine
   6
CONTINUOUS
  62
7
  10
 102.27207602339
  20
 117.02069665379
  30
0.0
  11
 102.74669341556
  21
 118.09992708843
  31
0.0
   0
LINE
   5
427
 100
AcDbEntity
   8
LEVEL002
 370
30
 100
AcDbLine
   6
CONTINUOUS
  62
7
  10
 102.27207602339
  20
 117.02069665379
  30
0.0
  11
 102.47207602339
  21
 117.02069665379
  31
0.0
   0
LINE
   5
428
 100
AcDbEntity
   8
LEVEL002
 370
30
 100
AcDbLine
   6
CONTINUOUS
  62
7
  10
 102.27207602339
  20
 118.52069665379
  30
0.0
  11
 102.47207602339
  21
 118.52069665379
  31
0.0
   0
LINE
   5
429
 100
AcDbEntity
   8
LEVEL002
 370
30
 100
AcDbLine
   6
CONTINUOUS
  62
7
  10
 102.27207602339
  20
 118.52069665379
  30
0.0
  11
 102.75568207747
  21
 119.92288251325
  31
0.0
   0
LINE
   5
42A
 100
AcDbEntity
   8
LEVEL002
 370
30
 100
AcDbLine
   6
CONTINUOUS
  62
7
  10
 102.27207602339
  20
 120.72069665379
  30
0.0
  11
 102.70094062942
  21
 120.21465796980
  31
0.0
   0
LINE
   5
42B
 100
AcDbEntity
   8
LEVEL002
 370
30
 100
AcDbLine
   6
CONTINUOUS
  62
7
  10
 102.27207602339
  20
 120.72069665379
  30
0.0
  11
 102.87207602339
  21
 121.52069665379
  31
0.0
   0
LINE
   5
42C
 100
AcDbEntity
   8
LEVEL002
 370
30
 100
AcDbLine
   6
CONTINUOUS
  62
7
  10
 102.87207602339
  20
 121.52069665379
  30
0.0
  11
 102.87207602339
  21
 122.52069665379
  31
0.0
   0
LINE
   5
42D
 100
AcDbEntity
   8
LEVEL002
 370
30
 100
AcDbLine
   6
CONTINUOUS
  62
7
  10
 100.39339636703
  20
 117.82069665379
  30
0.0
  11
 98.372076023392
  21
 117.82069665379
  31
0.0
   0
LINE
   5
42E
 100
AcDbEntity
   8
LEVEL002
 370
30
 100
AcDbLine
   6
CONTINUOUS
  62
7
  10
 101.37207602339
  20
 118.07511224144
  30
0.0
  11
 101.37207602339
  21
 114.72069665379
  31
0.0
   0
ARC
   5
42F
 100
AcDbEntity
   8
LEVEL002
 370
30
   6
CONTINUOUS
  62
7
 100
AcDbCircle
  10
 101.07207602339
  20
 118.07511224144
  30
0.0
  40
 0.30000000000000
 100
AcDbArc
  50
0.0
  51
 134.99999999986
   0
LINE
   5
430
 100
AcDbEntity
   8
LEVEL002
 370
30
 100
AcDbLine
   6
CONTINUOUS
  62
7
  10
 100.85994398904
  20
 118.28724427579
  30
0.0
  11
 100.39339636703
  21
 117.82069665379
  31
0.0
   0
ARC
   5
431
 100
AcDbEntity
   8
LEVEL002
 370
30
   6
CONTINUOUS
  62
7
 100
AcDbCircle
  10
 102.47207602339
  20
 120.02069665379
  30
0.0
  40
 0.30000000000000
 100
AcDbArc
  50
 340.97097257775
  51
 40.281066577787
   0
ARC
   5
432
 100
AcDbEntity
   8
LEVEL002
 370
30
   6
CONTINUOUS
  62
7
 100
AcDbCircle
  10
 102.47207602339
  20
 118.22069665379
  30
0.0
  40
 0.30000000000000
 100
AcDbArc
  50
 336.26135911193
  51
 89.999999999981
   0
ARC
   5
433
 100
AcDbEntity
   8
LEVEL002
 370
30
   6
CONTINUOUS
  62
7
 100
AcDbCircle
  10
 102.47207602339
  20
 116.72069665379
  30
0.0
  40
 0.30000000000000
 100
AcDbArc
  50
 351.05479335206
  51
 90.000000000000
   0
ARC
   5
434
 100
AcDbEntity
   8
LEVEL002
 370
30
   6
CONTINUOUS
  62
7
 100
AcDbCircle
  10
 100.47207602339
  20
 114.12069665379
  30
0.0
  40
 0.60000000000000
 100
AcDbArc
  50
 90.000000000000
  51
 270.00000000000
   0
MTEXT
   5
436
 100
AcDbEntity
   8
LEVEL001
 370
15
  62
8
 100
AcDbMText
  10
 44.024999999975
  20
 105.87500000000
  30
0.0
  40
 1.5000000000000
  41
0.0
  71
4
  72
1
   1
\W0.500000;\T1.000000; \W1.000000;\T1.000000;　ＤＴＢ９
   7
GMM002
  44
 0.79999984000003
   0
DIMENSION
   5
437
 100
AcDbEntity
   8
LEVEL001
 370
15
   6
CONTINUOUS
  62
8
 100
AcDbDimension
   2
*D13
  10
 28.330886092142
  20
 97.743251271122
  30
0.0
  11
 26.330886092042
  21
 97.743251271122
  31
0.0
  70
0
   3
GMM001
 100
AcDbAlignedDimension
  13
 24.330886091942
  23
 92.943815690570
  33
0.0
  14
 28.330886092142
  24
 92.943815690570
  34
0.0
 100
AcDbRotatedDimension
   0
DIMENSION
   5
438
 100
AcDbEntity
   8
LEVEL001
 370
15
   6
CONTINUOUS
  62
8
 100
AcDbDimension
   2
*D14
  10
 34.430886092042
  20
 100.74325127112
  30
0.0
  11
 26.330886092042
  21
 100.74325127112
  31
0.0
  70
0
   3
GMM001
 100
AcDbAlignedDimension
  13
 18.230886092041
  23
 94.243815690570
  33
0.0
  14
 34.430886092042
  24
 94.243815690570
  34
0.0
 100
AcDbRotatedDimension
   0
DIMENSION
   5
439
 100
AcDbEntity
   8
LEVEL001
 370
15
   6
CONTINUOUS
  62
8
 100
AcDbDimension
   2
*D15
  10
 32.430886092042
  20
 78.743815690570
  30
0.0
  11
 26.330886092042
  21
 78.743815690570
  31
0.0
  70
0
   3
GMM001
 100
AcDbAlignedDimension
  13
 20.230886092042
  23
 92.743815690570
  33
0.0
  14
 32.430886092042
  24
 92.743815690570
  34
0.0
 100
AcDbRotatedDimension
   0
DIMENSION
   5
43A
 100
AcDbEntity
   8
LEVEL001
 370
15
   6
CONTINUOUS
  62
8
 100
AcDbDimension
   2
*D16
  10
 37.430886092042
  20
 93.743815690570
  30
0.0
  11
 37.430886092042
  21
 87.743815690570
  31
0.0
  70
0
   3
GMM001
 100
AcDbAlignedDimension
  13
 31.280886092042
  23
 81.743815690570
  33
0.0
  14
 34.130886092042
  24
 93.743815690570
  34
0.0
  50
 90.000000000000
 100
AcDbRotatedDimension
   0
DIMENSION
   5
43B
 100
AcDbEntity
   8
LEVEL001
 370
15
   6
CONTINUOUS
  62
8
 100
AcDbDimension
   2
*D17
  10
 37.430886092042
  20
 94.743815690570
  30
0.0
  11
 37.430886092042
  21
 94.243815690570
  31
0.0
  70
0
   3
GMM002
 100
AcDbAlignedDimension
  13
 34.130886092042
  23
 93.743815690570
  33
0.0
  14
 31.480321672705
  24
 94.743815690570
  34
0.0
  50
 90.000000000000
 100
AcDbRotatedDimension
   0
DIMENSION
   5
43C
 100
AcDbEntity
   8
LEVEL001
 370
15
   6
CONTINUOUS
  62
8
 100
AcDbDimension
   2
*D18
  10
 40.430886092042
  20
 94.743815690570
  30
0.0
  11
 40.430886092042
  21
 88.243815690570
  31
0.0
  70
0
   3
GMM001
 100
AcDbAlignedDimension
  13
 37.430886092042
  23
 81.743815690570
  33
0.0
  14
 37.430886092042
  24
 94.743815690570
  34
0.0
  50
 90.000000000000
 100
AcDbRotatedDimension
   0
DIMENSION
   5
43D
 100
AcDbEntity
   8
LEVEL001
 370
15
   6
CONTINUOUS
  62
8
 100
AcDbDimension
   2
*D19
  10
 16.230886092041
  20
 94.743815690570
  30
0.0
  11
 16.230886092041
  21
 93.093815690570
  31
0.0
  70
0
   3
GMM001
 100
AcDbAlignedDimension
  13
 24.330886092042
  23
 91.443815690570
  33
0.0
  14
 21.181450511378
  24
 94.743815690570
  34
0.0
  50
 90.000000000000
 100
AcDbRotatedDimension
   0
ARC
   5
43E
 100
AcDbEntity
   8
LEVEL002
 370
30
   6
CONTINUOUS
  62
7
 100
AcDbCircle
  10
 29.480886092042
  20
 81.943815690570
  30
0.0
  40
 0.20000000000000
 100
AcDbArc
  50
 165.52248781408
  51
 269.99999999997
   0
ARC
   5
43F
 100
AcDbEntity
   8
LEVEL002
 370
30
   6
CONTINUOUS
  62
7
 100
AcDbCircle
  10
 30.255482761283
  20
 81.743815690570
  30
0.0
  40
 1.0000000000000
 100
AcDbArc
  50
 90.000000000000
  51
 165.52248781407
   0
LINE
   5
440
 100
AcDbEntity
   8
LEVEL002
 370
30
 100
AcDbLine
   6
CONTINUOUS
  62
7
  10
 29.480886092042
  20
 81.743815690570
  30
0.0
  11
 31.280886092042
  21
 81.743815690570
  31
0.0
   0
LINE
   5
441
 100
AcDbEntity
   8
LEVEL002
 370
30
 100
AcDbLine
   6
CONTINUOUS
  62
7
  10
 31.780886092042
  20
 84.743815690570
  30
0.0
  11
 32.180886092042
  21
 84.743815690570
  31
0.0
   0
LINE
   5
442
 100
AcDbEntity
   8
LEVEL002
 370
30
 100
AcDbLine
   6
CONTINUOUS
  62
7
  10
 31.280886092042
  20
 81.743815690570
  30
0.0
  11
 32.180886092042
  21
 84.743815690570
  31
0.0
   0
LINE
   5
443
 100
AcDbEntity
   8
LEVEL002
 370
30
 100
AcDbLine
   6
CONTINUOUS
  62
7
  10
 31.780886092042
  20
 86.743815690570
  30
0.0
  11
 32.280886092042
  21
 86.743815690570
  31
0.0
   0
LINE
   5
444
 100
AcDbEntity
   8
LEVEL002
 370
30
 100
AcDbLine
   6
CONTINUOUS
  62
7
  10
 31.780886092042
  20
 84.743815690570
  30
0.0
  11
 32.280886092042
  21
 86.743815690570
  31
0.0
   0
LINE
   5
445
 100
AcDbEntity
   8
LEVEL002
 370
30
 100
AcDbLine
   6
CONTINUOUS
  62
7
  10
 31.480886092153
  20
 94.743815690570
  30
0.0
  11
 30.480886092028
  21
 93.743815690407
  31
0.0
   0
LINE
   5
446
 100
AcDbEntity
   8
LEVEL002
 370
30
 100
AcDbLine
   6
CONTINUOUS
  62
7
  10
 29.130886092042
  20
 90.043815690570
  30
0.0
  11
 26.330886092042
  21
 90.043815690570
  31
0.0
   0
ARC
   5
447
 100
AcDbEntity
   8
LEVEL002
 370
30
   6
CONTINUOUS
  62
7
 100
AcDbCircle
  10
 30.480886092042
  20
 91.506809922340
  30
0.0
  40
 0.30000000000000
 100
AcDbArc
  50
0.0
  51
 135.00000000111
   0
LINE
   5
448
 100
AcDbEntity
   8
LEVEL002
 370
30
 100
AcDbLine
   6
CONTINUOUS
  62
7
  10
 29.567726190520
  20
 91.017914089503
  30
0.0
  11
 30.268754057682
  21
 91.718941956692
  31
0.0
   0
ARC
   5
449
 100
AcDbEntity
   8
LEVEL002
 370
30
   6
CONTINUOUS
  62
7
 100
AcDbCircle
  10
 30.628386362321
  20
 89.957253917744
  30
0.0
  40
 1.5000000000000
 100
AcDbArc
  50
 135.00000000110
  51
 176.69174590877
   0
LINE
   5
44A
 100
AcDbEntity
   8
LEVEL002
 370
30
 100
AcDbLine
   6
CONTINUOUS
  62
7
  10
 32.430886092042
  20
 93.743815690570
  30
0.0
  11
 34.130886092042
  21
 93.743815690570
  31
0.0
   0
ARC
   5
44B
 100
AcDbEntity
   8
LEVEL002
 370
30
   6
CONTINUOUS
  62
7
 100
AcDbCircle
  10
 31.374076341623
  20
 84.743815690570
  30
0.0
  40
 10.000000000000
 100
AcDbArc
  50
 73.488535597432
  51
 89.391247640506
   0
ARC
   5
44C
 100
AcDbEntity
   8
LEVEL002
 370
30
   6
CONTINUOUS
  62
7
 100
AcDbCircle
  10
 34.130886092041
  20
 94.043815690570
  30
0.0
  40
 0.30000000000000
 100
AcDbArc
  50
 270.00000000001
  51
 73.488535597414
   0
ARC
   5
44D
 100
AcDbEntity
   8
LEVEL002
 370
30
   6
CONTINUOUS
  62
7
 100
AcDbCircle
  10
 23.180886092042
  20
 81.943815690570
  30
0.0
  40
 0.20000000000000
 100
AcDbArc
  50
 270.00000000004
  51
 14.477512185921
   0
ARC
   5
44E
 100
AcDbEntity
   8
LEVEL002
 370
30
   6
CONTINUOUS
  62
7
 100
AcDbCircle
  10
 22.406289422800
  20
 81.743815690570
  30
0.0
  40
 1.0000000000000
 100
AcDbArc
  50
 14.477512185928
  51
 90.000000000000
   0
LINE
   5
44F
 100
AcDbEntity
   8
LEVEL002
 370
30
 100
AcDbLine
   6
CONTINUOUS
  62
7
  10
 23.180886092042
  20
 81.743815690570
  30
0.0
  11
 21.380886092042
  21
 81.743815690570
  31
0.0
   0
LINE
   5
450
 100
AcDbEntity
   8
LEVEL002
 370
30
 100
AcDbLine
   6
CONTINUOUS
  62
7
  10
 20.880886092042
  20
 84.743815690570
  30
0.0
  11
 20.480886092042
  21
 84.743815690570
  31
0.0
   0
LINE
   5
451
 100
AcDbEntity
   8
LEVEL002
 370
30
 100
AcDbLine
   6
CONTINUOUS
  62
7
  10
 21.380886092042
  20
 81.743815690570
  30
0.0
  11
 20.480886092042
  21
 84.743815690570
  31
0.0
   0
LINE
   5
452
 100
AcDbEntity
   8
LEVEL002
 370
30
 100
AcDbLine
   6
CONTINUOUS
  62
7
  10
 20.880886092042
  20
 86.743815690570
  30
0.0
  11
 20.380886092042
  21
 86.743815690570
  31
0.0
   0
LINE
   5
453
 100
AcDbEntity
   8
LEVEL002
 370
30
 100
AcDbLine
   6
CONTINUOUS
  62
7
  10
 20.880886092042
  20
 84.743815690570
  30
0.0
  11
 20.380886092042
  21
 86.743815690570
  31
0.0
   0
LINE
   5
454
 100
AcDbEntity
   8
LEVEL002
 370
30
 100
AcDbLine
   6
CONTINUOUS
  62
7
  10
 21.180886091931
  20
 94.743815690570
  30
0.0
  11
 22.180886092056
  21
 93.743815690407
  31
0.0
   0
LINE
   5
455
 100
AcDbEntity
   8
LEVEL002
 370
30
 100
AcDbLine
   6
CONTINUOUS
  62
7
  10
 23.530886092042
  20
 90.043815690570
  30
0.0
  11
 26.330886092042
  21
 90.043815690570
  31
0.0
   0
ARC
   5
456
 100
AcDbEntity
   8
LEVEL002
 370
30
   6
CONTINUOUS
  62
7
 100
AcDbCircle
  10
 22.180886092042
  20
 91.506809922340
  30
0.0
  40
 0.30000000000000
 100
AcDbArc
  50
 44.999999998893
  51
 180.00000000000
   0
LINE
   5
457
 100
AcDbEntity
   8
LEVEL002
 370
30
 100
AcDbLine
   6
CONTINUOUS
  62
7
  10
 23.094045993563
  20
 91.017914089503
  30
0.0
  11
 22.393018126402
  21
 91.718941956692
  31
0.0
   0
ARC
   5
458
 100
AcDbEntity
   8
LEVEL002
 370
30
   6
CONTINUOUS
  62
7
 100
AcDbCircle
  10
 22.033385821763
  20
 89.957253917744
  30
0.0
  40
 1.5000000000000
 100
AcDbArc
  50
 3.3082540912337
  51
 44.999999998894
   0
LINE
   5
459
 100
AcDbEntity
   8
LEVEL002
 370
30
 100
AcDbLine
   6
CONTINUOUS
  62
7
  10
 20.230886092042
  20
 93.743815690570
  30
0.0
  11
 18.530886092042
  21
 93.743815690570
  31
0.0
   0
ARC
   5
45A
 100
AcDbEntity
   8
LEVEL002
 370
30
   6
CONTINUOUS
  62
7
 100
AcDbCircle
  10
 21.287695842460
  20
 84.743815690570
  30
0.0
  40
 10.000000000000
 100
AcDbArc
  50
 90.608752359494
  51
 106.51146440257
   0
ARC
   5
45B
 100
AcDbEntity
   8
LEVEL002
 370
30
   6
CONTINUOUS
  62
7
 100
AcDbCircle
  10
 18.530886092042
  20
 94.043815690570
  30
0.0
  40
 0.30000000000000
 100
AcDbArc
  50
 106.51146440259
  51
 269.99999999999
   0
LINE
   5
45C
 100
AcDbEntity
   8
LEVEL002
 370
30
 100
AcDbLine
   6
CONTINUOUS
  62
7
  10
 22.406289422800
  20
 82.743815690570
  30
0.0
  11
 21.880886092042
  21
 82.743815690570
  31
0.0
   0
LINE
   5
45D
 100
AcDbEntity
   8
LEVEL002
 370
30
 100
AcDbLine
   6
CONTINUOUS
  62
7
  10
 21.880886092042
  20
 82.743815690570
  30
0.0
  11
 21.880886092042
  21
 91.506809922340
  31
0.0
   0
LINE
   5
45E
 100
AcDbEntity
   8
LEVEL002
 370
30
 100
AcDbLine
   6
CONTINUOUS
  62
7
  10
 26.330886092042
  20
 91.443815690570
  30
0.0
  11
 24.330886092042
  21
 91.443815690570
  31
0.0
   0
LINE
   5
45F
 100
AcDbEntity
   8
LEVEL002
 370
30
 100
AcDbLine
   6
CONTINUOUS
  62
7
  10
 24.330886092042
  20
 91.443815690570
  30
0.0
  11
 24.330886091942
  21
 92.943815690570
  31
0.0
   0
LINE
   5
460
 100
AcDbEntity
   8
LEVEL002
 370
30
 100
AcDbLine
   6
CONTINUOUS
  62
7
  10
 24.330886091942
  20
 92.943815690570
  30
0.0
  11
 23.530886092070
  21
 92.943815690603
  31
0.0
   0
LINE
   5
461
 100
AcDbEntity
   8
LEVEL002
 370
30
 100
AcDbLine
   6
CONTINUOUS
  62
7
  10
 23.530886092070
  20
 92.943815690603
  30
0.0
  11
 23.530886092105
  21
 93.743815690407
  31
0.0
   0
LINE
   5
462
 100
AcDbEntity
   8
LEVEL002
 370
30
 100
AcDbLine
   6
CONTINUOUS
  62
7
  10
 23.530886092105
  20
 93.743815690407
  30
0.0
  11
 22.180886092056
  21
 93.743815690407
  31
0.0
   0
LINE
   5
463
 100
AcDbEntity
   8
LEVEL002
 370
30
 100
AcDbLine
   6
CONTINUOUS
  62
7
  10
 20.880886092042
  20
 88.743815690570
  30
0.0
  11
 20.380886092042
  21
 88.743815690570
  31
0.0
   0
LINE
   5
464
 100
AcDbEntity
   8
LEVEL002
 370
30
 100
AcDbLine
   6
CONTINUOUS
  62
7
  10
 20.380886092042
  20
 88.743815690570
  30
0.0
  11
 20.880886092042
  21
 86.743815690570
  31
0.0
   0
LINE
   5
465
 100
AcDbEntity
   8
LEVEL002
 370
30
 100
AcDbLine
   6
CONTINUOUS
  62
7
  10
 20.880886092042
  20
 91.743815690570
  30
0.0
  11
 20.380886092042
  21
 90.743815690570
  31
0.0
   0
LINE
   5
466
 100
AcDbEntity
   8
LEVEL002
 370
30
 100
AcDbLine
   6
CONTINUOUS
  62
7
  10
 20.380886092042
  20
 90.743815690570
  30
0.0
  11
 20.880886092042
  21
 88.743815690570
  31
0.0
   0
LINE
   5
467
 100
AcDbEntity
   8
LEVEL002
 370
30
 100
AcDbLine
   6
CONTINUOUS
  62
7
  10
 20.230886092042
  20
 93.743815690570
  30
0.0
  11
 20.230886092042
  21
 92.743815690570
  31
0.0
   0
LINE
   5
468
 100
AcDbEntity
   8
LEVEL002
 370
30
 100
AcDbLine
   6
CONTINUOUS
  62
7
  10
 20.230886092042
  20
 92.743815690570
  30
0.0
  11
 20.880886092042
  21
 91.743815690570
  31
0.0
   0
LINE
   5
469
 100
AcDbEntity
   8
LEVEL002
 370
30
 100
AcDbLine
   6
CONTINUOUS
  62
7
  10
 30.255482761283
  20
 82.743815690570
  30
0.0
  11
 30.780886092042
  21
 82.743815690570
  31
0.0
   0
LINE
   5
46A
 100
AcDbEntity
   8
LEVEL002
 370
30
 100
AcDbLine
   6
CONTINUOUS
  62
7
  10
 30.780886092042
  20
 82.743815690570
  30
0.0
  11
 30.780886092042
  21
 91.506809922340
  31
0.0
   0
LINE
   5
46B
 100
AcDbEntity
   8
LEVEL002
 370
30
 100
AcDbLine
   6
CONTINUOUS
  62
7
  10
 26.330886092042
  20
 91.443815690570
  30
0.0
  11
 28.330886092042
  21
 91.443815690570
  31
0.0
   0
LINE
   5
46C
 100
AcDbEntity
   8
LEVEL002
 370
30
 100
AcDbLine
   6
CONTINUOUS
  62
7
  10
 28.330886092042
  20
 91.443815690570
  30
0.0
  11
 28.330886092142
  21
 92.943815690570
  31
0.0
   0
LINE
   5
46D
 100
AcDbEntity
   8
LEVEL002
 370
30
 100
AcDbLine
   6
CONTINUOUS
  62
7
  10
 28.330886092142
  20
 92.943815690570
  30
0.0
  11
 29.130886092014
  21
 92.943815690603
  31
0.0
   0
LINE
   5
46E
 100
AcDbEntity
   8
LEVEL002
 370
30
 100
AcDbLine
   6
CONTINUOUS
  62
7
  10
 29.130886092014
  20
 92.943815690603
  30
0.0
  11
 29.130886091979
  21
 93.743815690407
  31
0.0
   0
LINE
   5
46F
 100
AcDbEntity
   8
LEVEL002
 370
30
 100
AcDbLine
   6
CONTINUOUS
  62
7
  10
 29.130886091979
  20
 93.743815690407
  30
0.0
  11
 30.480886092028
  21
 93.743815690407
  31
0.0
   0
LINE
   5
470
 100
AcDbEntity
   8
LEVEL002
 370
30
 100
AcDbLine
   6
CONTINUOUS
  62
7
  10
 31.780886092042
  20
 88.743815690570
  30
0.0
  11
 32.280886092042
  21
 88.743815690570
  31
0.0
   0
LINE
   5
471
 100
AcDbEntity
   8
LEVEL002
 370
30
 100
AcDbLine
   6
CONTINUOUS
  62
7
  10
 32.280886092042
  20
 88.743815690570
  30
0.0
  11
 31.780886092042
  21
 86.743815690570
  31
0.0
   0
LINE
   5
472
 100
AcDbEntity
   8
LEVEL002
 370
30
 100
AcDbLine
   6
CONTINUOUS
  62
7
  10
 31.780886092042
  20
 91.743815690570
  30
0.0
  11
 32.280886092042
  21
 90.743815690570
  31
0.0
   0
LINE
   5
473
 100
AcDbEntity
   8
LEVEL002
 370
30
 100
AcDbLine
   6
CONTINUOUS
  62
7
  10
 32.280886092042
  20
 90.743815690570
  30
0.0
  11
 31.780886092042
  21
 88.743815690570
  31
0.0
   0
LINE
   5
474
 100
AcDbEntity
   8
LEVEL002
 370
30
 100
AcDbLine
   6
CONTINUOUS
  62
7
  10
 32.430886092042
  20
 93.743815690570
  30
0.0
  11
 32.430886092042
  21
 92.743815690570
  31
0.0
   0
LINE
   5
475
 100
AcDbEntity
   8
LEVEL002
 370
30
 100
AcDbLine
   6
CONTINUOUS
  62
7
  10
 32.430886092042
  20
 92.743815690570
  30
0.0
  11
 31.780886092042
  21
 91.743815690570
  31
0.0
   0
LINE
   5
476
 100
AcDbEntity
   8
LEVEL002
 370
15
 100
AcDbLine
   6
DASHDOT
  62
8
  10
 26.330886092042
  20
 95.741943656086
  30
0.0
  11
 26.330886092042
  21
 81.142887864586
  31
0.0
   0
DIMENSION
   5
477
 100
AcDbEntity
   8
LEVEL001
 370
15
   6
CONTINUOUS
  62
8
 100
AcDbDimension
   2
*D20
  10
 65.252510806001
  20
 94.743815690570
  30
0.0
  11
 63.252510806001
  21
 94.743815690570
  31
0.0
  70
0
   3
GMM001
 100
AcDbAlignedDimension
  13
 61.252510806001
  23
 89.643815690570
  33
0.0
  14
 65.252510806001
  24
 89.643815690570
  34
0.0
 100
AcDbRotatedDimension
   0
DIMENSION
   5
478
 100
AcDbEntity
   8
LEVEL001
 370
15
   6
CONTINUOUS
  62
8
 100
AcDbDimension
   2
*D21
  10
 69.752510806001
  20
 97.743815690570
  30
0.0
  11
 63.252510806001
  21
 97.743815690570
  31
0.0
  70
0
   3
GMM001
 100
AcDbAlignedDimension
  13
 56.752510806001
  23
 91.377149023904
  33
0.0
  14
 69.752510806001
  24
 91.377149023904
  34
0.0
 100
AcDbRotatedDimension
   0
DIMENSION
   5
479
 100
AcDbEntity
   8
LEVEL001
 370
15
   6
CONTINUOUS
  62
8
 100
AcDbDimension
   2
*D22
  10
 55.752510806001
  20
 91.743815690570
  30
0.0
  11
 55.752510806001
  21
 90.193815690570
  31
0.0
  70
0
   3
GMM001
 100
AcDbAlignedDimension
  13
 61.252510806001
  23
 88.643815690570
  33
0.0
  14
 59.452510806001
  24
 91.743815690570
  34
0.0
  50
 90.000000000000
 100
AcDbRotatedDimension
   0
DIMENSION
   5
47A
 100
AcDbEntity
   8
LEVEL001
 370
15
   6
CONTINUOUS
  62
8
 100
AcDbDimension
   2
*D23
  10
 72.752510806001
  20
 90.743815690570
  30
0.0
  11
 72.752510806001
  21
 86.243815690570
  31
0.0
  70
0
   3
GMM001
 100
AcDbAlignedDimension
  13
 67.152510806001
  23
 81.743815690570
  33
0.0
  14
 69.452510806001
  24
 90.743815690570
  34
0.0
  50
 90.000000000000
 100
AcDbRotatedDimension
   0
DIMENSION
   5
47B
 100
AcDbEntity
   8
LEVEL001
 370
15
   6
CONTINUOUS
  62
8
 100
AcDbDimension
   2
*D24
  10
 72.752510806001
  20
 91.743815690570
  30
0.0
  11
 72.752510806001
  21
 92.867997586208
  31
0.0
  70
128
   3
GMM003
 100
AcDbAlignedDimension
  13
 69.452510806001
  23
 90.743815690570
  33
0.0
  14
 67.052510806001
  24
 91.743815690570
  34
0.0
  50
 90.000000000000
 100
AcDbRotatedDimension
   0
DIMENSION
   5
47C
 100
AcDbEntity
   8
LEVEL001
 370
15
   6
CONTINUOUS
  62
8
 100
AcDbDimension
   2
*D25
  10
 75.752510806001
  20
 91.743815690570
  30
0.0
  11
 75.752510806001
  21
 86.743815690570
  31
0.0
  70
0
   3
GMM001
 100
AcDbAlignedDimension
  13
 72.752510806001
  23
 81.743815690570
  33
0.0
  14
 72.752510806001
  24
 91.743815690570
  34
0.0
  50
 90.000000000000
 100
AcDbRotatedDimension
   0
DIMENSION
   5
47D
 100
AcDbEntity
   8
LEVEL001
 370
15
   6
CONTINUOUS
  62
8
 100
AcDbDimension
   2
*D26
  10
 67.752510806001
  20
 78.743815690570
  30
0.0
  11
 63.252510806001
  21
 78.743815690570
  31
0.0
  70
0
   3
GMM001
 100
AcDbAlignedDimension
  13
 58.752510806001
  23
 89.743815690570
  33
0.0
  14
 67.752510806001
  24
 89.743815690570
  34
0.0
 100
AcDbRotatedDimension
   0
LINE
   5
47E
 100
AcDbEntity
   8
LEVEL002
 370
30
 100
AcDbLine
   6
CONTINUOUS
  62
7
  10
 66.252510806001
  20
 82.943815690570
  30
0.0
  11
 65.352510806001
  21
 82.943815690570
  31
0.0
   0
LINE
   5
47F
 100
AcDbEntity
   8
LEVEL002
 370
30
 100
AcDbLine
   6
CONTINUOUS
  62
7
  10
 67.152510806001
  20
 81.743815690570
  30
0.0
  11
 65.352510806001
  21
 81.743815690570
  31
0.0
   0
LINE
   5
480
 100
AcDbEntity
   8
LEVEL002
 370
30
 100
AcDbLine
   6
CONTINUOUS
  62
7
  10
 67.152510806001
  20
 81.743815690570
  30
0.0
  11
 67.648862053307
  21
 84.897168737614
  31
0.0
   0
LINE
   5
481
 100
AcDbEntity
   8
LEVEL002
 370
30
 100
AcDbLine
   6
CONTINUOUS
  62
7
  10
 67.152510806001
  20
 85.243815690570
  30
0.0
  11
 67.627128198171
  21
 86.323046125209
  31
0.0
   0
LINE
   5
482
 100
AcDbEntity
   8
LEVEL002
 370
30
 100
AcDbLine
   6
CONTINUOUS
  62
7
  10
 67.152510806001
  20
 85.243815690570
  30
0.0
  11
 67.352510806001
  21
 85.243815690570
  31
0.0
   0
LINE
   5
483
 100
AcDbEntity
   8
LEVEL002
 370
30
 100
AcDbLine
   6
CONTINUOUS
  62
7
  10
 67.152510806001
  20
 86.743815690570
  30
0.0
  11
 67.352510806001
  21
 86.743815690570
  31
0.0
   0
LINE
   5
484
 100
AcDbEntity
   8
LEVEL002
 370
30
 100
AcDbLine
   6
CONTINUOUS
  62
7
  10
 67.152510806001
  20
 86.743815690570
  30
0.0
  11
 67.636116860079
  21
 88.146001550027
  31
0.0
   0
ARC
   5
485
 100
AcDbEntity
   8
LEVEL002
 370
30
   6
CONTINUOUS
  62
7
 100
AcDbCircle
  10
 67.352510806001
  20
 88.243815690570
  30
0.0
  40
 0.30000000000000
 100
AcDbArc
  50
 340.97097257775
  51
 40.281066577781
   0
ARC
   5
486
 100
AcDbEntity
   8
LEVEL002
 370
30
   6
CONTINUOUS
  62
7
 100
AcDbCircle
  10
 67.352510806001
  20
 86.443815690570
  30
0.0
  40
 0.30000000000000
 100
AcDbArc
  50
 336.26135911193
  51
 89.999999999976
   0
ARC
   5
487
 100
AcDbEntity
   8
LEVEL002
 370
30
   6
CONTINUOUS
  62
7
 100
AcDbCircle
  10
 67.352510806001
  20
 84.943815690570
  30
0.0
  40
 0.30000000000000
 100
AcDbArc
  50
 351.05479335206
  51
 90.000000000000
   0
ARC
   5
488
 100
AcDbEntity
   8
LEVEL002
 370
30
   6
CONTINUOUS
  62
7
 100
AcDbCircle
  10
 65.352510806001
  20
 82.343815690570
  30
0.0
  40
 0.60000000000000
 100
AcDbArc
  50
 90.000000000000
  51
 270.00000000000
   0
ARC
   5
489
 100
AcDbEntity
   8
LEVEL002
 370
30
   6
CONTINUOUS
  62
7
 100
AcDbCircle
  10
 69.452510806001
  20
 91.043815690570
  30
0.0
  40
 0.30000000000000
 100
AcDbArc
  50
 270.00000000000
  51
 63.111952382275
   0
ARC
   5
48A
 100
AcDbEntity
   8
LEVEL002
 370
30
   6
CONTINUOUS
  62
7
 100
AcDbCircle
  10
 67.779190752933
  20
 87.743815690570
  30
0.0
  40
 4.0000000000000
 100
AcDbArc
  50
 63.111952382276
  51
 90.000000000000
   0
LINE
   5
48B
 100
AcDbEntity
   8
LEVEL002
 370
30
 100
AcDbLine
   6
CONTINUOUS
  62
7
  10
 67.752510806001
  20
 90.743815690570
  30
0.0
  11
 69.452510806001
  21
 90.743815690570
  31
0.0
   0
LINE
   5
48C
 100
AcDbEntity
   8
LEVEL002
 370
30
 100
AcDbLine
   6
CONTINUOUS
  62
7
  10
 67.052510806001
  20
 91.743815690570
  30
0.0
  11
 67.779190752933
  21
 91.743815690570
  31
0.0
   0
LINE
   5
48D
 100
AcDbEntity
   8
LEVEL002
 370
30
 100
AcDbLine
   6
CONTINUOUS
  62
7
  10
 63.252510806001
  20
 88.643815690570
  30
0.0
  11
 65.252510806001
  21
 88.643815690570
  31
0.0
   0
LINE
   5
48E
 100
AcDbEntity
   8
LEVEL002
 370
30
 100
AcDbLine
   6
CONTINUOUS
  62
7
  10
 65.273831149642
  20
 87.243815690570
  30
0.0
  11
 63.252510806001
  21
 87.243815690570
  31
0.0
   0
ARC
   5
48F
 100
AcDbEntity
   8
LEVEL002
 370
30
   6
CONTINUOUS
  62
7
 100
AcDbCircle
  10
 65.952510806001
  20
 87.498231278217
  30
0.0
  40
 0.30000000000000
 100
AcDbArc
  50
 0.27140733281822E-11
  51
 134.99999999986
   0
LINE
   5
490
 100
AcDbEntity
   8
LEVEL002
 370
30
 100
AcDbLine
   6
CONTINUOUS
  62
7
  10
 65.740378771645
  20
 87.710363312574
  30
0.0
  11
 65.273831149642
  21
 87.243815690570
  31
0.0
   0
ARC
   5
491
 100
AcDbEntity
   8
LEVEL002
 370
30
   6
CONTINUOUS
  62
7
 100
AcDbCircle
  10
 65.552510806001
  20
 89.643815690570
  30
0.0
  40
 0.30000000000000
 100
AcDbArc
  50
 89.999999999976
  51
 180.00000000000
   0
LINE
   5
492
 100
AcDbEntity
   8
LEVEL002
 370
30
 100
AcDbLine
   6
CONTINUOUS
  62
7
  10
 65.552510806001
  20
 89.943815690570
  30
0.0
  11
 66.052510806001
  21
 89.943815690570
  31
0.0
   0
LINE
   5
493
 100
AcDbEntity
   8
LEVEL002
 370
30
 100
AcDbLine
   6
CONTINUOUS
  62
7
  10
 66.052510806001
  20
 89.943815690570
  30
0.0
  11
 66.052510806001
  21
 90.743815690570
  31
0.0
   0
LINE
   5
494
 100
AcDbEntity
   8
LEVEL002
 370
30
 100
AcDbLine
   6
CONTINUOUS
  62
7
  10
 66.052510806001
  20
 90.743815690570
  30
0.0
  11
 67.052510806001
  21
 91.743815690570
  31
0.0
   0
LINE
   5
495
 100
AcDbEntity
   8
LEVEL002
 370
30
 100
AcDbLine
   6
CONTINUOUS
  62
7
  10
 66.252510806001
  20
 87.498231278218
  30
0.0
  11
 66.252510806001
  21
 82.943815690570
  31
0.0
   0
LINE
   5
496
 100
AcDbEntity
   8
LEVEL002
 370
30
 100
AcDbLine
   6
CONTINUOUS
  62
7
  10
 67.152510806001
  20
 89.143815690570
  30
0.0
  11
 67.608252621238
  21
 88.400647205067
  31
0.0
   0
LINE
   5
497
 100
AcDbEntity
   8
LEVEL002
 370
30
 100
AcDbLine
   6
CONTINUOUS
  62
7
  10
 67.152510806001
  20
 89.143815690570
  30
0.0
  11
 67.752510806001
  21
 89.743815690570
  31
0.0
   0
LINE
   5
498
 100
AcDbEntity
   8
LEVEL002
 370
30
 100
AcDbLine
   6
CONTINUOUS
  62
7
  10
 67.752510806001
  20
 89.743815690570
  30
0.0
  11
 67.752510806001
  21
 90.743815690570
  31
0.0
   0
LINE
   5
499
 100
AcDbEntity
   8
LEVEL002
 370
30
 100
AcDbLine
   6
CONTINUOUS
  62
7
  10
 60.252510806001
  20
 82.943815690570
  30
0.0
  11
 61.152510806001
  21
 82.943815690570
  31
0.0
   0
LINE
   5
49A
 100
AcDbEntity
   8
LEVEL002
 370
30
 100
AcDbLine
   6
CONTINUOUS
  62
7
  10
 59.352510806001
  20
 81.743815690570
  30
0.0
  11
 61.152510806001
  21
 81.743815690570
  31
0.0
   0
LINE
   5
49B
 100
AcDbEntity
   8
LEVEL002
 370
30
 100
AcDbLine
   6
CONTINUOUS
  62
7
  10
 59.352510806001
  20
 81.743815690570
  30
0.0
  11
 58.856159558695
  21
 84.897168737614
  31
0.0
   0
LINE
   5
49C
 100
AcDbEntity
   8
LEVEL002
 370
30
 100
AcDbLine
   6
CONTINUOUS
  62
7
  10
 59.352510806001
  20
 85.243815690570
  30
0.0
  11
 58.877893413831
  21
 86.323046125209
  31
0.0
   0
LINE
   5
49D
 100
AcDbEntity
   8
LEVEL002
 370
30
 100
AcDbLine
   6
CONTINUOUS
  62
7
  10
 59.352510806001
  20
 85.243815690570
  30
0.0
  11
 59.152510806001
  21
 85.243815690570
  31
0.0
   0
LINE
   5
49E
 100
AcDbEntity
   8
LEVEL002
 370
30
 100
AcDbLine
   6
CONTINUOUS
  62
7
  10
 59.352510806001
  20
 86.743815690570
  30
0.0
  11
 59.152510806001
  21
 86.743815690570
  31
0.0
   0
LINE
   5
49F
 100
AcDbEntity
   8
LEVEL002
 370
30
 100
AcDbLine
   6
CONTINUOUS
  62
7
  10
 59.352510806001
  20
 86.743815690570
  30
0.0
  11
 58.868904751923
  21
 88.146001550027
  31
0.0
   0
ARC
   5
4A0
 100
AcDbEntity
   8
LEVEL002
 370
30
   6
CONTINUOUS
  62
7
 100
AcDbCircle
  10
 59.152510806001
  20
 88.243815690570
  30
0.0
  40
 0.30000000000000
 100
AcDbArc
  50
 139.71893342222
  51
 199.02902742225
   0
ARC
   5
4A1
 100
AcDbEntity
   8
LEVEL002
 370
30
   6
CONTINUOUS
  62
7
 100
AcDbCircle
  10
 59.152510806001
  20
 86.443815690570
  30
0.0
  40
 0.30000000000000
 100
AcDbArc
  50
 90.000000000026
  51
 203.73864088807
   0
ARC
   5
4A2
 100
AcDbEntity
   8
LEVEL002
 370
30
   6
CONTINUOUS
  62
7
 100
AcDbCircle
  10
 59.152510806001
  20
 84.943815690570
  30
0.0
  40
 0.30000000000000
 100
AcDbArc
  50
 90.000000000000
  51
 188.94520664794
   0
ARC
   5
4A3
 100
AcDbEntity
   8
LEVEL002
 370
30
   6
CONTINUOUS
  62
7
 100
AcDbCircle
  10
 61.152510806001
  20
 82.343815690570
  30
0.0
  40
 0.60000000000000
 100
AcDbArc
  50
 270.00000000000
  51
 90.000000000000
   0
ARC
   5
4A4
 100
AcDbEntity
   8
LEVEL002
 370
30
   6
CONTINUOUS
  62
7
 100
AcDbCircle
  10
 57.052510806001
  20
 91.043815690570
  30
0.0
  40
 0.30000000000000
 100
AcDbArc
  50
 116.88804761772
  51
 270.00000000000
   0
ARC
   5
4A5
 100
AcDbEntity
   8
LEVEL002
 370
30
   6
CONTINUOUS
  62
7
 100
AcDbCircle
  10
 58.725830859069
  20
 87.743815690570
  30
0.0
  40
 4.0000000000000
 100
AcDbArc
  50
 90.000000000000
  51
 116.88804761772
   0
LINE
   5
4A6
 100
AcDbEntity
   8
LEVEL002
 370
30
 100
AcDbLine
   6
CONTINUOUS
  62
7
  10
 58.752510806001
  20
 90.743815690570
  30
0.0
  11
 57.052510806001
  21
 90.743815690570
  31
0.0
   0
LINE
   5
4A7
 100
AcDbEntity
   8
LEVEL002
 370
30
 100
AcDbLine
   6
CONTINUOUS
  62
7
  10
 59.452510806001
  20
 91.743815690570
  30
0.0
  11
 58.725830859069
  21
 91.743815690570
  31
0.0
   0
LINE
   5
4A8
 100
AcDbEntity
   8
LEVEL002
 370
30
 100
AcDbLine
   6
CONTINUOUS
  62
7
  10
 63.252510806001
  20
 88.643815690570
  30
0.0
  11
 61.252510806001
  21
 88.643815690570
  31
0.0
   0
LINE
   5
4A9
 100
AcDbEntity
   8
LEVEL002
 370
30
 100
AcDbLine
   6
CONTINUOUS
  62
7
  10
 61.231190462361
  20
 87.243815690570
  30
0.0
  11
 63.252510806001
  21
 87.243815690570
  31
0.0
   0
ARC
   5
4AA
 100
AcDbEntity
   8
LEVEL002
 370
30
   6
CONTINUOUS
  62
7
 100
AcDbCircle
  10
 60.552510806002
  20
 87.498231278217
  30
0.0
  40
 0.30000000000000
 100
AcDbArc
  50
 45.000000000144
  51
 179.99999999990
   0
LINE
   5
4AB
 100
AcDbEntity
   8
LEVEL002
 370
30
 100
AcDbLine
   6
CONTINUOUS
  62
7
  10
 60.764642840357
  20
 87.710363312574
  30
0.0
  11
 61.231190462361
  21
 87.243815690570
  31
0.0
   0
ARC
   5
4AC
 100
AcDbEntity
   8
LEVEL002
 370
30
   6
CONTINUOUS
  62
7
 100
AcDbCircle
  10
 60.952510806001
  20
 89.643815690570
  30
0.0
  40
 0.30000000000000
 100
AcDbArc
  50
 0.27140733281822E-11
  51
 90.000000000019
   0
LINE
   5
4AD
 100
AcDbEntity
   8
LEVEL002
 370
30
 100
AcDbLine
   6
CONTINUOUS
  62
7
  10
 60.952510806001
  20
 89.943815690570
  30
0.0
  11
 60.452510806001
  21
 89.943815690570
  31
0.0
   0
LINE
   5
4AE
 100
AcDbEntity
   8
LEVEL002
 370
30
 100
AcDbLine
   6
CONTINUOUS
  62
7
  10
 60.452510806001
  20
 89.943815690570
  30
0.0
  11
 60.452510806001
  21
 90.743815690570
  31
0.0
   0
LINE
   5
4AF
 100
AcDbEntity
   8
LEVEL002
 370
30
 100
AcDbLine
   6
CONTINUOUS
  62
7
  10
 60.452510806001
  20
 90.743815690570
  30
0.0
  11
 59.452510806001
  21
 91.743815690570
  31
0.0
   0
LINE
   5
4B0
 100
AcDbEntity
   8
LEVEL002
 370
30
 100
AcDbLine
   6
CONTINUOUS
  62
7
  10
 60.252510806001
  20
 87.498231278218
  30
0.0
  11
 60.252510806001
  21
 82.943815690570
  31
0.0
   0
LINE
   5
4B1
 100
AcDbEntity
   8
LEVEL002
 370
30
 100
AcDbLine
   6
CONTINUOUS
  62
7
  10
 59.352510806001
  20
 89.143815690570
  30
0.0
  11
 58.896768990765
  21
 88.400647205067
  31
0.0
   0
LINE
   5
4B2
 100
AcDbEntity
   8
LEVEL002
 370
30
 100
AcDbLine
   6
CONTINUOUS
  62
7
  10
 59.352510806001
  20
 89.143815690570
  30
0.0
  11
 58.752510806001
  21
 89.743815690570
  31
0.0
   0
LINE
   5
4B3
 100
AcDbEntity
   8
LEVEL002
 370
30
 100
AcDbLine
   6
CONTINUOUS
  62
7
  10
 58.752510806001
  20
 89.743815690570
  30
0.0
  11
 58.752510806001
  21
 90.743815690570
  31
0.0
   0
LINE
   5
4B4
 100
AcDbEntity
   8
LEVEL002
 370
30
 100
AcDbLine
   6
CONTINUOUS
  62
7
  10
 61.252510806001
  20
 88.643815690570
  30
0.0
  11
 61.252510806001
  21
 89.643815690570
  31
0.0
   0
LINE
   5
4B5
 100
AcDbEntity
   8
LEVEL002
 370
30
 100
AcDbLine
   6
CONTINUOUS
  62
7
  10
 65.252510806001
  20
 88.643815690570
  30
0.0
  11
 65.252510806001
  21
 89.643815690570
  31
0.0
   0
LINE
   5
4B6
 100
AcDbEntity
   8
LEVEL002
 370
15
 100
AcDbLine
   6
DASHDOT
  62
8
  10
 63.252510806001
  20
 81.020552887504
  30
0.0
  11
 63.252510806001
  21
 92.230316426788
  31
0.0
   0
DIMENSION
   5
4B7
 100
AcDbEntity
   8
LEVEL001
 370
15
   6
CONTINUOUS
  62
8
 100
AcDbDimension
   2
*D27
  10
 100.37207602339
  20
 92.443815690570
  30
0.0
  11
 98.372076023392
  21
 92.443815690570
  31
0.0
  70
0
   3
GMM001
 100
AcDbAlignedDimension
  13
 96.372076023392
  23
 87.343815690570
  33
0.0
  14
 100.37207602339
  24
 87.343815690570
  34
0.0
 100
AcDbRotatedDimension
   0
DIMENSION
   5
4B8
 100
AcDbEntity
   8
LEVEL001
 370
15
   6
CONTINUOUS
  62
8
 100
AcDbDimension
   2
*D28
  10
 104.87207602339
  20
 95.443815690570
  30
0.0
  11
 98.372076023392
  21
 95.443815690570
  31
0.0
  70
0
   3
GMM001
 100
AcDbAlignedDimension
  13
 91.872076023392
  23
 89.243815690570
  33
0.0
  14
 104.87207602339
  24
 89.243815690570
  34
0.0
 100
AcDbRotatedDimension
   0
DIMENSION
   5
4B9
 100
AcDbEntity
   8
LEVEL001
 370
15
   6
CONTINUOUS
  62
8
 100
AcDbDimension
   2
*D29
  10
 90.593832676628
  20
 89.443815690570
  30
0.0
  11
 90.593832676628
  21
 87.793815690570
  31
0.0
  70
0
   3
GMM001
 100
AcDbAlignedDimension
  13
 96.372076023392
  23
 86.143815690570
  33
0.0
  14
 94.572076023392
  24
 89.443815690570
  34
0.0
  50
 90.000000000000
 100
AcDbRotatedDimension
   0
DIMENSION
   5
4BA
 100
AcDbEntity
   8
LEVEL001
 370
15
   6
CONTINUOUS
  62
8
 100
AcDbDimension
   2
*D30
  10
 107.87207602339
  20
 88.243815690570
  30
0.0
  11
 107.87207602339
  21
 84.993815690570
  31
0.0
  70
0
   3
GMM001
 100
AcDbAlignedDimension
  13
 102.27207602339
  23
 81.743815690570
  33
0.0
  14
 104.57207602339
  24
 88.243815690570
  34
0.0
  50
 90.000000000000
 100
AcDbRotatedDimension
   0
DIMENSION
   5
4BB
 100
AcDbEntity
   8
LEVEL001
 370
15
   6
CONTINUOUS
  62
8
 100
AcDbDimension
   2
*D31
  10
 107.87207602339
  20
 89.443815690570
  30
0.0
  11
 107.87207602339
  21
 89.837708966203
  31
0.0
  70
128
   3
GMM004
 100
AcDbAlignedDimension
  13
 104.57207602339
  23
 88.243815690570
  33
0.0
  14
 102.55217503572
  24
 89.443815690570
  34
0.0
  50
 90.000000000000
 100
AcDbRotatedDimension
   0
DIMENSION
   5
4BC
 100
AcDbEntity
   8
LEVEL001
 370
15
   6
CONTINUOUS
  62
8
 100
AcDbDimension
   2
*D32
  10
 110.87207602339
  20
 89.443815690570
  30
0.0
  11
 110.87207602339
  21
 85.593815690570
  31
0.0
  70
0
   3
GMM001
 100
AcDbAlignedDimension
  13
 107.87207602339
  23
 81.743815690570
  33
0.0
  14
 107.87207602339
  24
 89.443815690570
  34
0.0
  50
 90.000000000000
 100
AcDbRotatedDimension
   0
DIMENSION
   5
4BD
 100
AcDbEntity
   8
LEVEL001
 370
15
   6
CONTINUOUS
  62
8
 100
AcDbDimension
   2
*D33
  10
 102.87207602339
  20
 79.243815690570
  30
0.0
  11
 98.372076023392
  21
 79.243815690570
  31
0.0
  70
0
   3
GMM001
 100
AcDbAlignedDimension
  13
 93.872076023392
  23
 87.443815690570
  33
0.0
  14
 102.87207602339
  24
 87.443815690570
  34
0.0
 100
AcDbRotatedDimension
   0
ARC
   5
4BE
 100
AcDbEntity
   8
LEVEL002
 370
30
   6
CONTINUOUS
  62
7
 100
AcDbCircle
  10
 102.55217503572
  20
 85.443815690570
  30
0.0
  40
 4.0000000000000
 100
AcDbArc
  50
 56.912500019802
  51
 90.000000000000
   0
LINE
   5
4BF
 100
AcDbEntity
   8
LEVEL002
 370
30
 100
AcDbLine
   6
CONTINUOUS
  62
7
  10
 102.87207602339
  20
 88.243815690570
  30
0.0
  11
 104.57207602339
  21
 88.243815690570
  31
0.0
   0
LINE
   5
4C0
 100
AcDbEntity
   8
LEVEL002
 370
30
 100
AcDbLine
   6
CONTINUOUS
  62
7
  10
 102.87207602339
  20
 88.243815690570
  30
0.0
  11
 102.87207602339
  21
 87.443815690570
  31
0.0
   0
LINE
   5
4C1
 100
AcDbEntity
   8
LEVEL002
 370
30
 100
AcDbLine
   6
CONTINUOUS
  62
7
  10
 102.87207602339
  20
 87.443815690570
  30
0.0
  11
 102.47207602339
  21
 87.443815690570
  31
0.0
   0
ARC
   5
4C2
 100
AcDbEntity
   8
LEVEL002
 370
30
   6
CONTINUOUS
  62
7
 100
AcDbCircle
  10
 102.47207602339
  20
 86.943815690570
  30
0.0
  40
 0.50000000000000
 100
AcDbArc
  50
 90.000000000000
  51
 270.00000000000
   0
LINE
   5
4C3
 100
AcDbEntity
   8
LEVEL002
 370
30
 100
AcDbLine
   6
CONTINUOUS
  62
7
  10
 102.27207602339
  20
 83.943815690570
  30
0.0
  11
 102.57207602339
  21
 83.943815690570
  31
0.0
   0
LINE
   5
4C4
 100
AcDbEntity
   8
LEVEL002
 370
30
 100
AcDbLine
   6
CONTINUOUS
  62
7
  10
 102.27207602339
  20
 82.943815690570
  30
0.0
  11
 102.73770065600
  21
 83.631706453340
  31
0.0
   0
LINE
   5
4C5
 100
AcDbEntity
   8
LEVEL002
 370
30
 100
AcDbLine
   6
CONTINUOUS
  62
7
  10
 102.27207602339
  20
 82.943815690570
  30
0.0
  11
 102.57207602339
  21
 82.943815690570
  31
0.0
   0
LINE
   5
4C6
 100
AcDbEntity
   8
LEVEL002
 370
30
 100
AcDbLine
   6
CONTINUOUS
  62
7
  10
 102.27207602339
  20
 81.743815690570
  30
0.0
  11
 102.74908429433
  21
 82.650713209289
  31
0.0
   0
LINE
   5
4C7
 100
AcDbEntity
   8
LEVEL002
 370
30
 100
AcDbLine
   6
CONTINUOUS
  62
7
  10
 102.27207602339
  20
 81.743815690570
  30
0.0
  11
 101.37207602339
  21
 81.743815690570
  31
0.0
   0
LINE
   5
4C8
 100
AcDbEntity
   8
LEVEL002
 370
30
 100
AcDbLine
   6
CONTINUOUS
  62
7
  10
 102.17207602339
  20
 89.443815690570
  30
0.0
  11
 102.55217503572
  21
 89.443815690570
  31
0.0
   0
LINE
   5
4C9
 100
AcDbEntity
   8
LEVEL002
 370
30
 100
AcDbLine
   6
CONTINUOUS
  62
7
  10
 100.70050314832
  20
 85.143815690570
  30
0.0
  11
 98.372076023392
  21
 85.143815690570
  31
0.0
   0
ARC
   5
4CA
 100
AcDbEntity
   8
LEVEL002
 370
30
   6
CONTINUOUS
  62
7
 100
AcDbCircle
  10
 100.67207602339
  20
 87.343815690570
  30
0.0
  40
 0.30000000000000
 100
AcDbArc
  50
 90.000000000003
  51
 180.00000000000
   0
ARC
   5
4CB
 100
AcDbEntity
   8
LEVEL002
 370
30
   6
CONTINUOUS
  62
7
 100
AcDbCircle
  10
 104.57207602339
  20
 88.543815690570
  30
0.0
  40
 0.30000000000000
 100
AcDbArc
  50
 270.00000000000
  51
 56.912500019799
   0
ARC
   5
4CC
 100
AcDbEntity
   8
LEVEL002
 370
30
   6
CONTINUOUS
  62
7
 100
AcDbCircle
  10
 102.57207602339
  20
 83.743815690570
  30
0.0
  40
 0.20000000000000
 100
AcDbArc
  50
 325.90642142678
  51
 90.000000000004
   0
ARC
   5
4CD
 100
AcDbEntity
   8
LEVEL002
 370
30
   6
CONTINUOUS
  62
7
 100
AcDbCircle
  10
 102.57207602339
  20
 82.743815690570
  30
0.0
  40
 0.20000000000000
 100
AcDbArc
  50
 332.25661084854
  51
 89.999999999996
   0
LINE
   5
4CE
 100
AcDbEntity
   8
LEVEL002
 370
30
 100
AcDbLine
   6
CONTINUOUS
  62
7
  10
 102.57207602339
  20
 86.443815690570
  30
0.0
  11
 102.47207602339
  21
 86.443815690570
  31
0.0
   0
LINE
   5
4CF
 100
AcDbEntity
   8
LEVEL002
 370
30
 100
AcDbLine
   6
CONTINUOUS
  62
7
  10
 102.27207602339
  20
 85.443815690570
  30
0.0
  11
 102.73770065600
  21
 86.131706453340
  31
0.0
   0
LINE
   5
4D0
 100
AcDbEntity
   8
LEVEL002
 370
30
 100
AcDbLine
   6
CONTINUOUS
  62
7
  10
 102.27207602339
  20
 85.443815690570
  30
0.0
  11
 102.57207602339
  21
 85.443815690570
  31
0.0
   0
LINE
   5
4D1
 100
AcDbEntity
   8
LEVEL002
 370
30
 100
AcDbLine
   6
CONTINUOUS
  62
7
  10
 102.27207602339
  20
 83.913375438433
  30
0.0
  11
 102.75861695883
  21
 85.171687475510
  31
0.0
   0
ARC
   5
4D2
 100
AcDbEntity
   8
LEVEL002
 370
30
   6
CONTINUOUS
  62
7
 100
AcDbCircle
  10
 102.57207602339
  20
 85.243815690570
  30
0.0
  40
 0.20000000000000
 100
AcDbArc
  50
 338.86042813368
  51
 90.000000000000
   0
ARC
   5
4D3
 100
AcDbEntity
   8
LEVEL002
 370
30
   6
CONTINUOUS
  62
7
 100
AcDbCircle
  10
 102.57207602339
  20
 86.243815690570
  30
0.0
  40
 0.20000000000000
 100
AcDbArc
  50
 325.90642142678
  51
 90.000000000004
   0
ARC
   5
4D4
 100
AcDbEntity
   8
LEVEL002
 370
30
   6
CONTINUOUS
  62
7
 100
AcDbCircle
  10
 94.191977011064
  20
 85.443815690570
  30
0.0
  40
 4.0000000000000
 100
AcDbArc
  50
 90.000000000000
  51
 123.08749998020
   0
LINE
   5
4D5
 100
AcDbEntity
   8
LEVEL002
 370
30
 100
AcDbLine
   6
CONTINUOUS
  62
7
  10
 93.872076023392
  20
 88.243815690570
  30
0.0
  11
 92.172076023392
  21
 88.243815690570
  31
0.0
   0
LINE
   5
4D6
 100
AcDbEntity
   8
LEVEL002
 370
30
 100
AcDbLine
   6
CONTINUOUS
  62
7
  10
 93.872076023392
  20
 88.243815690570
  30
0.0
  11
 93.872076023392
  21
 87.443815690570
  31
0.0
   0
LINE
   5
4D7
 100
AcDbEntity
   8
LEVEL002
 370
30
 100
AcDbLine
   6
CONTINUOUS
  62
7
  10
 93.872076023392
  20
 87.443815690570
  30
0.0
  11
 94.272076023392
  21
 87.443815690570
  31
0.0
   0
ARC
   5
4D8
 100
AcDbEntity
   8
LEVEL002
 370
30
   6
CONTINUOUS
  62
7
 100
AcDbCircle
  10
 94.272076023392
  20
 86.943815690570
  30
0.0
  40
 0.50000000000000
 100
AcDbArc
  50
 270.00000000000
  51
 90.000000000000
   0
LINE
   5
4D9
 100
AcDbEntity
   8
LEVEL002
 370
30
 100
AcDbLine
   6
CONTINUOUS
  62
7
  10
 94.472076023392
  20
 83.943815690570
  30
0.0
  11
 94.172076023392
  21
 83.943815690570
  31
0.0
   0
LINE
   5
4DA
 100
AcDbEntity
   8
LEVEL002
 370
30
 100
AcDbLine
   6
CONTINUOUS
  62
7
  10
 94.472076023392
  20
 82.943815690570
  30
0.0
  11
 94.006451390780
  21
 83.631706453340
  31
0.0
   0
LINE
   5
4DB
 100
AcDbEntity
   8
LEVEL002
 370
30
 100
AcDbLine
   6
CONTINUOUS
  62
7
  10
 94.472076023392
  20
 82.943815690570
  30
0.0
  11
 94.172076023392
  21
 82.943815690570
  31
0.0
   0
LINE
   5
4DC
 100
AcDbEntity
   8
LEVEL002
 370
30
 100
AcDbLine
   6
CONTINUOUS
  62
7
  10
 94.472076023392
  20
 81.743815690570
  30
0.0
  11
 93.995067752457
  21
 82.650713209289
  31
0.0
   0
LINE
   5
4DD
 100
AcDbEntity
   8
LEVEL002
 370
30
 100
AcDbLine
   6
CONTINUOUS
  62
7
  10
 94.472076023392
  20
 81.743815690570
  30
0.0
  11
 95.372076023392
  21
 81.743815690570
  31
0.0
   0
LINE
   5
4DE
 100
AcDbEntity
   8
LEVEL002
 370
30
 100
AcDbLine
   6
CONTINUOUS
  62
7
  10
 94.572076023392
  20
 89.443815690570
  30
0.0
  11
 94.191977011064
  21
 89.443815690570
  31
0.0
   0
LINE
   5
4DF
 100
AcDbEntity
   8
LEVEL002
 370
30
 100
AcDbLine
   6
CONTINUOUS
  62
7
  10
 96.043648898468
  20
 85.143815690570
  30
0.0
  11
 98.372076023392
  21
 85.143815690570
  31
0.0
   0
ARC
   5
4E0
 100
AcDbEntity
   8
LEVEL002
 370
30
   6
CONTINUOUS
  62
7
 100
AcDbCircle
  10
 96.072076023392
  20
 87.343815690570
  30
0.0
  40
 0.30000000000000
 100
AcDbArc
  50
 0.27140733281822E-11
  51
 90.000000000003
   0
ARC
   5
4E1
 100
AcDbEntity
   8
LEVEL002
 370
30
   6
CONTINUOUS
  62
7
 100
AcDbCircle
  10
 92.172076023392
  20
 88.543815690570
  30
0.0
  40
 0.30000000000000
 100
AcDbArc
  50
 123.08749998020
  51
 270.00000000000
   0
ARC
   5
4E2
 100
AcDbEntity
   8
LEVEL002
 370
30
   6
CONTINUOUS
  62
7
 100
AcDbCircle
  10
 94.172076023392
  20
 83.743815690570
  30
0.0
  40
 0.20000000000000
 100
AcDbArc
  50
 90.000000000004
  51
 214.09357857322
   0
ARC
   5
4E3
 100
AcDbEntity
   8
LEVEL002
 370
30
   6
CONTINUOUS
  62
7
 100
AcDbCircle
  10
 94.172076023392
  20
 82.743815690570
  30
0.0
  40
 0.20000000000000
 100
AcDbArc
  50
 90.000000000004
  51
 207.74338915146
   0
LINE
   5
4E4
 100
AcDbEntity
   8
LEVEL002
 370
30
 100
AcDbLine
   6
CONTINUOUS
  62
7
  10
 94.172076023392
  20
 86.443815690570
  30
0.0
  11
 94.272076023392
  21
 86.443815690570
  31
0.0
   0
LINE
   5
4E5
 100
AcDbEntity
   8
LEVEL002
 370
30
 100
AcDbLine
   6
CONTINUOUS
  62
7
  10
 94.472076023392
  20
 85.443815690570
  30
0.0
  11
 94.006451390780
  21
 86.131706453340
  31
0.0
   0
LINE
   5
4E6
 100
AcDbEntity
   8
LEVEL002
 370
30
 100
AcDbLine
   6
CONTINUOUS
  62
7
  10
 94.472076023392
  20
 85.443815690570
  30
0.0
  11
 94.172076023392
  21
 85.443815690570
  31
0.0
   0
LINE
   5
4E7
 100
AcDbEntity
   8
LEVEL002
 370
30
 100
AcDbLine
   6
CONTINUOUS
  62
7
  10
 94.472076023392
  20
 83.913375438433
  30
0.0
  11
 93.985535087958
  21
 85.171687475510
  31
0.0
   0
ARC
   5
4E8
 100
AcDbEntity
   8
LEVEL002
 370
30
   6
CONTINUOUS
  62
7
 100
AcDbCircle
  10
 94.172076023392
  20
 85.243815690570
  30
0.0
  40
 0.20000000000000
 100
AcDbArc
  50
 89.999999999996
  51
 201.13957186632
   0
ARC
   5
4E9
 100
AcDbEntity
   8
LEVEL002
 370
30
   6
CONTINUOUS
  62
7
 100
AcDbCircle
  10
 94.172076023392
  20
 86.243815690570
  30
0.0
  40
 0.20000000000000
 100
AcDbArc
  50
 90.000000000004
  51
 214.09357857322
   0
LINE
   5
4EA
 100
AcDbEntity
   8
LEVEL002
 370
30
 100
AcDbLine
   6
CONTINUOUS
  62
7
  10
 100.70050314832
  20
 85.143815690570
  30
0.0
  11
 100.85994398904
  21
 85.303256531290
  31
0.0
   0
LINE
   5
4EB
 100
AcDbEntity
   8
LEVEL002
 370
30
 100
AcDbLine
   6
CONTINUOUS
  62
7
  10
 101.37207602339
  20
 81.743815690570
  30
0.0
  11
 101.37207602339
  21
 85.091124496934
  31
0.0
   0
LINE
   5
4EC
 100
AcDbEntity
   8
LEVEL002
 370
30
 100
AcDbLine
   6
CONTINUOUS
  62
7
  10
 95.372076023392
  20
 81.743815690570
  30
0.0
  11
 95.372076023392
  21
 85.091124496934
  31
0.0
   0
LINE
   5
4ED
 100
AcDbEntity
   8
LEVEL002
 370
30
 100
AcDbLine
   6
CONTINUOUS
  62
7
  10
 96.043648898468
  20
 85.143815690570
  30
0.0
  11
 95.884208057748
  21
 85.303256531290
  31
0.0
   0
ARC
   5
4EE
 100
AcDbEntity
   8
LEVEL002
 370
30
   6
CONTINUOUS
  62
7
 100
AcDbCircle
  10
 95.672076023392
  20
 85.091124496934
  30
0.0
  40
 0.30000000000000
 100
AcDbArc
  50
 44.999999999998
  51
 180.00000000000
   0
ARC
   5
4EF
 100
AcDbEntity
   8
LEVEL002
 370
30
   6
CONTINUOUS
  62
7
 100
AcDbCircle
  10
 101.07207602339
  20
 85.091124496934
  30
0.0
  40
 0.30000000000000
 100
AcDbArc
  50
0.0
  51
 135.00000000000
   0
LINE
   5
4F0
 100
AcDbEntity
   8
LEVEL002
 370
30
 100
AcDbLine
   6
CONTINUOUS
  62
7
  10
 94.572076023392
  20
 89.443815690570
  30
0.0
  11
 95.572076023392
  21
 88.443815690570
  31
0.0
   0
LINE
   5
4F1
 100
AcDbEntity
   8
LEVEL002
 370
30
 100
AcDbLine
   6
CONTINUOUS
  62
7
  10
 95.572076023392
  20
 88.443815690570
  30
0.0
  11
 95.572076023392
  21
 87.643815690570
  31
0.0
   0
LINE
   5
4F2
 100
AcDbEntity
   8
LEVEL002
 370
30
 100
AcDbLine
   6
CONTINUOUS
  62
7
  10
 95.572076023392
  20
 87.643815690570
  30
0.0
  11
 96.072076023458
  21
 87.643815690459
  31
0.0
   0
LINE
   5
4F3
 100
AcDbEntity
   8
LEVEL002
 370
30
 100
AcDbLine
   6
CONTINUOUS
  62
7
  10
 96.372076023392
  20
 87.343815690570
  30
0.0
  11
 96.372076023392
  21
 86.143815690570
  31
0.0
   0
LINE
   5
4F4
 100
AcDbEntity
   8
LEVEL002
 370
30
 100
AcDbLine
   6
CONTINUOUS
  62
7
  10
 96.372076023392
  20
 86.143815690570
  30
0.0
  11
 98.372076023392
  21
 86.143815690570
  31
0.0
   0
LINE
   5
4F5
 100
AcDbEntity
   8
LEVEL002
 370
30
 100
AcDbLine
   6
CONTINUOUS
  62
7
  10
 102.17207602339
  20
 89.443815690570
  30
0.0
  11
 101.17207602339
  21
 88.443815690570
  31
0.0
   0
LINE
   5
4F6
 100
AcDbEntity
   8
LEVEL002
 370
30
 100
AcDbLine
   6
CONTINUOUS
  62
7
  10
 101.17207602339
  20
 88.443815690570
  30
0.0
  11
 101.17207602339
  21
 87.643815690570
  31
0.0
   0
LINE
   5
4F7
 100
AcDbEntity
   8
LEVEL002
 370
30
 100
AcDbLine
   6
CONTINUOUS
  62
7
  10
 101.17207602339
  20
 87.643815690570
  30
0.0
  11
 100.67207602333
  21
 87.643815690459
  31
0.0
   0
LINE
   5
4F8
 100
AcDbEntity
   8
LEVEL002
 370
30
 100
AcDbLine
   6
CONTINUOUS
  62
7
  10
 100.37207602339
  20
 87.343815690570
  30
0.0
  11
 100.37207602339
  21
 86.143815690570
  31
0.0
   0
LINE
   5
4F9
 100
AcDbEntity
   8
LEVEL002
 370
30
 100
AcDbLine
   6
CONTINUOUS
  62
7
  10
 100.37207602339
  20
 86.143815690570
  30
0.0
  11
 98.372076023392
  21
 86.143815690570
  31
0.0
   0
LINE
   5
4FA
 100
AcDbEntity
   8
LEVEL002
 370
15
 100
AcDbLine
   6
DASHDOT
  62
8
  10
 98.372076023392
  20
 90.098748037310
  30
0.0
  11
 98.372076023392
  21
 81.294273081805
  31
0.0
   0
MTEXT
   5
4FC
 100
AcDbEntity
   8
LEVEL001
 370
15
  62
8
 100
AcDbMText
  10
 44.024999999975
  20
 42.625000000004
  30
0.0
  40
 1.5000000000000
  41
0.0
  71
4
  72
1
   1
\W0.500000;\T1.000000; \W1.000000;\T1.000000;　堀込寸法：９×９
   7
GMM002
  44
 0.79999984000003
   0
MTEXT
   5
4FE
 100
AcDbEntity
   8
LEVEL001
 370
15
  62
8
 100
AcDbMText
  10
 80.149999999975
  20
 42.625000000004
  30
0.0
  40
 1.5000000000000
  41
0.0
  71
4
  72
1
   1
\W0.500000;\T1.000000; \W1.000000;\T1.000000;　堀込寸法：２０×４
   7
GMM002
  44
 0.79999984000003
   0
LINE
   5
4FF
 100
AcDbEntity
   8
LEVEL002
 370
15
 100
AcDbLine
   6
DASHDOT
  62
8
  10
 26.330886092042
  20
 44.512626150401
  30
0.0
  11
 26.330886092042
  21
 57.737373849606
  31
0.0
   0
DIMENSION
   5
500
 100
AcDbEntity
   8
LEVEL001
 370
15
   6
CONTINUOUS
  62
8
 100
AcDbDimension
   2
*D34
  10
 30.630886092042
  20
 60.125000000004
  30
0.0
  11
 26.330886092042
  21
 60.125000000004
  31
0.0
  70
0
   3
GMM001
 100
AcDbAlignedDimension
  13
 22.030886092041
  23
 57.125000000004
  33
0.0
  14
 30.630886092042
  24
 57.125000000004
  34
0.0
 100
AcDbRotatedDimension
   0
DIMENSION
   5
501
 100
AcDbEntity
   8
LEVEL001
 370
15
   6
CONTINUOUS
  62
8
 100
AcDbDimension
   2
*D35
  10
 32.430886092042
  20
 63.125000000004
  30
0.0
  11
 26.330886092042
  21
 63.125000000004
  31
0.0
  70
0
   3
GMM001
 100
AcDbAlignedDimension
  13
 20.230886092041
  23
 57.125000000004
  33
0.0
  14
 32.430886092042
  24
 57.125000000004
  34
0.0
 100
AcDbRotatedDimension
   0
DIMENSION
   5
502
 100
AcDbEntity
   8
LEVEL001
 370
15
   6
CONTINUOUS
  62
8
 100
AcDbDimension
   2
*D36
  10
 17.730886092041
  20
 57.125000000004
  30
0.0
  11
 17.730886092041
  21
 55.325000000004
  31
0.0
  70
0
   3
GMM001
 100
AcDbAlignedDimension
  13
 26.330886092042
  23
 53.525000000004
  33
0.0
  14
 20.230886092041
  24
 57.125000000004
  34
0.0
  50
 90.000000000000
 100
AcDbRotatedDimension
   0
DIMENSION
   5
503
 100
AcDbEntity
   8
LEVEL001
 370
15
   6
CONTINUOUS
  62
8
 100
AcDbDimension
   2
*D37
  10
 35.430886092042
  20
 57.125000000004
  30
0.0
  11
 35.430886092042
  21
 51.125000000004
  31
0.0
  70
0
   3
GMM001
 100
AcDbAlignedDimension
  13
 31.480886092042
  23
 45.125000000004
  33
0.0
  14
 32.430886092042
  24
 57.125000000004
  34
0.0
  50
 90.000000000000
 100
AcDbRotatedDimension
   0
LINE
   5
504
 100
AcDbEntity
   8
LEVEL002
 370
30
 100
AcDbLine
   6
CONTINUOUS
  62
7
  10
 26.330886092042
  20
 53.525000000004
  30
0.0
  11
 30.630886092042
  21
 57.125000000004
  31
0.0
   0
LINE
   5
505
 100
AcDbEntity
   8
LEVEL002
 370
30
 100
AcDbLine
   6
CONTINUOUS
  62
7
  10
 30.630886092042
  20
 57.125000000004
  30
0.0
  11
 32.430886092042
  21
 57.125000000004
  31
0.0
   0
LINE
   5
506
 100
AcDbEntity
   8
LEVEL002
 370
30
 100
AcDbLine
   6
CONTINUOUS
  62
7
  10
 30.630886092042
  20
 47.125000000004
  30
0.0
  11
 30.630886092042
  21
 53.874193278751
  31
0.0
   0
LINE
   5
507
 100
AcDbEntity
   8
LEVEL002
 370
30
 100
AcDbLine
   6
CONTINUOUS
  62
7
  10
 31.480886092042
  20
 45.125000000004
  30
0.0
  11
 29.280886092042
  21
 45.125000000004
  31
0.0
   0
LINE
   5
508
 100
AcDbEntity
   8
LEVEL001
 370
30
 100
AcDbLine
   6
CONTINUOUS
  62
7
  10
 27.614759404960
  20
 51.991484654018
  30
0.0
  11
 30.138305095104
  21
 54.104220580649
  31
0.0
   0
ARC
   5
509
 100
AcDbEntity
   8
LEVEL001
 370
30
   6
CONTINUOUS
  62
7
 100
AcDbCircle
  10
 30.330886092042
  20
 53.874193278751
  30
0.0
  40
 0.30000000000000
 100
AcDbArc
  50
0.0
  51
 129.93638314697
   0
POINT
   5
50A
 100
AcDbEntity
   8
LEVEL001
 100
AcDbPoint
  62
7
  10
 30.630886092042
  20
 54.516613973434
  30
0.0
   0
LINE
   5
50B
 100
AcDbEntity
   8
LEVEL001
 370
30
 100
AcDbLine
   6
CONTINUOUS
  62
7
  10
 29.280886092042
  20
 45.125000000004
  30
0.0
  11
 29.280886092042
  21
 46.125000000004
  31
0.0
   0
LINE
   5
50C
 100
AcDbEntity
   8
LEVEL001
 370
30
 100
AcDbLine
   6
CONTINUOUS
  62
7
  10
 30.630886092042
  20
 47.125000000004
  30
0.0
  11
 30.280886092042
  21
 47.125000000004
  31
0.0
   0
ARC
   5
50D
 100
AcDbEntity
   8
LEVEL001
 370
30
   6
CONTINUOUS
  62
7
 100
AcDbCircle
  10
 30.280886092042
  20
 46.125000000004
  30
0.0
  40
 1.0000000000000
 100
AcDbArc
  50
 89.999999999999
  51
 180.00000000000
   0
LWPOLYLINE
   5
50E
 100
AcDbEntity
   8
LEVEL001
 370
30
   6
CONTINUOUS
  62
7
 100
AcDbPolyline
  90
4
  70
0
  10
 32.430886092042
  20
 54.125000000004
  10
 31.980886092042
  20
 54.875000000004
  10
 32.430886092042
  20
 55.625000000004
  10
 32.430886092042
  20
 57.125000000004
   0
LINE
   5
50F
 100
AcDbEntity
   8
LEVEL001
 370
30
 100
AcDbLine
   6
CONTINUOUS
  62
7
  10
 32.080886092042
  20
 52.125000000004
  30
0.0
  11
 32.430886092042
  21
 54.125000000004
  31
0.0
   0
LWPOLYLINE
   5
510
 100
AcDbEntity
   8
LEVEL001
 370
30
   6
CONTINUOUS
  62
7
 100
AcDbPolyline
  90
4
  70
0
  10
 31.480886092042
  20
 45.125000000004
  10
 32.430886092042
  20
 48.125000000004
  10
 32.080886092042
  20
 48.125000000004
  10
 32.430886092042
  20
 50.125000000004
   0
ARC
   5
511
 100
AcDbEntity
   8
LEVEL001
 370
30
   6
CONTINUOUS
  62
7
 100
AcDbCircle
  10
 26.330886092042
  20
 53.525000000004
  30
0.0
  40
 2.0000000000000
 100
AcDbArc
  50
 230.06361685303
  51
 309.93638314697
   0
POINT
   5
512
 100
AcDbEntity
   8
LEVEL001
 100
AcDbPoint
  62
7
  10
 26.330886092042
  20
 50.916613973435
  30
0.0
   0
LWPOLYLINE
   5
513
 100
AcDbEntity
   8
LEVEL001
 370
30
   6
CONTINUOUS
  62
7
 100
AcDbPolyline
  90
4
  70
0
  10
 32.430886092042
  20
 50.125000000004
  10
 32.080886092042
  20
 50.125000000004
  10
 32.430886092042
  20
 52.125000000004
  10
 32.080886092042
  20
 52.125000000004
   0
LINE
   5
514
 100
AcDbEntity
   8
LEVEL002
 370
30
 100
AcDbLine
   6
CONTINUOUS
  62
7
  10
 26.330886092042
  20
 53.525000000004
  30
0.0
  11
 22.030886092041
  21
 57.125000000004
  31
0.0
   0
LINE
   5
515
 100
AcDbEntity
   8
LEVEL002
 370
30
 100
AcDbLine
   6
CONTINUOUS
  62
7
  10
 22.030886092041
  20
 57.125000000004
  30
0.0
  11
 20.230886092041
  21
 57.125000000004
  31
0.0
   0
LINE
   5
516
 100
AcDbEntity
   8
LEVEL002
 370
30
 100
AcDbLine
   6
CONTINUOUS
  62
7
  10
 22.030886092042
  20
 47.125000000004
  30
0.0
  11
 22.030886092042
  21
 53.874193278751
  31
0.0
   0
LINE
   5
517
 100
AcDbEntity
   8
LEVEL002
 370
30
 100
AcDbLine
   6
CONTINUOUS
  62
7
  10
 21.180886092042
  20
 45.125000000004
  30
0.0
  11
 23.380886092042
  21
 45.125000000004
  31
0.0
   0
LINE
   5
518
 100
AcDbEntity
   8
LEVEL001
 370
30
 100
AcDbLine
   6
CONTINUOUS
  62
7
  10
 25.047012779123
  20
 51.991484654018
  30
0.0
  11
 22.523467088979
  21
 54.104220580649
  31
0.0
   0
ARC
   5
519
 100
AcDbEntity
   8
LEVEL001
 370
30
   6
CONTINUOUS
  62
7
 100
AcDbCircle
  10
 22.330886092042
  20
 53.874193278751
  30
0.0
  40
 0.30000000000000
 100
AcDbArc
  50
 50.063616853033
  51
 180.00000000000
   0
POINT
   5
51A
 100
AcDbEntity
   8
LEVEL001
 100
AcDbPoint
  62
7
  10
 22.030886092042
  20
 54.516613973434
  30
0.0
   0
LINE
   5
51B
 100
AcDbEntity
   8
LEVEL001
 370
30
 100
AcDbLine
   6
CONTINUOUS
  62
7
  10
 23.380886092042
  20
 45.125000000004
  30
0.0
  11
 23.380886092042
  21
 46.125000000004
  31
0.0
   0
LINE
   5
51C
 100
AcDbEntity
   8
LEVEL001
 370
30
 100
AcDbLine
   6
CONTINUOUS
  62
7
  10
 22.030886092042
  20
 47.125000000004
  30
0.0
  11
 22.380886092042
  21
 47.125000000004
  31
0.0
   0
ARC
   5
51D
 100
AcDbEntity
   8
LEVEL001
 370
30
   6
CONTINUOUS
  62
7
 100
AcDbCircle
  10
 22.380886092042
  20
 46.125000000004
  30
0.0
  40
 1.0000000000000
 100
AcDbArc
  50
0.0
  51
 90.000000000000
   0
LWPOLYLINE
   5
51E
 100
AcDbEntity
   8
LEVEL001
 370
30
   6
CONTINUOUS
  62
7
 100
AcDbPolyline
  90
4
  70
0
  10
 20.230886092041
  20
 54.125000000004
  10
 20.680886092041
  20
 54.875000000004
  10
 20.230886092041
  20
 55.625000000004
  10
 20.230886092041
  20
 57.125000000004
   0
LINE
   5
51F
 100
AcDbEntity
   8
LEVEL001
 370
30
 100
AcDbLine
   6
CONTINUOUS
  62
7
  10
 20.580886092041
  20
 52.125000000004
  30
0.0
  11
 20.230886092041
  21
 54.125000000004
  31
0.0
   0
LWPOLYLINE
   5
520
 100
AcDbEntity
   8
LEVEL001
 370
30
   6
CONTINUOUS
  62
7
 100
AcDbPolyline
  90
4
  70
0
  10
 21.180886092042
  20
 45.125000000004
  10
 20.230886092041
  20
 48.125000000004
  10
 20.580886092041
  20
 48.125000000004
  10
 20.230886092041
  20
 50.125000000004
   0
LWPOLYLINE
   5
521
 100
AcDbEntity
   8
LEVEL001
 370
30
   6
CONTINUOUS
  62
7
 100
AcDbPolyline
  90
4
  70
0
  10
 20.230886092041
  20
 50.125000000004
  10
 20.580886092041
  20
 50.125000000004
  10
 20.230886092041
  20
 52.125000000004
  10
 20.580886092041
  20
 52.125000000004
   0
DIMENSION
   5
522
 100
AcDbEntity
   8
LEVEL001
 370
15
   6
CONTINUOUS
  62
8
 100
AcDbDimension
   2
*D38
  10
 56.252510806001
  20
 54.125000000004
  30
0.0
  11
 56.252510806001
  21
 52.225000000004
  31
0.0
  70
0
   3
GMM001
 100
AcDbAlignedDimension
  13
 63.252510806001
  23
 50.325000000003
  33
0.0
  14
 58.752510806001
  24
 54.125000000004
  34
0.0
  50
 90.000000000000
 100
AcDbRotatedDimension
   0
DIMENSION
   5
523
 100
AcDbEntity
   8
LEVEL001
 370
15
   6
CONTINUOUS
  62
8
 100
AcDbDimension
   2
*D39
  10
 70.752510806001
  20
 54.125000000004
  30
0.0
  11
 70.752510806001
  21
 49.625000000004
  31
0.0
  70
0
   3
GMM001
 100
AcDbAlignedDimension
  13
 67.152510806001
  23
 45.125000000004
  33
0.0
  14
 67.752510806001
  24
 54.125000000004
  34
0.0
  50
 90.000000000000
 100
AcDbRotatedDimension
   0
DIMENSION
   5
524
 100
AcDbEntity
   8
LEVEL001
 370
15
   6
CONTINUOUS
  62
8
 100
AcDbDimension
   2
*D40
  10
 67.752510806001
  20
 57.125000000004
  30
0.0
  11
 63.252510806001
  21
 57.125000000004
  31
0.0
  70
0
   3
GMM001
 100
AcDbAlignedDimension
  13
 58.752510806001
  23
 54.125000000004
  33
0.0
  14
 67.752510806001
  24
 54.125000000004
  34
0.0
 100
AcDbRotatedDimension
   0
LINE
   5
525
 100
AcDbEntity
   8
LEVEL002
 370
30
 100
AcDbLine
   6
CONTINUOUS
  62
7
  10
 67.552510806000
  20
 54.125000000004
  30
0.0
  11
 67.752510806001
  21
 54.125000000004
  31
0.0
   0
LINE
   5
526
 100
AcDbEntity
   8
LEVEL002
 370
30
 100
AcDbLine
   6
CONTINUOUS
  62
7
  10
 67.152510806001
  20
 45.125000000004
  30
0.0
  11
 67.644997549934
  21
 46.870696653792
  31
0.0
   0
LINE
   5
527
 100
AcDbEntity
   8
LEVEL002
 370
30
 100
AcDbLine
   6
CONTINUOUS
  62
7
  10
 67.152510806001
  20
 47.125000000004
  30
0.0
  11
 67.638445387413
  21
 48.351322788908
  31
0.0
   0
LINE
   5
528
 100
AcDbEntity
   8
LEVEL002
 370
30
 100
AcDbLine
   6
CONTINUOUS
  62
7
  10
 67.152510806001
  20
 47.125000000004
  30
0.0
  11
 67.452510806001
  21
 47.125000000004
  31
0.0
   0
LINE
   5
529
 100
AcDbEntity
   8
LEVEL002
 370
30
 100
AcDbLine
   6
CONTINUOUS
  62
7
  10
 67.152510806001
  20
 48.625000000004
  30
0.0
  11
 67.452510806001
  21
 48.625000000004
  31
0.0
   0
LINE
   5
52A
 100
AcDbEntity
   8
LEVEL002
 370
30
 100
AcDbLine
   6
CONTINUOUS
  62
7
  10
 67.152510806001
  20
 48.625000000004
  30
0.0
  11
 67.638445387413
  21
 49.851322788908
  31
0.0
   0
LINE
   5
52B
 100
AcDbEntity
   8
LEVEL002
 370
30
 100
AcDbLine
   6
CONTINUOUS
  62
7
  10
 67.152510806001
  20
 50.125000000004
  30
0.0
  11
 67.638445387413
  21
 51.351322788908
  31
0.0
   0
LINE
   5
52C
 100
AcDbEntity
   8
LEVEL002
 370
30
 100
AcDbLine
   6
CONTINUOUS
  62
7
  10
 67.152510806001
  20
 50.125000000004
  30
0.0
  11
 67.452510806001
  21
 50.125000000004
  31
0.0
   0
LINE
   5
52D
 100
AcDbEntity
   8
LEVEL002
 370
30
 100
AcDbLine
   6
CONTINUOUS
  62
7
  10
 67.752510806001
  20
 54.125000000004
  30
0.0
  11
 67.752510806001
  21
 52.125000000003
  31
0.0
   0
LINE
   5
52E
 100
AcDbEntity
   8
LEVEL002
 370
30
 100
AcDbLine
   6
CONTINUOUS
  62
7
  10
 67.752510806001
  20
 52.125000000003
  30
0.0
  11
 67.152510806001
  21
 51.625000000004
  31
0.0
   0
LINE
   5
52F
 100
AcDbEntity
   8
LEVEL002
 370
30
 100
AcDbLine
   6
CONTINUOUS
  62
7
  10
 67.152510806001
  20
 51.625000000004
  30
0.0
  11
 67.452510806001
  21
 51.625000000004
  31
0.0
   0
LINE
   5
530
 100
AcDbEntity
   8
LEVEL002
 370
30
 100
AcDbLine
   6
CONTINUOUS
  62
7
  10
 66.252510806001
  20
 46.125000000003
  30
0.0
  11
 65.338316696929
  21
 45.489194109074
  31
0.0
   0
LINE
   5
531
 100
AcDbEntity
   8
LEVEL002
 370
30
 100
AcDbLine
   6
CONTINUOUS
  62
7
  10
 67.152510806001
  20
 45.125000000004
  30
0.0
  11
 65.452510806000
  21
 45.125000000004
  31
0.0
   0
ARC
   5
532
 100
AcDbEntity
   8
LEVEL002
 370
30
   6
CONTINUOUS
  62
7
 100
AcDbCircle
  10
 67.452510806001
  20
 51.425000000004
  30
0.0
  40
 0.20000000000000
 100
AcDbArc
  50
 338.38388447004
  51
 90.000000000000
   0
ARC
   5
533
 100
AcDbEntity
   8
LEVEL002
 370
30
   6
CONTINUOUS
  62
7
 100
AcDbCircle
  10
 67.452510806001
  20
 49.925000000004
  30
0.0
  40
 0.20000000000000
 100
AcDbArc
  50
 338.38388447004
  51
 90.000000000000
   0
ARC
   5
534
 100
AcDbEntity
   8
LEVEL002
 370
30
   6
CONTINUOUS
  62
7
 100
AcDbCircle
  10
 67.452510806001
  20
 48.425000000004
  30
0.0
  40
 0.20000000000000
 100
AcDbArc
  50
 338.38388447004
  51
 90.000000000000
   0
ARC
   5
535
 100
AcDbEntity
   8
LEVEL002
 370
30
   6
CONTINUOUS
  62
7
 100
AcDbCircle
  10
 67.452510806001
  20
 46.925000000004
  30
0.0
  40
 0.20000000000000
 100
AcDbArc
  50
 344.24545886501
  51
 90.000000000004
   0
ARC
   5
536
 100
AcDbEntity
   8
LEVEL002
 370
30
   6
CONTINUOUS
  62
7
 100
AcDbCircle
  10
 65.452510806000
  20
 45.325000000004
  30
0.0
  40
 0.20000000000000
 100
AcDbArc
  50
 124.81793259684
  51
 270.00000000000
   0
LINE
   5
537
 100
AcDbEntity
   8
LEVEL002
 370
30
 100
AcDbLine
   6
CONTINUOUS
  62
7
  10
 66.252510806001
  20
 46.125000000003
  30
0.0
  11
 66.252510806001
  21
 49.421598435549
  31
0.0
   0
ARC
   5
538
 100
AcDbEntity
   8
LEVEL002
 370
30
   6
CONTINUOUS
  62
7
 100
AcDbCircle
  10
 65.552510806000
  20
 49.421598435549
  30
0.0
  40
 0.70000000000002
 100
AcDbArc
  50
0.0
  51
 131.46770541611
   0
LINE
   5
539
 100
AcDbEntity
   8
LEVEL002
 370
30
 100
AcDbLine
   6
CONTINUOUS
  62
7
  10
 63.252510806001
  20
 50.325000000003
  30
0.0
  11
 67.552510806000
  21
 54.125000000004
  31
0.0
   0
LINE
   5
53A
 100
AcDbEntity
   8
LEVEL002
 370
30
 100
AcDbLine
   6
CONTINUOUS
  62
7
  10
 58.952510806000
  20
 54.125000000004
  30
0.0
  11
 58.752510806001
  21
 54.125000000004
  31
0.0
   0
LINE
   5
53B
 100
AcDbEntity
   8
LEVEL002
 370
30
 100
AcDbLine
   6
CONTINUOUS
  62
7
  10
 59.352510806001
  20
 45.125000000004
  30
0.0
  11
 58.860024062067
  21
 46.870696653792
  31
0.0
   0
LINE
   5
53C
 100
AcDbEntity
   8
LEVEL002
 370
30
 100
AcDbLine
   6
CONTINUOUS
  62
7
  10
 59.352510806001
  20
 47.125000000004
  30
0.0
  11
 58.866576224587
  21
 48.351322788908
  31
0.0
   0
LINE
   5
53D
 100
AcDbEntity
   8
LEVEL002
 370
30
 100
AcDbLine
   6
CONTINUOUS
  62
7
  10
 59.352510806001
  20
 47.125000000004
  30
0.0
  11
 59.052510806001
  21
 47.125000000004
  31
0.0
   0
LINE
   5
53E
 100
AcDbEntity
   8
LEVEL002
 370
30
 100
AcDbLine
   6
CONTINUOUS
  62
7
  10
 59.352510806001
  20
 48.625000000004
  30
0.0
  11
 59.052510806001
  21
 48.625000000004
  31
0.0
   0
LINE
   5
53F
 100
AcDbEntity
   8
LEVEL002
 370
30
 100
AcDbLine
   6
CONTINUOUS
  62
7
  10
 59.352510806001
  20
 48.625000000004
  30
0.0
  11
 58.866576224587
  21
 49.851322788908
  31
0.0
   0
LINE
   5
540
 100
AcDbEntity
   8
LEVEL002
 370
30
 100
AcDbLine
   6
CONTINUOUS
  62
7
  10
 59.352510806001
  20
 50.125000000004
  30
0.0
  11
 58.866576224587
  21
 51.351322788908
  31
0.0
   0
LINE
   5
541
 100
AcDbEntity
   8
LEVEL002
 370
30
 100
AcDbLine
   6
CONTINUOUS
  62
7
  10
 59.352510806001
  20
 50.125000000004
  30
0.0
  11
 59.052510806001
  21
 50.125000000004
  31
0.0
   0
LINE
   5
542
 100
AcDbEntity
   8
LEVEL002
 370
30
 100
AcDbLine
   6
CONTINUOUS
  62
7
  10
 58.752510806001
  20
 54.125000000004
  30
0.0
  11
 58.752510806001
  21
 52.125000000003
  31
0.0
   0
LINE
   5
543
 100
AcDbEntity
   8
LEVEL002
 370
30
 100
AcDbLine
   6
CONTINUOUS
  62
7
  10
 58.752510806001
  20
 52.125000000003
  30
0.0
  11
 59.352510806001
  21
 51.625000000004
  31
0.0
   0
LINE
   5
544
 100
AcDbEntity
   8
LEVEL002
 370
30
 100
AcDbLine
   6
CONTINUOUS
  62
7
  10
 59.352510806001
  20
 51.625000000004
  30
0.0
  11
 59.052510806001
  21
 51.625000000004
  31
0.0
   0
LINE
   5
545
 100
AcDbEntity
   8
LEVEL002
 370
30
 100
AcDbLine
   6
CONTINUOUS
  62
7
  10
 60.252510806001
  20
 46.125000000003
  30
0.0
  11
 61.166704915071
  21
 45.489194109074
  31
0.0
   0
LINE
   5
546
 100
AcDbEntity
   8
LEVEL002
 370
30
 100
AcDbLine
   6
CONTINUOUS
  62
7
  10
 59.352510806001
  20
 45.125000000004
  30
0.0
  11
 61.052510806000
  21
 45.125000000004
  31
0.0
   0
ARC
   5
547
 100
AcDbEntity
   8
LEVEL002
 370
30
   6
CONTINUOUS
  62
7
 100
AcDbCircle
  10
 59.052510806001
  20
 51.425000000004
  30
0.0
  40
 0.20000000000000
 100
AcDbArc
  50
 90.000000000004
  51
 201.61611552996
   0
ARC
   5
548
 100
AcDbEntity
   8
LEVEL002
 370
30
   6
CONTINUOUS
  62
7
 100
AcDbCircle
  10
 59.052510806001
  20
 49.925000000004
  30
0.0
  40
 0.20000000000000
 100
AcDbArc
  50
 90.000000000004
  51
 201.61611552996
   0
ARC
   5
549
 100
AcDbEntity
   8
LEVEL002
 370
30
   6
CONTINUOUS
  62
7
 100
AcDbCircle
  10
 59.052510806001
  20
 48.425000000004
  30
0.0
  40
 0.20000000000000
 100
AcDbArc
  50
 90.000000000004
  51
 201.61611552996
   0
ARC
   5
54A
 100
AcDbEntity
   8
LEVEL002
 370
30
   6
CONTINUOUS
  62
7
 100
AcDbCircle
  10
 59.052510806001
  20
 46.925000000004
  30
0.0
  40
 0.20000000000000
 100
AcDbArc
  50
 90.000000000002
  51
 195.75454113499
   0
ARC
   5
54B
 100
AcDbEntity
   8
LEVEL002
 370
30
   6
CONTINUOUS
  62
7
 100
AcDbCircle
  10
 61.052510806000
  20
 45.325000000004
  30
0.0
  40
 0.20000000000000
 100
AcDbArc
  50
 270.00000000000
  51
 55.182067403161
   0
LINE
   5
54C
 100
AcDbEntity
   8
LEVEL002
 370
30
 100
AcDbLine
   6
CONTINUOUS
  62
7
  10
 60.252510806001
  20
 46.125000000003
  30
0.0
  11
 60.252510806001
  21
 49.421598435549
  31
0.0
   0
ARC
   5
54D
 100
AcDbEntity
   8
LEVEL002
 370
30
   6
CONTINUOUS
  62
7
 100
AcDbCircle
  10
 60.952510806000
  20
 49.421598435549
  30
0.0
  40
 0.70000000000002
 100
AcDbArc
  50
 48.532294583889
  51
 180.00000000000
   0
LINE
   5
54E
 100
AcDbEntity
   8
LEVEL002
 370
30
 100
AcDbLine
   6
CONTINUOUS
  62
7
  10
 63.252510806001
  20
 50.325000000003
  30
0.0
  11
 58.952510806000
  21
 54.125000000004
  31
0.0
   0
LINE
   5
54F
 100
AcDbEntity
   8
LEVEL002
 370
30
 100
AcDbLine
   6
CONTINUOUS
  62
7
  10
 62.590313009529
  20
 48.908407345434
  30
0.0
  11
 61.416049263531
  21
 49.946128795386
  31
0.0
   0
LINE
   5
550
 100
AcDbEntity
   8
LEVEL002
 370
30
 100
AcDbLine
   6
CONTINUOUS
  62
7
  10
 63.914708602472
  20
 48.908407345434
  30
0.0
  11
 65.088972348470
  21
 49.946128795386
  31
0.0
   0
ARC
   5
551
 100
AcDbEntity
   8
LEVEL002
 370
30
   6
CONTINUOUS
  62
7
 100
AcDbCircle
  10
 63.252510806001
  20
 49.657736430915
  30
0.0
  40
 1.0000000000000
 100
AcDbArc
  50
 228.53229458389
  51
 311.46770541611
   0
LINE
   5
552
 100
AcDbEntity
   8
LEVEL002
 370
15
 100
AcDbLine
   6
DASHDOT
  62
8
  10
 63.252510806001
  20
 44.339398157672
  30
0.0
  11
 63.252510806001
  21
 54.659764290396
  31
0.0
   0
LINE
   5
553
 100
AcDbEntity
   8
LEVEL001
 370
15
 100
AcDbLine
   6
DASHDOT
  62
8
  10
 95.372076023392
  20
 45.006896574717
  30
0.0
  11
 95.372076023392
  21
 50.913837840927
  31
0.0
   0
DIMENSION
   5
554
 100
AcDbEntity
   8
LEVEL001
 370
15
   6
CONTINUOUS
  62
8
 100
AcDbDimension
   2
*D41
  10
 111.37207602339
  20
 50.040677686111
  30
0.0
  11
 111.37207602339
  21
 48.040677686111
  31
0.0
  70
0
   3
GMM001
 100
AcDbAlignedDimension
  13
 108.37207602339
  23
 46.040677686111
  33
0.0
  14
 108.37207602339
  24
 50.040677686111
  34
0.0
  50
 90.000000000000
 100
AcDbRotatedDimension
   0
DIMENSION
   5
555
 100
AcDbEntity
   8
LEVEL001
 370
15
   6
CONTINUOUS
  62
8
 100
AcDbDimension
   2
*D42
  10
 95.372076023392
  20
 53.040677686111
  30
0.0
  11
 91.872076023392
  21
 53.040677686111
  31
0.0
  70
0
   3
GMM001
 100
AcDbAlignedDimension
  13
 88.372076023392
  23
 50.040677686111
  33
0.0
  14
 95.372076023392
  24
 50.913837840927
  34
0.0
 100
AcDbRotatedDimension
   0
DIMENSION
   5
556
 100
AcDbEntity
   8
LEVEL001
 370
15
   6
CONTINUOUS
  62
8
 100
AcDbDimension
   2
*D43
  10
 108.37207602339
  20
 53.040677686111
  30
0.0
  11
 101.87207602339
  21
 53.040677686111
  31
0.0
  70
0
   3
GMM001
 100
AcDbAlignedDimension
  13
 95.372076023392
  23
 50.913837840927
  33
0.0
  14
 108.37207602339
  24
 50.040677686111
  34
0.0
 100
AcDbRotatedDimension
   0
DIMENSION
   5
557
 100
AcDbEntity
   8
LEVEL001
 370
15
   6
CONTINUOUS
  62
8
 100
AcDbDimension
   2
*D44
  10
 108.37207602339
  20
 56.040677686111
  30
0.0
  11
 98.372076023392
  21
 56.040677686111
  31
0.0
  70
0
   3
GMM001
 100
AcDbAlignedDimension
  13
 88.372076023392
  23
 53.040677686111
  33
0.0
  14
 108.37207602339
  24
 53.040677686111
  34
0.0
 100
AcDbRotatedDimension
   0
DIMENSION
   5
558
 100
AcDbEntity
   8
LEVEL001
 370
15
   6
CONTINUOUS
  62
8
 100
AcDbDimension
   2
*D45
  10
 85.872076023392
  20
 50.040677686111
  30
0.0
  11
 85.872076023392
  21
 48.740677686111
  31
0.0
  70
0
   3
GMM001
 100
AcDbAlignedDimension
  13
 95.372076023392
  23
 47.440677686111
  33
0.0
  14
 88.372076023392
  24
 50.040677686111
  34
0.0
  50
 90.000000000000
 100
AcDbRotatedDimension
   0
LINE
   5
559
 100
AcDbEntity
   8
LEVEL001
 370
30
 100
AcDbLine
   6
CONTINUOUS
  62
7
  10
 89.772076023392
  20
 47.040677686111
  30
0.0
  11
 90.686270132463
  21
 46.404871795182
  31
0.0
   0
ARC
   5
55A
 100
AcDbEntity
   8
LEVEL001
 370
30
   6
CONTINUOUS
  62
7
 100
AcDbCircle
  10
 88.572076023392
  20
 46.240677686111
  30
0.0
  40
 0.20000000000000
 100
AcDbArc
  50
 180.00000000000
  51
 270.00000000000
   0
POINT
   5
55B
 100
AcDbEntity
   8
LEVEL001
 100
AcDbPoint
  62
7
  10
 88.372076023392
  20
 46.040677686111
  30
0.0
   0
LINE
   5
55C
 100
AcDbEntity
   8
LEVEL001
 370
30
 100
AcDbLine
   6
CONTINUOUS
  62
7
  10
 88.572076023392
  20
 46.040677686111
  30
0.0
  11
 90.572076023392
  21
 46.040677686111
  31
0.0
   0
LINE
   5
55D
 100
AcDbEntity
   8
LEVEL001
 370
30
 100
AcDbLine
   6
CONTINUOUS
  62
7
  10
 88.372076023392
  20
 48.840677686111
  30
0.0
  11
 88.372076023392
  21
 46.240677686111
  31
0.0
   0
ARC
   5
55E
 100
AcDbEntity
   8
LEVEL001
 370
30
   6
CONTINUOUS
  62
7
 100
AcDbCircle
  10
 89.572076023392
  20
 48.840677686111
  30
0.0
  40
 1.2000000000000
 100
AcDbArc
  50
 90.000000000001
  51
 180.00000000000
   0
POINT
   5
55F
 100
AcDbEntity
   8
LEVEL001
 100
AcDbPoint
  62
7
  10
 88.372076023392
  20
 50.040677686111
  30
0.0
   0
LINE
   5
560
 100
AcDbEntity
   8
LEVEL001
 370
30
 100
AcDbLine
   6
CONTINUOUS
  62
7
  10
 89.772076023392
  20
 47.040677686111
  30
0.0
  11
 89.772076023392
  21
 48.442234797291
  31
0.0
   0
ARC
   5
561
 100
AcDbEntity
   8
LEVEL001
 370
30
   6
CONTINUOUS
  62
7
 100
AcDbCircle
  10
 89.972076023392
  20
 48.442234797291
  30
0.0
  40
 0.20000000000000
 100
AcDbArc
  50
 90.447820489049
  51
 180.00000000000
   0
POINT
   5
562
 100
AcDbEntity
   8
LEVEL001
 100
AcDbPoint
  62
7
  10
 89.772076023392
  20
 48.640677686111
  30
0.0
   0
LINE
   5
563
 100
AcDbEntity
   8
LEVEL001
 370
30
 100
AcDbLine
   6
CONTINUOUS
  62
7
  10
 108.17207602339
  20
 46.040677686111
  30
0.0
  11
 104.37207602339
  21
 46.040677686111
  31
0.0
   0
ARC
   5
564
 100
AcDbEntity
   8
LEVEL001
 370
30
   6
CONTINUOUS
  62
7
 100
AcDbCircle
  10
 108.17207602339
  20
 46.240677686111
  30
0.0
  40
 0.20000000000000
 100
AcDbArc
  50
 270.00000000000
  51
0.0
   0
POINT
   5
565
 100
AcDbEntity
   8
LEVEL001
 100
AcDbPoint
  62
7
  10
 108.37207602339
  20
 46.040677686111
  30
0.0
   0
ARC
   5
566
 100
AcDbEntity
   8
LEVEL001
 370
30
   6
CONTINUOUS
  62
7
 100
AcDbCircle
  10
 107.17207602339
  20
 48.840677686111
  30
0.0
  40
 1.2000000000000
 100
AcDbArc
  50
0.0
  51
 90.000000000000
   0
POINT
   5
567
 100
AcDbEntity
   8
LEVEL001
 100
AcDbPoint
  62
7
  10
 108.37207602339
  20
 50.040677686111
  30
0.0
   0
LINE
   5
568
 100
AcDbEntity
   8
LEVEL001
 370
30
 100
AcDbLine
   6
CONTINUOUS
  62
7
  10
 108.37207602339
  20
 48.840677686111
  30
0.0
  11
 108.37207602339
  21
 46.240677686111
  31
0.0
   0
LINE
   5
569
 100
AcDbEntity
   8
LEVEL001
 370
30
 100
AcDbLine
   6
CONTINUOUS
  62
7
  10
 104.57670910205
  20
 48.260253597805
  30
0.0
  11
 104.28577916158
  21
 48.121101774417
  31
0.0
   0
ARC
   5
56A
 100
AcDbEntity
   8
LEVEL001
 370
30
   6
CONTINUOUS
  62
7
 100
AcDbCircle
  10
 104.49041224024
  20
 48.440677686111
  30
0.0
  40
 0.20000000000000
 100
AcDbArc
  50
 295.56179506056
  51
 89.999999999992
   0
ARC
   5
56B
 100
AcDbEntity
   8
LEVEL001
 370
30
   6
CONTINUOUS
  62
7
 100
AcDbCircle
  10
 105.84558491699
  20
 47.540677686111
  30
0.0
  40
 0.20000000000000
 100
AcDbArc
  50
 299.67493132240
  51
 90.000000000004
   0
LINE
   5
56C
 100
AcDbEntity
   8
LEVEL001
 370
30
 100
AcDbLine
   6
CONTINUOUS
  62
7
  10
 105.84558491699
  20
 47.740677686111
  30
0.0
  11
 104.37207602339
  21
 47.740677686111
  31
0.0
   0
LINE
   5
56D
 100
AcDbEntity
   8
LEVEL001
 370
30
 100
AcDbLine
   6
CONTINUOUS
  62
7
  10
 105.94460063055
  20
 47.366908044152
  30
0.0
  11
 104.27306030982
  21
 46.414447328071
  31
0.0
   0
ARC
   5
56E
 100
AcDbEntity
   8
LEVEL001
 370
30
   6
CONTINUOUS
  62
7
 100
AcDbCircle
  10
 104.37207602339
  20
 46.240677686111
  30
0.0
  40
 0.20000000000000
 100
AcDbArc
  50
 119.67493132239
  51
 270.00000000001
   0
ARC
   5
56F
 100
AcDbEntity
   8
LEVEL001
 370
30
   6
CONTINUOUS
  62
7
 100
AcDbCircle
  10
 104.37207602339
  20
 47.940677686111
  30
0.0
  40
 0.20000000000000
 100
AcDbArc
  50
 115.56179506054
  51
 270.00000000002
   0
LINE
   5
570
 100
AcDbEntity
   8
LEVEL001
 370
30
 100
AcDbLine
   6
CONTINUOUS
  62
7
  10
 101.37207602339
  20
 48.640677686111
  30
0.0
  11
 104.49041224024
  21
 48.640677686111
  31
0.0
   0
LINE
   5
571
 100
AcDbEntity
   8
LEVEL001
 370
30
 100
AcDbLine
   6
CONTINUOUS
  62
7
  10
 101.17207602339
  20
 48.440677686111
  30
0.0
  11
 101.17207602339
  21
 47.740677686111
  31
0.0
   0
LINE
   5
572
 100
AcDbEntity
   8
LEVEL001
 370
30
 100
AcDbLine
   6
CONTINUOUS
  62
7
  10
 101.17207602339
  20
 47.740677686111
  30
0.0
  11
 98.998567129799
  21
 47.740677686111
  31
0.0
   0
LINE
   5
573
 100
AcDbEntity
   8
LEVEL001
 370
30
 100
AcDbLine
   6
CONTINUOUS
  62
7
  10
 98.899551416231
  20
 47.366908044152
  30
0.0
  11
 100.57109173696
  21
 46.414447328071
  31
0.0
   0
ARC
   5
574
 100
AcDbEntity
   8
LEVEL001
 370
30
   6
CONTINUOUS
  62
7
 100
AcDbCircle
  10
 100.47207602339
  20
 46.240677686111
  30
0.0
  40
 0.20000000000000
 100
AcDbArc
  50
 270.00000000000
  51
 60.325068677598
   0
ARC
   5
575
 100
AcDbEntity
   8
LEVEL001
 370
30
   6
CONTINUOUS
  62
7
 100
AcDbCircle
  10
 98.998567129799
  20
 47.540677686111
  30
0.0
  40
 0.20000000000000
 100
AcDbArc
  50
 89.999999999996
  51
 240.32506867760
   0
ARC
   5
576
 100
AcDbEntity
   8
LEVEL001
 370
30
   6
CONTINUOUS
  62
7
 100
AcDbCircle
  10
 101.37207602339
  20
 48.440677686111
  30
0.0
  40
 0.20000000000000
 100
AcDbArc
  50
 90.000000000000
  51
 180.00000000000
   0
LWPOLYLINE
   5
577
 100
AcDbEntity
   8
LEVEL001
 370
30
   6
CONTINUOUS
  62
7
 100
AcDbPolyline
  90
3
  70
0
  10
 95.931268926810
  20
 47.611640113635
  10
 99.532465222815
  20
 50.040677686111
  10
 107.17207602339
  20
 50.040677686111
   0
LWPOLYLINE
   5
578
 100
AcDbEntity
   8
LEVEL001
 370
30
   6
CONTINUOUS
  62
7
 100
AcDbPolyline
  90
3
  70
0
  10
 94.812883120117
  20
 47.611640113538
  10
 91.211686823969
  20
 50.040677686111
  10
 89.572076023392
  20
 50.040677686111
   0
ARC
   5
579
 100
AcDbEntity
   8
LEVEL001
 370
30
   6
CONTINUOUS
  62
7
 100
AcDbCircle
  10
 95.372076023113
  20
 48.440677686300
  30
0.0
  40
 1.0000000000000
 100
AcDbArc
  50
 236.00000002917
  51
 304.00000000724
   0
LWPOLYLINE
   5
57A
 100
AcDbEntity
   8
LEVEL001
 370
30
   6
CONTINUOUS
  62
7
 100
AcDbPolyline
  90
3
  70
0
  10
 89.970512850909
  20
 48.642228688427
  10
 90.772076023392
  20
 48.648493787263
  10
 94.638322388018
  20
 46.040677686111
   0
LINE
   5
57B
 100
AcDbEntity
   8
LEVEL001
 370
30
 100
AcDbLine
   6
CONTINUOUS
  62
7
  10
 94.638322388018
  20
 46.040677686111
  30
0.0
  11
 100.47207602339
  21
 46.040677686111
  31
0.0
   0
ARC
   5
57C
 100
AcDbEntity
   8
LEVEL001
 370
30
   6
CONTINUOUS
  62
7
 100
AcDbCircle
  10
 90.572076023392
  20
 46.240677686111
  30
0.0
  40
 0.20000000000000
 100
AcDbArc
  50
 270.00000000000
  51
 55.182067403158
   0
DIMENSION
   5
57D
 100
AcDbEntity
   8
LEVEL001
 370
15
   6
CONTINUOUS
  62
8
 100
AcDbDimension
   2
*D46
  10
 32.430886092042
  20
 11.000000000005
  30
0.0
  11
 26.330886092042
  21
 11.000000000005
  31
0.0
  70
0
   3
GMM001
 100
AcDbAlignedDimension
  13
 20.230886092042
  23
 25.200000000005
  33
0.0
  14
 32.430886092042
  24
 25.200000000005
  34
0.0
 100
AcDbRotatedDimension
   0
DIMENSION
   5
57E
 100
AcDbEntity
   8
LEVEL001
 370
15
   6
CONTINUOUS
  62
8
 100
AcDbDimension
   2
*D47
  10
 34.430886092042
  20
 30.000000000005
  30
0.0
  11
 26.330886092042
  21
 30.000000000005
  31
0.0
  70
0
   3
GMM001
 100
AcDbAlignedDimension
  13
 18.230886092042
  23
 26.034748488215
  33
0.0
  14
 34.430886092042
  24
 26.124247598309
  34
0.0
 100
AcDbRotatedDimension
   0
DIMENSION
   5
57F
 100
AcDbEntity
   8
LEVEL001
 370
15
   6
CONTINUOUS
  62
8
 100
AcDbDimension
   2
*D48
  10
 39.430886092042
  20
 27.000000000005
  30
0.0
  11
 39.430886092042
  21
 20.500000000005
  31
0.0
  70
0
   3
GMM001
 100
AcDbAlignedDimension
  13
 36.930886092042
  23
 14.000000000005
  33
0.0
  14
 36.930886092042
  24
 27.000000000005
  34
0.0
  50
 90.000000000000
 100
AcDbRotatedDimension
   0
DIMENSION
   5
580
 100
AcDbEntity
   8
LEVEL001
 370
15
   6
CONTINUOUS
  62
8
 100
AcDbDimension
   2
*D49
  10
 36.930886092042
  20
 26.000000000005
  30
0.0
  11
 36.930886092042
  21
 20.000000000005
  31
0.0
  70
0
   3
GMM001
 100
AcDbAlignedDimension
  13
 31.580886092042
  23
 14.000000000005
  33
0.0
  14
 34.130886092041
  24
 26.000000000005
  34
0.0
  50
 90.000000000000
 100
AcDbRotatedDimension
   0
DIMENSION
   5
581
 100
AcDbEntity
   8
LEVEL001
 370
15
   6
CONTINUOUS
  62
8
 100
AcDbDimension
   2
*D50
  10
 36.930886092042
  20
 27.000000000005
  30
0.0
  11
 36.930886092042
  21
 27.839647208446
  31
0.0
  70
128
   3
GMM005
 100
AcDbAlignedDimension
  13
 34.130886092041
  23
 26.000000000005
  33
0.0
  14
 32.630886092041
  24
 27.000000000005
  34
0.0
  50
 90.000000000000
 100
AcDbRotatedDimension
   0
DIMENSION
   5
582
 100
AcDbEntity
   8
LEVEL001
 370
15
   6
CONTINUOUS
  62
8
 100
AcDbDimension
   2
*D51
  10
 15.730886092042
  20
 27.000000000005
  30
0.0
  11
 15.730886092042
  21
 25.200000000005
  31
0.0
  70
0
   3
GMM001
 100
AcDbAlignedDimension
  13
 26.330886092042
  23
 23.400000000005
  33
0.0
  14
 20.230886092042
  24
 27.000000000005
  34
0.0
  50
 90.000000000000
 100
AcDbRotatedDimension
   0
LINE
   5
583
 100
AcDbEntity
   8
LEVEL002
 370
15
 100
AcDbLine
   6
DASHDOT
  62
8
  10
 26.330886092042
  20
 28.018645428634
  30
0.0
  11
 26.330886092042
  21
 13.083481431684
  31
0.0
   0
LINE
   5
584
 100
AcDbEntity
   8
LEVEL002
 370
30
 100
AcDbLine
   6
CONTINUOUS
  62
7
  10
 21.080886092042
  20
 14.000000000005
  30
0.0
  11
 20.480886092042
  21
 15.700000000005
  31
0.0
   0
LINE
   5
585
 100
AcDbEntity
   8
LEVEL002
 370
30
 100
AcDbLine
   6
CONTINUOUS
  62
7
  10
 20.480886092042
  20
 15.700000000005
  30
0.0
  11
 21.080886092042
  21
 15.700000000005
  31
0.0
   0
LINE
   5
586
 100
AcDbEntity
   8
LEVEL002
 370
30
 100
AcDbLine
   6
CONTINUOUS
  62
7
  10
 21.080886092042
  20
 15.700000000005
  30
0.0
  11
 20.480886092042
  21
 17.200000000005
  31
0.0
   0
LINE
   5
587
 100
AcDbEntity
   8
LEVEL002
 370
30
 100
AcDbLine
   6
CONTINUOUS
  62
7
  10
 20.480886092042
  20
 17.200000000005
  30
0.0
  11
 21.080886092042
  21
 17.200000000005
  31
0.0
   0
LINE
   5
588
 100
AcDbEntity
   8
LEVEL002
 370
30
 100
AcDbLine
   6
CONTINUOUS
  62
7
  10
 21.080886092042
  20
 17.200000000005
  30
0.0
  11
 20.480886092042
  21
 18.700000000005
  31
0.0
   0
LINE
   5
589
 100
AcDbEntity
   8
LEVEL002
 370
30
 100
AcDbLine
   6
CONTINUOUS
  62
7
  10
 20.480886092042
  20
 18.700000000005
  30
0.0
  11
 21.080886092042
  21
 18.700000000005
  31
0.0
   0
LINE
   5
58A
 100
AcDbEntity
   8
LEVEL002
 370
30
 100
AcDbLine
   6
CONTINUOUS
  62
7
  10
 21.080886092042
  20
 18.700000000005
  30
0.0
  11
 20.480886092042
  21
 20.200000000005
  31
0.0
   0
LINE
   5
58B
 100
AcDbEntity
   8
LEVEL002
 370
30
 100
AcDbLine
   6
CONTINUOUS
  62
7
  10
 20.480886092042
  20
 20.200000000005
  30
0.0
  11
 21.080886092042
  21
 20.200000000005
  31
0.0
   0
LINE
   5
58C
 100
AcDbEntity
   8
LEVEL002
 370
30
 100
AcDbLine
   6
CONTINUOUS
  62
7
  10
 21.080886092042
  20
 20.200000000005
  30
0.0
  11
 20.480886092042
  21
 21.700000000005
  31
0.0
   0
LINE
   5
58D
 100
AcDbEntity
   8
LEVEL002
 370
30
 100
AcDbLine
   6
CONTINUOUS
  62
7
  10
 20.480886092042
  20
 21.700000000005
  30
0.0
  11
 21.080886092042
  21
 21.700000000005
  31
0.0
   0
LINE
   5
58E
 100
AcDbEntity
   8
LEVEL002
 370
30
 100
AcDbLine
   6
CONTINUOUS
  62
7
  10
 21.080886092042
  20
 21.700000000005
  30
0.0
  11
 20.380886092042
  21
 23.200000000005
  31
0.0
   0
LINE
   5
58F
 100
AcDbEntity
   8
LEVEL002
 370
30
 100
AcDbLine
   6
CONTINUOUS
  62
7
  10
 20.380886092042
  20
 23.200000000005
  30
0.0
  11
 20.380886092042
  21
 24.200000000005
  31
0.0
   0
ARC
   5
590
 100
AcDbEntity
   8
LEVEL002
 370
30
   6
CONTINUOUS
  62
7
 100
AcDbCircle
  10
 21.578613028763
  20
 17.091234582253
  30
0.0
  40
 10.000000000000
 100
AcDbArc
  50
 97.745476075010
  51
 108.31244400944
   0
LINE
   5
591
 100
AcDbEntity
   8
LEVEL002
 370
30
 100
AcDbLine
   6
CONTINUOUS
  62
7
  10
 20.230886092042
  20
 26.000000000005
  30
0.0
  11
 18.530886092042
  21
 26.000000000005
  31
0.0
   0
ARC
   5
592
 100
AcDbEntity
   8
LEVEL002
 370
30
   6
CONTINUOUS
  62
7
 100
AcDbCircle
  10
 18.530886092041
  20
 26.300000000005
  30
0.0
  40
 0.30000000000000
 100
AcDbArc
  50
 108.31244400942
  51
 270.00000000002
   0
LINE
   5
593
 100
AcDbEntity
   8
LEVEL002
 370
30
 100
AcDbLine
   6
CONTINUOUS
  62
7
  10
 20.230886092042
  20
 25.200000000005
  30
0.0
  11
 20.230886092042
  21
 26.000000000005
  31
0.0
   0
LINE
   5
594
 100
AcDbEntity
   8
LEVEL002
 370
30
 100
AcDbLine
   6
CONTINUOUS
  62
7
  10
 20.380886092042
  20
 24.200000000005
  30
0.0
  11
 21.530886092042
  21
 24.700000000005
  31
0.0
   0
LINE
   5
595
 100
AcDbEntity
   8
LEVEL002
 370
30
 100
AcDbLine
   6
CONTINUOUS
  62
7
  10
 21.530886092042
  20
 24.700000000005
  30
0.0
  11
 20.230886092042
  21
 25.200000000005
  31
0.0
   0
ARC
   5
596
 100
AcDbEntity
   8
LEVEL002
 370
30
   6
CONTINUOUS
  62
7
 100
AcDbCircle
  10
 23.330886092042
  20
 21.500000000005
  30
0.0
  40
 1.3000000000000
 100
AcDbArc
  50
0.0
  51
 180.00000000000
   0
LINE
   5
597
 100
AcDbEntity
   8
LEVEL002
 370
30
 100
AcDbLine
   6
CONTINUOUS
  62
7
  10
 24.630886092042
  20
 21.500000000005
  30
0.0
  11
 26.330886092042
  21
 21.500000000005
  31
0.0
   0
ARC
   5
598
 100
AcDbEntity
   8
LEVEL002
 370
30
   6
CONTINUOUS
  62
7
 100
AcDbCircle
  10
 29.330886092042
  20
 21.500000000005
  30
0.0
  40
 1.3000000000000
 100
AcDbArc
  50
0.0
  51
 180.00000000000
   0
LINE
   5
599
 100
AcDbEntity
   8
LEVEL002
 370
30
 100
AcDbLine
   6
CONTINUOUS
  62
7
  10
 28.030886092042
  20
 21.500000000005
  30
0.0
  11
 26.330886092042
  21
 21.500000000005
  31
0.0
   0
ARC
   5
59A
 100
AcDbEntity
   8
LEVEL002
 370
30
   6
CONTINUOUS
  62
7
 100
AcDbCircle
  10
 22.880886092042
  20
 14.500000000005
  30
0.0
  40
 1.0000000000000
 100
AcDbArc
  50
 330.00000000000
  51
 89.999999999999
   0
LINE
   5
59B
 100
AcDbEntity
   8
LEVEL002
 370
30
 100
AcDbLine
   6
CONTINUOUS
  62
7
  10
 21.080886092042
  20
 14.000000000005
  30
0.0
  11
 23.746911495826
  21
 14.000000000005
  31
0.0
   0
LINE
   5
59C
 100
AcDbEntity
   8
LEVEL002
 370
30
 100
AcDbLine
   6
CONTINUOUS
  62
7
  10
 22.880886092042
  20
 15.500000000005
  30
0.0
  11
 22.030886092042
  21
 15.500000000005
  31
0.0
   0
LINE
   5
59D
 100
AcDbEntity
   8
LEVEL002
 370
30
 100
AcDbLine
   6
CONTINUOUS
  62
7
  10
 22.030886092042
  20
 15.500000000005
  30
0.0
  11
 22.030886092042
  21
 21.500000000005
  31
0.0
   0
ARC
   5
59E
 100
AcDbEntity
   8
LEVEL002
 370
30
   6
CONTINUOUS
  62
7
 100
AcDbCircle
  10
 31.083159155320
  20
 17.091234582253
  30
0.0
  40
 10.000000000000
 100
AcDbArc
  50
 71.687555990560
  51
 82.254523924991
   0
LINE
   5
59F
 100
AcDbEntity
   8
LEVEL002
 370
30
 100
AcDbLine
   6
CONTINUOUS
  62
7
  10
 32.430886092042
  20
 26.000000000005
  30
0.0
  11
 34.130886092042
  21
 26.000000000005
  31
0.0
   0
ARC
   5
5A0
 100
AcDbEntity
   8
LEVEL002
 370
30
   6
CONTINUOUS
  62
7
 100
AcDbCircle
  10
 34.130886092042
  20
 26.300000000005
  30
0.0
  40
 0.30000000000000
 100
AcDbArc
  50
 269.99999999989
  51
 71.687555990662
   0
LINE
   5
5A1
 100
AcDbEntity
   8
LEVEL002
 370
30
 100
AcDbLine
   6
CONTINUOUS
  62
7
  10
 32.430886092042
  20
 25.200000000005
  30
0.0
  11
 32.430886092042
  21
 26.000000000005
  31
0.0
   0
LINE
   5
5A2
 100
AcDbEntity
   8
LEVEL002
 370
30
 100
AcDbLine
   6
CONTINUOUS
  62
7
  10
 32.280886092042
  20
 24.200000000005
  30
0.0
  11
 31.130886092042
  21
 24.700000000005
  31
0.0
   0
LINE
   5
5A3
 100
AcDbEntity
   8
LEVEL002
 370
30
 100
AcDbLine
   6
CONTINUOUS
  62
7
  10
 31.130886092042
  20
 24.700000000005
  30
0.0
  11
 32.430886092042
  21
 25.200000000005
  31
0.0
   0
LINE
   5
5A4
 100
AcDbEntity
   8
LEVEL002
 370
30
 100
AcDbLine
   6
CONTINUOUS
  62
7
  10
 31.580886092042
  20
 14.000000000005
  30
0.0
  11
 32.180886092042
  21
 15.700000000005
  31
0.0
   0
LINE
   5
5A5
 100
AcDbEntity
   8
LEVEL002
 370
30
 100
AcDbLine
   6
CONTINUOUS
  62
7
  10
 32.180886092042
  20
 15.700000000005
  30
0.0
  11
 31.580886092042
  21
 15.700000000005
  31
0.0
   0
LINE
   5
5A6
 100
AcDbEntity
   8
LEVEL002
 370
30
 100
AcDbLine
   6
CONTINUOUS
  62
7
  10
 31.580886092042
  20
 15.700000000005
  30
0.0
  11
 32.180886092042
  21
 17.200000000005
  31
0.0
   0
LINE
   5
5A7
 100
AcDbEntity
   8
LEVEL002
 370
30
 100
AcDbLine
   6
CONTINUOUS
  62
7
  10
 32.180886092042
  20
 17.200000000005
  30
0.0
  11
 31.580886092042
  21
 17.200000000005
  31
0.0
   0
LINE
   5
5A8
 100
AcDbEntity
   8
LEVEL002
 370
30
 100
AcDbLine
   6
CONTINUOUS
  62
7
  10
 31.580886092042
  20
 17.200000000005
  30
0.0
  11
 32.180886092042
  21
 18.700000000005
  31
0.0
   0
LINE
   5
5A9
 100
AcDbEntity
   8
LEVEL002
 370
30
 100
AcDbLine
   6
CONTINUOUS
  62
7
  10
 32.180886092042
  20
 18.700000000005
  30
0.0
  11
 31.580886092042
  21
 18.700000000005
  31
0.0
   0
LINE
   5
5AA
 100
AcDbEntity
   8
LEVEL002
 370
30
 100
AcDbLine
   6
CONTINUOUS
  62
7
  10
 31.580886092042
  20
 18.700000000005
  30
0.0
  11
 32.180886092042
  21
 20.200000000005
  31
0.0
   0
LINE
   5
5AB
 100
AcDbEntity
   8
LEVEL002
 370
30
 100
AcDbLine
   6
CONTINUOUS
  62
7
  10
 32.180886092042
  20
 20.200000000005
  30
0.0
  11
 31.580886092042
  21
 20.200000000005
  31
0.0
   0
LINE
   5
5AC
 100
AcDbEntity
   8
LEVEL002
 370
30
 100
AcDbLine
   6
CONTINUOUS
  62
7
  10
 31.580886092042
  20
 20.200000000005
  30
0.0
  11
 32.180886092042
  21
 21.700000000005
  31
0.0
   0
LINE
   5
5AD
 100
AcDbEntity
   8
LEVEL002
 370
30
 100
AcDbLine
   6
CONTINUOUS
  62
7
  10
 32.180886092042
  20
 21.700000000005
  30
0.0
  11
 31.580886092042
  21
 21.700000000005
  31
0.0
   0
LINE
   5
5AE
 100
AcDbEntity
   8
LEVEL002
 370
30
 100
AcDbLine
   6
CONTINUOUS
  62
7
  10
 31.580886092042
  20
 21.700000000005
  30
0.0
  11
 32.280886092042
  21
 23.200000000005
  31
0.0
   0
LINE
   5
5AF
 100
AcDbEntity
   8
LEVEL002
 370
30
 100
AcDbLine
   6
CONTINUOUS
  62
7
  10
 32.280886092042
  20
 23.200000000005
  30
0.0
  11
 32.280886092042
  21
 24.200000000005
  31
0.0
   0
LINE
   5
5B0
 100
AcDbEntity
   8
LEVEL002
 370
30
 100
AcDbLine
   6
CONTINUOUS
  62
7
  10
 31.580886092042
  20
 14.000000000005
  30
0.0
  11
 28.914860688257
  21
 14.000000000005
  31
0.0
   0
ARC
   5
5B1
 100
AcDbEntity
   8
LEVEL002
 370
30
   6
CONTINUOUS
  62
7
 100
AcDbCircle
  10
 29.780886092042
  20
 14.500000000005
  30
0.0
  40
 1.0000000000000
 100
AcDbArc
  50
 90.000000000002
  51
 210.00000000000
   0
LINE
   5
5B2
 100
AcDbEntity
   8
LEVEL002
 370
30
 100
AcDbLine
   6
CONTINUOUS
  62
7
  10
 29.780886092042
  20
 15.500000000005
  30
0.0
  11
 30.630886092042
  21
 15.500000000005
  31
0.0
   0
LINE
   5
5B3
 100
AcDbEntity
   8
LEVEL002
 370
30
 100
AcDbLine
   6
CONTINUOUS
  62
7
  10
 30.630886092042
  20
 15.500000000005
  30
0.0
  11
 30.630886092042
  21
 21.500000000005
  31
0.0
   0
LINE
   5
5B4
 100
AcDbEntity
   8
LEVEL002
 370
30
 100
AcDbLine
   6
CONTINUOUS
  62
7
  10
 31.130886092042
  20
 27.000000000005
  30
0.0
  11
 26.330886092042
  21
 23.400000000005
  31
0.0
   0
LINE
   5
5B5
 100
AcDbEntity
   8
LEVEL002
 370
30
 100
AcDbLine
   6
CONTINUOUS
  62
7
  10
 32.430886092041
  20
 27.000000000005
  30
0.0
  11
 31.130886092042
  21
 27.000000000005
  31
0.0
   0
LINE
   5
5B6
 100
AcDbEntity
   8
LEVEL002
 370
30
 100
AcDbLine
   6
CONTINUOUS
  62
7
  10
 21.530886092042
  20
 27.000000000005
  30
0.0
  11
 26.330886092042
  21
 23.400000000005
  31
0.0
   0
LINE
   5
5B7
 100
AcDbEntity
   8
LEVEL002
 370
30
 100
AcDbLine
   6
CONTINUOUS
  62
7
  10
 20.230886092042
  20
 27.000000000005
  30
0.0
  11
 21.530886092042
  21
 27.000000000005
  31
0.0
   0
MTEXT
   5
5B9
 100
AcDbEntity
   8
LEVEL001
 370
15
  62
8
 100
AcDbMText
  10
 44.024999999975
  20
 37.625000000004
  30
0.0
  40
 1.5000000000000
  41
0.0
  71
4
  72
1
   1
\W0.500000;\T1.000000; \W1.000000;\T1.000000;　ＦＲＢ２４
   7
GMM002
  44
 0.79999984000003
   0
MTEXT
   5
5BB
 100
AcDbEntity
   8
LEVEL001
 370
15
  62
8
 100
AcDbMText
  10
 70.849999999975
  20
 37.625000000004
  30
0.0
  40
 1.5000000000000
  41
0.0
  71
4
  72
1
   1
\W0.500000;\T1.000000;(\W1.000000;\T1.000000;Ｓ＝１／１\W0.500000;\T1.000000;)
   7
GMM002
  44
 0.79999984000003
   0
MTEXT
   5
5BD
 100
AcDbEntity
   8
LEVEL002
 370
15
  62
8
 100
AcDbMText
  10
 159.74999999997
  20
 103.95833333335
  30
0.0
  40
 1.7500000000000
  41
0.0
  71
1
  72
1
   3
{\W1.000000;\T1.000000;材質：真鍮}\P\P{\W1.000000;\T1.000000;　色：ゴールド}\P\P{\W1.000000;\T1.000000;長さ（定尺）：１８３０\W0.500000;\T1.000000;mm}\P{\W1.000000;\T1.000000;　　　　　　　２７４０\W0.500000;\T1.000000;mm}\P{\W1.000000;\T1.000000;　
   3
　　　　　　３６６０\W0.500000;\T1.000000;mm}\P{\W1.000000;\T1.000000;　　　　　　　２０１０\W0.500000;\T1.000000;mm}\P{\W1.000000;\T1.000000;　　　　　　　３０１０\W0.500000;\T1.000000;mm}\P{\W1.000000;\T1.000000;　　　　　　　４０２０\W0.500000;\T1
   3
.000000;mm}\P\P{\W1.000000;\T1.000000;※ＦＲＢ２４のみ}\P{\W1.000000;\T1.000000;長さ（定尺）：２０１０\W0.500000;\T1.000000;mm}\P{\W1.000000;\T1.000000;　　　　　　　３０１０\W0.500000;\T1.000000;mm}\P{\W1.000000;\T1.000000;　　　　　　　４０２０\W0.
   1
500000;\T1.000000;mm}
   7
GMM002
  44
 0.79999984000003
   0
DIMENSION
   5
5BE
 100
AcDbEntity
   8
LEVEL001
 370
15
   6
CONTINUOUS
  62
8
 100
AcDbDimension
   2
*D52
  10
 69.226115560641
  20
 29.526887871851
  30
0.0
  11
 63.226115560641
  21
 29.526887871851
  31
0.0
  70
0
   1
\A1;24
   3
GMM006
 100
AcDbAlignedDimension
  13
 57.226115560641
  23
 26.526887871851
  33
0.0
  14
 69.226115560641
  24
 26.526887871851
  34
0.0
 100
AcDbRotatedDimension
   0
DIMENSION
   5
5BF
 100
AcDbEntity
   8
LEVEL001
 370
15
   6
CONTINUOUS
  62
8
 100
AcDbDimension
   2
*D53
  10
 54.726115560641
  20
 26.526887871851
  30
0.0
  11
 54.726115560641
  21
 25.011343415227
  31
0.0
  70
0
   1
\A1;6
   3
GMM006
 100
AcDbAlignedDimension
  13
 63.226115560639
  23
 23.495798958602
  33
0.0
  14
 57.226115560641
  24
 26.526887871851
  34
0.0
  50
 90.000000000000
 100
AcDbRotatedDimension
   0
DIMENSION
   5
5C0
 100
AcDbEntity
   8
LEVEL001
 370
15
   6
CONTINUOUS
  62
8
 100
AcDbDimension
   2
*D54
  10
 72.226115560641
  20
 26.526887871851
  30
0.0
  11
 72.226115560641
  21
 20.276887871852
  31
0.0
  70
0
   1
\A1;25
   3
GMM006
 100
AcDbAlignedDimension
  13
 68.476115560641
  23
 14.026887871853
  33
0.0
  14
 69.226115560641
  24
 26.526887871851
  34
0.0
  50
 90.000000000000
 100
AcDbRotatedDimension
   0
LINE
   5
5C1
 100
AcDbEntity
   8
LEVEL002
 370
30
 100
AcDbLine
   6
CONTINUOUS
  62
7
  10
 57.226115560641
  20
 24.026887871851
  30
0.0
  11
 58.226115560641
  21
 23.401887871853
  31
0.0
   0
LINE
   5
5C2
 100
AcDbEntity
   8
LEVEL002
 370
30
 100
AcDbLine
   6
CONTINUOUS
  62
7
  10
 58.226115560641
  20
 23.401887871853
  30
0.0
  11
 57.226115560641
  21
 22.776887871853
  31
0.0
   0
LINE
   5
5C3
 100
AcDbEntity
   8
LEVEL002
 370
30
 100
AcDbLine
   6
CONTINUOUS
  62
7
  10
 57.226115560641
  20
 21.776887871853
  30
0.0
  11
 58.226115560641
  21
 20.526887871853
  31
0.0
   0
LINE
   5
5C4
 100
AcDbEntity
   8
LEVEL002
 370
30
 100
AcDbLine
   6
CONTINUOUS
  62
7
  10
 58.226115560641
  20
 20.526887871853
  30
0.0
  11
 57.276115560641
  21
 20.526887871853
  31
0.0
   0
LINE
   5
5C5
 100
AcDbEntity
   8
LEVEL002
 370
30
 100
AcDbLine
   6
CONTINUOUS
  62
7
  10
 57.276115560641
  20
 20.526887871853
  30
0.0
  11
 58.226115560641
  21
 19.276887871853
  31
0.0
   0
LINE
   5
5C6
 100
AcDbEntity
   8
LEVEL002
 370
30
 100
AcDbLine
   6
CONTINUOUS
  62
7
  10
 58.226115560641
  20
 19.276887871853
  30
0.0
  11
 57.276115560641
  21
 19.276887871853
  31
0.0
   0
LINE
   5
5C7
 100
AcDbEntity
   8
LEVEL002
 370
30
 100
AcDbLine
   6
CONTINUOUS
  62
7
  10
 57.276115560641
  20
 19.276887871853
  30
0.0
  11
 58.226115560641
  21
 18.026887871853
  31
0.0
   0
LINE
   5
5C8
 100
AcDbEntity
   8
LEVEL002
 370
30
 100
AcDbLine
   6
CONTINUOUS
  62
7
  10
 58.226115560641
  20
 18.026887871853
  30
0.0
  11
 57.276115560641
  21
 18.026887871853
  31
0.0
   0
LINE
   5
5C9
 100
AcDbEntity
   8
LEVEL002
 370
30
 100
AcDbLine
   6
CONTINUOUS
  62
7
  10
 57.276115560641
  20
 18.026887871853
  30
0.0
  11
 58.226115560641
  21
 16.776887871853
  31
0.0
   0
LINE
   5
5CA
 100
AcDbEntity
   8
LEVEL002
 370
30
 100
AcDbLine
   6
CONTINUOUS
  62
7
  10
 58.226115560641
  20
 16.776887871853
  30
0.0
  11
 57.276115560641
  21
 16.776887871853
  31
0.0
   0
LINE
   5
5CB
 100
AcDbEntity
   8
LEVEL002
 370
30
 100
AcDbLine
   6
CONTINUOUS
  62
7
  10
 57.276115560641
  20
 16.776887871853
  30
0.0
  11
 58.226115560641
  21
 15.526887871853
  31
0.0
   0
LINE
   5
5CC
 100
AcDbEntity
   8
LEVEL002
 370
30
 100
AcDbLine
   6
CONTINUOUS
  62
7
  10
 58.226115560641
  20
 15.526887871853
  30
0.0
  11
 57.276115560641
  21
 15.526887871853
  31
0.0
   0
LINE
   5
5CD
 100
AcDbEntity
   8
LEVEL002
 370
30
 100
AcDbLine
   6
CONTINUOUS
  62
7
  10
 57.276115560641
  20
 15.526887871853
  30
0.0
  11
 58.226115560641
  21
 14.026887871853
  31
0.0
   0
LINE
   5
5CE
 100
AcDbEntity
   8
LEVEL002
 370
30
 100
AcDbLine
   6
CONTINUOUS
  62
7
  10
 58.226115560641
  20
 14.026887871853
  30
0.0
  11
 60.726115560641
  21
 14.026887871853
  31
0.0
   0
LINE
   5
5CF
 100
AcDbEntity
   8
LEVEL002
 370
30
 100
AcDbLine
   6
CONTINUOUS
  62
7
  10
 60.726115560641
  20
 14.026887871853
  30
0.0
  11
 60.726115560641
  21
 15.026887871853
  31
0.0
   0
LINE
   5
5D0
 100
AcDbEntity
   8
LEVEL002
 370
30
 100
AcDbLine
   6
CONTINUOUS
  62
7
  10
 60.726115560641
  20
 15.026887871853
  30
0.0
  11
 59.476115560641
  21
 15.026887871853
  31
0.0
   0
LINE
   5
5D1
 100
AcDbEntity
   8
LEVEL002
 370
30
 100
AcDbLine
   6
CONTINUOUS
  62
7
  10
 69.226115560641
  20
 26.526887871851
  30
0.0
  11
 69.226115560641
  21
 24.026887871851
  31
0.0
   0
LINE
   5
5D2
 100
AcDbEntity
   8
LEVEL002
 370
30
 100
AcDbLine
   6
CONTINUOUS
  62
7
  10
 69.226115560641
  20
 24.026887871851
  30
0.0
  11
 68.226115560641
  21
 23.401887871853
  31
0.0
   0
LINE
   5
5D3
 100
AcDbEntity
   8
LEVEL002
 370
30
 100
AcDbLine
   6
CONTINUOUS
  62
7
  10
 68.226115560641
  20
 23.401887871853
  30
0.0
  11
 69.226115560641
  21
 22.776887871853
  31
0.0
   0
LINE
   5
5D4
 100
AcDbEntity
   8
LEVEL002
 370
30
 100
AcDbLine
   6
CONTINUOUS
  62
7
  10
 69.226115560641
  20
 22.776887871853
  30
0.0
  11
 69.226115560641
  21
 21.776887871853
  31
0.0
   0
LINE
   5
5D5
 100
AcDbEntity
   8
LEVEL002
 370
30
 100
AcDbLine
   6
CONTINUOUS
  62
7
  10
 69.226115560641
  20
 21.776887871853
  30
0.0
  11
 68.226115560641
  21
 20.526887871853
  31
0.0
   0
LINE
   5
5D6
 100
AcDbEntity
   8
LEVEL002
 370
30
 100
AcDbLine
   6
CONTINUOUS
  62
7
  10
 68.226115560641
  20
 20.526887871853
  30
0.0
  11
 69.176115560641
  21
 20.526887871853
  31
0.0
   0
LINE
   5
5D7
 100
AcDbEntity
   8
LEVEL002
 370
30
 100
AcDbLine
   6
CONTINUOUS
  62
7
  10
 69.176115560641
  20
 20.526887871853
  30
0.0
  11
 68.226115560641
  21
 19.276887871853
  31
0.0
   0
LINE
   5
5D8
 100
AcDbEntity
   8
LEVEL002
 370
30
 100
AcDbLine
   6
CONTINUOUS
  62
7
  10
 68.226115560641
  20
 19.276887871853
  30
0.0
  11
 69.176115560641
  21
 19.276887871853
  31
0.0
   0
LINE
   5
5D9
 100
AcDbEntity
   8
LEVEL002
 370
30
 100
AcDbLine
   6
CONTINUOUS
  62
7
  10
 69.176115560641
  20
 19.276887871853
  30
0.0
  11
 68.226115560641
  21
 18.026887871853
  31
0.0
   0
LINE
   5
5DA
 100
AcDbEntity
   8
LEVEL002
 370
30
 100
AcDbLine
   6
CONTINUOUS
  62
7
  10
 68.226115560641
  20
 18.026887871853
  30
0.0
  11
 69.176115560641
  21
 18.026887871853
  31
0.0
   0
LINE
   5
5DB
 100
AcDbEntity
   8
LEVEL002
 370
30
 100
AcDbLine
   6
CONTINUOUS
  62
7
  10
 69.176115560641
  20
 18.026887871853
  30
0.0
  11
 68.226115560641
  21
 16.776887871853
  31
0.0
   0
LINE
   5
5DC
 100
AcDbEntity
   8
LEVEL002
 370
30
 100
AcDbLine
   6
CONTINUOUS
  62
7
  10
 68.226115560641
  20
 16.776887871853
  30
0.0
  11
 69.176115560641
  21
 16.776887871853
  31
0.0
   0
LINE
   5
5DD
 100
AcDbEntity
   8
LEVEL002
 370
30
 100
AcDbLine
   6
CONTINUOUS
  62
7
  10
 69.176115560641
  20
 16.776887871853
  30
0.0
  11
 68.226115560641
  21
 15.526887871853
  31
0.0
   0
LINE
   5
5DE
 100
AcDbEntity
   8
LEVEL002
 370
30
 100
AcDbLine
   6
CONTINUOUS
  62
7
  10
 68.226115560641
  20
 15.526887871853
  30
0.0
  11
 69.176115560641
  21
 15.526887871853
  31
0.0
   0
LINE
   5
5DF
 100
AcDbEntity
   8
LEVEL002
 370
30
 100
AcDbLine
   6
CONTINUOUS
  62
7
  10
 69.176115560641
  20
 15.526887871853
  30
0.0
  11
 68.226115560641
  21
 14.026887871853
  31
0.0
   0
LINE
   5
5E0
 100
AcDbEntity
   8
LEVEL002
 370
30
 100
AcDbLine
   6
CONTINUOUS
  62
7
  10
 68.226115560641
  20
 14.026887871853
  30
0.0
  11
 65.726115560641
  21
 14.026887871853
  31
0.0
   0
LINE
   5
5E1
 100
AcDbEntity
   8
LEVEL002
 370
30
 100
AcDbLine
   6
CONTINUOUS
  62
7
  10
 65.726115560641
  20
 14.026887871853
  30
0.0
  11
 65.726115560641
  21
 15.026887871853
  31
0.0
   0
LINE
   5
5E2
 100
AcDbEntity
   8
LEVEL002
 370
30
 100
AcDbLine
   6
CONTINUOUS
  62
7
  10
 65.726115560641
  20
 15.026887871853
  30
0.0
  11
 66.976115560641
  21
 15.026887871853
  31
0.0
   0
LINE
   5
5E3
 100
AcDbEntity
   8
LEVEL002
 370
30
 100
AcDbLine
   6
CONTINUOUS
  62
7
  10
 57.226115560641
  20
 26.526887871851
  30
0.0
  11
 57.976115560641
  21
 26.526887871851
  31
0.0
   0
LINE
   5
5E4
 100
AcDbEntity
   8
LEVEL002
 370
30
 100
AcDbLine
   6
CONTINUOUS
  62
7
  10
 69.226115560641
  20
 26.526887871851
  30
0.0
  11
 68.476115560641
  21
 26.526887871851
  31
0.0
   0
LINE
   5
5E5
 100
AcDbEntity
   8
LEVEL002
 370
30
 100
AcDbLine
   6
CONTINUOUS
  62
7
  10
 59.476115560641
  20
 15.026887871853
  30
0.0
  11
 59.476115560641
  21
 21.013192801087
  31
0.0
   0
LINE
   5
5E6
 100
AcDbEntity
   8
LEVEL002
 370
30
 100
AcDbLine
   6
CONTINUOUS
  62
7
  10
 66.976115560641
  20
 15.026887871853
  30
0.0
  11
 66.976115560641
  21
 21.013192801089
  31
0.0
   0
LINE
   5
5E7
 100
AcDbEntity
   8
LEVEL002
 370
30
 100
AcDbLine
   6
CONTINUOUS
  62
7
  10
 57.976115560641
  20
 26.526887871851
  30
0.0
  11
 63.226115560639
  21
 23.495798958602
  31
0.0
   0
LINE
   5
5E8
 100
AcDbEntity
   8
LEVEL002
 370
30
 100
AcDbLine
   6
CONTINUOUS
  62
7
  10
 63.226115560639
  20
 23.495798958602
  30
0.0
  11
 68.476115560641
  21
 26.526887871851
  31
0.0
   0
LINE
   5
5E9
 100
AcDbEntity
   8
LEVEL002
 370
30
 100
AcDbLine
   6
CONTINUOUS
  62
7
  10
 61.801433107933
  20
 20.276887871853
  30
0.0
  11
 64.650798013344
  21
 20.276887871853
  31
0.0
   0
LINE
   5
5EA
 100
AcDbEntity
   8
LEVEL002
 370
30
 100
AcDbLine
   6
CONTINUOUS
  62
7
  10
 60.001115560641
  20
 21.316301692412
  30
0.0
  11
 61.801433107933
  21
 20.276887871853
  31
0.0
   0
ARC
   5
5EB
 100
AcDbEntity
   8
LEVEL002
 370
30
   6
CONTINUOUS
  62
7
 100
AcDbCircle
  10
 59.826115560641
  20
 21.013192801087
  30
0.0
  40
 0.35000000000000
 100
AcDbArc
  50
 59.999999999937
  51
 180.00000000001
   0
LINE
   5
5EC
 100
AcDbEntity
   8
LEVEL002
 370
30
 100
AcDbLine
   6
CONTINUOUS
  62
7
  10
 64.650798013344
  20
 20.276887871853
  30
0.0
  11
 66.451115560640
  21
 21.316301692413
  31
0.0
   0
ARC
   5
5ED
 100
AcDbEntity
   8
LEVEL002
 370
30
   6
CONTINUOUS
  62
7
 100
AcDbCircle
  10
 66.626115560641
  20
 21.013192801089
  30
0.0
  40
 0.35000000000000
 100
AcDbArc
  50
0.0
  51
 120.00000000007
   0
LINE
   5
5EE
 100
AcDbEntity
   8
LEVEL002
 370
30
 100
AcDbLine
   6
CONTINUOUS
  62
7
  10
 57.226115560641
  20
 26.526887871851
  30
0.0
  11
 57.226115560641
  21
 24.026887871851
  31
0.0
   0
LINE
   5
5EF
 100
AcDbEntity
   8
LEVEL002
 370
30
 100
AcDbLine
   6
CONTINUOUS
  62
7
  10
 57.226115560641
  20
 22.776887871853
  30
0.0
  11
 57.226115560641
  21
 21.776887871853
  31
0.0
   0
LINE
   5
5F0
 100
AcDbEntity
   8
LEVEL002
 370
15
 100
AcDbLine
   6
DASHDOT
  62
8
  10
 63.226115560641
  20
 13.585812356978
  30
0.0
  11
 63.226115560641
  21
 27.456775997965
  31
0.0
   0
MTEXT
   5
5F2
 100
AcDbEntity
   8
LEVEL001
 370
15
  62
8
 100
AcDbMText
  10
 44.024999999975
  20
 10.538901601836
  30
0.0
  40
 1.5000000000000
  41
0.0
  71
4
  72
1
   1
\W0.500000;\T1.000000; \W1.000000;\T1.000000;　堀込寸法：２４×２５
   7
GMM002
  44
 0.79999984000003
   0
MTEXT
   5
5F4
 100
AcDbEntity
   8
LEVEL001
 370
15
  62
8
 100
AcDbMText
  10
 44.024999999975
  20
 8.5000000000050
  30
0.0
  40
 1.5000000000000
  41
0.0
  71
4
  72
1
   1
\W0.500000;\T1.000000; \W1.000000;\T1.000000;　※専用戸車：ＭＢＳ６０
   7
GMM002
  44
 0.79999984000003
   0
MTEXT
   5
5F6
 100
AcDbEntity
   8
LEVEL002
 370
15
  62
8
 100
AcDbMText
  10
 177.24999999997
  20
 114.70833333333
  30
0.0
  40
 2.0000000000000
  41
0.0
  71
2
  72
1
   3
{\W1.000000;\T1.000000;真鍮レール}\P{\W0.500000;\T1.000000;(\W1.000000;\T1.000000;Ｔ型\W0.500000;\T1.000000;･\W1.000000;\T1.000000;ＤＴ型\W0.500000;\T1.000000;･\W1.000000;\T1.000000;Ｕ型\W0.500000;\T1.000000;･\W1.000000;\T1.000000;ＦＸ型\W0.500000;\T
   1
1.000000;･\W1.000000;\T1.000000;ＤＵ型\W0.500000;\T1.000000;･\W1.000000;\T1.000000;ＦＲ型）}
   7
GMM002
  44
 0.79999984000003
   0
ENDSEC
  0
SECTION
  2
OBJECTS
  0
DICTIONARY
  5
C
100
AcDbDictionary
  3
ACAD_GROUP
350
D
  3
ACAD_MLINESTYLE
350
1B
  3
DWGPROPS
350
1C
  0
DICTIONARY
  5
D
102
{ACAD_REACTORS
330
C
102
}
100
AcDbDictionary
  0
DICTIONARY
  5
1B
102
{ACAD_REACTORS
330
C
102
}
100
AcDbDictionary
  3
STANDARD
350
1D
  0
MLINESTYLE
  5
1D
102
{ACAD_REACTORS
330
1B
102
}
100
AcDbMlineStyle
  2
STANDARD
 70
     0
  3

 62
   256
 51
90.0
 52
90.0
 71
     2
 49
0.5
 62
   256
  6
BYLAYER
 49
-0.5
 62
   256
  6
BYLAYER
   0
XRECORD
   5
1C
 102
{ACAD_REACTORS
 330
C
 102
}
 330
C
 100
AcDbXrecord
 280
1
   1
DWGPROPS COOKIE
   2
 
   3
 
   4
ﾊﾙﾅ
   6
 
   7
ﾊﾟﾙﾌﾗｯ真鍮ﾄﾚｰﾙ(Ｔ･DT･U・DUﾐｿﾞ)
   8
ﾊﾙﾅ
   9

 300
 = 
 301
 = 
 302
 = 
 303
 = 
 304
 = 
 305
 = 
 306
 = 
 307
 = 
 308
 = 
 309
 = 
  40
0.0
  41
 2459823.5000000
  42
 2460017.5000000
   1

  90
10
   0
ENDSEC
   0
EOF
