   0
SECTION
   2
HEADER
   9
$ACADVER
   1
AC1015
   9
$DWGCODEPAGE
   3
ANSI_932
   9
$LIMMIN
  10
0.0
  20
0.0
   9
$LIMMAX
  10
 420.00000000000
  20
 297.00000000000
   9
$EXTMIN
  10
0.0
  20
0.0
  30
0.0
   9
$EXTMAX
  10
 420.00000000000
  20
 297.00000000000
  30
0.0
   9
$LTSCALE
  40
 8.4000000000000
   9
$HANDSEED
   5
289
   0
ENDSEC
   0
SECTION
   2
TABLES
  0
TABLE
  2
VPORT
  5
8
100
AcDbSymbolTable
 70
     1
  0
VPORT
  5
288
100
AcDbSymbolTableRecord
100
AcDbViewportTableRecord
  2
*ACTIVE
 70
     0
 10
0.0
 20
0.0
 11
1.0
 21
1.0
  12
 210.00000000000
  22
 148.50000000000
 13
0.0
 23
0.0
 14
1.0
 24
1.0
 15
0.0
 25
0.0
 16
0.0
 26
0.0
 36
1.0
 17
0.0
 27
0.0
 37
0.0
  40
 420.00000000000
  41
 1.4787878787879
 42
50.0
 43
0.0
 44
0.0
 50
0.0
 51
0.0
 71
     0
 72
   100
 73
     1
 74
     1
 75
     0
 76
     0
 77
     0
 78
     0
  0
ENDTAB
  0
TABLE
  2
LTYPE
  5
5
100
AcDbSymbolTable
 70
    25
  0
LTYPE
  5
12
100
AcDbSymbolTableRecord
100
AcDbLinetypeTableRecord
  2
BYBLOCK
 70
     0
  3

 72
    65
 73
     0
 40
0.0
  0
LTYPE
  5
13
100
AcDbSymbolTableRecord
100
AcDbLinetypeTableRecord
  2
BYLAYER
 70
     0
  3

 72
    65
 73
     0
 40
0.0
  0
LTYPE
  5
14
100
AcDbSymbolTableRecord
100
AcDbLinetypeTableRecord
  2
CONTINUOUS
 70
     0
  3
Solid line
 72
    65
 73
     0
 40
0.0
  0
LTYPE
  5
20
100
AcDbSymbolTableRecord
100
AcDbLinetypeTableRecord
  2
BORDER
 70
     0
  3
__ __ . __ __ . __ __ . __ __ . __ __ . __ __ .
 72
    65
 73
     6
 40
1.75
 49
0.5
 74
     0
 49
-0.25
 74
     0
 49
0.5
 74
     0
 49
-0.25
 74
     0
 49
0.0
 74
     0
 49
-0.25
 74
     0
  0
LTYPE
  5
21
100
AcDbSymbolTableRecord
100
AcDbLinetypeTableRecord
  2
BORDER2
 70
     0
  3
__.__.__.__.__.__.__.__.__.__.__.__.__.__.__.__
 72
    65
 73
     6
 40
0.875
 49
0.25
 74
     0
 49
-0.125
 74
     0
 49
0.25
 74
     0
 49
-0.125
 74
     0
 49
0.0
 74
     0
 49
-0.125
 74
     0
  0
LTYPE
  5
22
100
AcDbSymbolTableRecord
100
AcDbLinetypeTableRecord
  2
BORDERX2
 70
     0
  3
____  ____  .  ____  ____  .  ____  ____  .  __
 72
    65
 73
     6
 40
3.5
 49
1.0
 74
     0
 49
-0.5
 74
     0
 49
1.0
 74
     0
 49
-0.5
 74
     0
 49
0.0
 74
     0
 49
-0.5
 74
     0
  0
LTYPE
  5
23
100
AcDbSymbolTableRecord
100
AcDbLinetypeTableRecord
  2
CENTER
 70
     0
  3
____ _ ____ _ ____ _ ____ _ ____ _ ____ _ ____ 
 72
    65
 73
     4
 40
2.0
 49
1.25
 74
     0
 49
-0.25
 74
     0
 49
0.25
 74
     0
 49
-0.25
 74
     0
  0
LTYPE
  5
24
100
AcDbSymbolTableRecord
100
AcDbLinetypeTableRecord
  2
CENTER2
 70
     0
  3
___ _ ___ _ ___ _ ___ _ ___ _ ___ _ ___ _ ___ _
 72
    65
 73
     4
 40
1.125
 49
0.75
 74
     0
 49
-0.125
 74
     0
 49
0.125
 74
     0
 49
-0.125
 74
     0
  0
LTYPE
  5
25
100
AcDbSymbolTableRecord
100
AcDbLinetypeTableRecord
  2
CENTERX2
 70
     0
  3
________  __  ________  __  ________  __  _____
 72
    65
 73
     4
 40
4.0
 49
2.5
 74
     0
 49
-0.5
 74
     0
 49
0.5
 74
     0
 49
-0.5
 74
     0
  0
LTYPE
  5
26
100
AcDbSymbolTableRecord
100
AcDbLinetypeTableRecord
  2
DASHDOT
 70
     0
  3
__ . __ . __ . __ . __ . __ . __ . __ . __ . __
 72
    65
 73
     4
 40
1.0
 49
0.5
 74
     0
 49
-0.25
 74
     0
 49
0.0
 74
     0
 49
-0.25
 74
     0
  0
LTYPE
  5
27
100
AcDbSymbolTableRecord
100
AcDbLinetypeTableRecord
  2
DASHDOT2
 70
     0
  3
_._._._._._._._._._._._._._._._._._._._._._._._
 72
    65
 73
     4
 40
0.5
 49
0.25
 74
     0
 49
-0.125
 74
     0
 49
0.0
 74
     0
 49
-0.125
 74
     0
  0
LTYPE
  5
28
100
AcDbSymbolTableRecord
100
AcDbLinetypeTableRecord
  2
DASHDOTX2
 70
     0
  3
____  .  ____  .  ____  .  ____  .  ____  .  __
 72
    65
 73
     4
 40
2.0
 49
1.0
 74
     0
 49
-0.5
 74
     0
 49
0.0
 74
     0
 49
-0.5
 74
     0
  0
LTYPE
  5
29
100
AcDbSymbolTableRecord
100
AcDbLinetypeTableRecord
  2
DASHED
 70
     0
  3
__ __ __ __ __ __ __ __ __ __ __ __ __ __ __ __
 72
    65
 73
     2
 40
0.75
 49
0.5
 74
     0
 49
-0.25
 74
     0
  0
LTYPE
  5
2A
100
AcDbSymbolTableRecord
100
AcDbLinetypeTableRecord
  2
DASHED2
 70
     0
  3
_ _ _ _ _ _ _ _ _ _ _ _ _ _ _ _ _ _ _ _ _ _ _ _
 72
    65
 73
     2
 40
0.375
 49
0.25
 74
     0
 49
-0.125
 74
     0
  0
LTYPE
  5
2B
100
AcDbSymbolTableRecord
100
AcDbLinetypeTableRecord
  2
DASHEDX2
 70
     0
  3
____  ____  ____  ____  ____  ____  ____  ____ 
 72
    65
 73
     2
 40
1.5
 49
1.0
 74
     0
 49
-0.5
 74
     0
  0
LTYPE
  5
2C
100
AcDbSymbolTableRecord
100
AcDbLinetypeTableRecord
  2
DIVIDE
 70
     0
  3
____ . . ____ . . ____ . . ____ . . ____ . . __
 72
    65
 73
     6
 40
1.25
 49
0.5
 74
     0
 49
-0.25
 74
     0
 49
0.0
 74
     0
 49
-0.25
 74
     0
 49
0.0
 74
     0
 49
-0.25
 74
     0
  0
LTYPE
  5
2D
100
AcDbSymbolTableRecord
100
AcDbLinetypeTableRecord
  2
DIVIDE2
 70
     0
  3
__..__..__..__..__..__..__..__..__..__..__..__.
 72
    65
 73
     6
 40
0.625
 49
0.25
 74
     0
 49
-0.125
 74
     0
 49
0.0
 74
     0
 49
-0.125
 74
     0
 49
0.0
 74
     0
 49
-0.125
 74
     0
  0
LTYPE
  5
2E
100
AcDbSymbolTableRecord
100
AcDbLinetypeTableRecord
  2
DIVIDEX2
 70
     0
  3
________  .  .  ________  .  .  ________  .  . 
 72
    65
 73
     6
 40
2.5
 49
1.0
 74
     0
 49
-0.5
 74
     0
 49
0.0
 74
     0
 49
-0.5
 74
     0
 49
0.0
 74
     0
 49
-0.5
 74
     0
  0
LTYPE
  5
2F
100
AcDbSymbolTableRecord
100
AcDbLinetypeTableRecord
  2
DOT
 70
     0
  3
. . . . . . . . . . . . . . . . . . . . . . . .
 72
    65
 73
     2
 40
0.25
 49
0.0
 74
     0
 49
-0.25
 74
     0
  0
LTYPE
  5
30
100
AcDbSymbolTableRecord
100
AcDbLinetypeTableRecord
  2
DOT2
 70
     0
  3
...............................................
 72
    65
 73
     2
 40
0.125
 49
0.0
 74
     0
 49
-0.125
 74
     0
  0
LTYPE
  5
31
100
AcDbSymbolTableRecord
100
AcDbLinetypeTableRecord
  2
DOTX2
 70
     0
  3
.  .  .  .  .  .  .  .  .  .  .  .  .  .  .  . 
 72
    65
 73
     2
 40
0.5
 49
0.0
 74
     0
 49
-0.5
 74
     0
  0
LTYPE
  5
32
100
AcDbSymbolTableRecord
100
AcDbLinetypeTableRecord
  2
HIDDEN
 70
     0
  3
__ __ __ __ __ __ __ __ __ __ __ __ __ __ __ __
 72
    65
 73
     2
 40
0.375
 49
0.25
 74
     0
 49
-0.125
 74
     0
  0
LTYPE
  5
33
100
AcDbSymbolTableRecord
100
AcDbLinetypeTableRecord
  2
HIDDEN2
 70
     0
  3
_ _ _ _ _ _ _ _ _ _ _ _ _ _ _ _ _ _ _ _ _ _ _ _
 72
    65
 73
     2
 40
0.1875
 49
0.125
 74
     0
 49
-0.0625
 74
     0
  0
LTYPE
  5
34
100
AcDbSymbolTableRecord
100
AcDbLinetypeTableRecord
  2
HIDDENX2
 70
     0
  3
____ ____ ____ ____ ____ ____ ____ ____ ____ __
 72
    65
 73
     2
 40
0.75
 49
0.5
 74
     0
 49
-0.25
 74
     0
  0
LTYPE
  5
35
100
AcDbSymbolTableRecord
100
AcDbLinetypeTableRecord
  2
PHANTOM
 70
     0
  3
______  __  __  ______  __  __  ______  __  __ 
 72
    65
 73
     6
 40
2.5
 49
1.25
 74
     0
 49
-0.25
 74
     0
 49
0.25
 74
     0
 49
-0.25
 74
     0
 49
0.25
 74
     0
 49
-0.25
 74
     0
  0
LTYPE
  5
36
100
AcDbSymbolTableRecord
100
AcDbLinetypeTableRecord
  2
PHANTOM2
 70
     0
  3
___ _ _ ___ _ _ ___ _ _ ___ _ _ ___ _ _ ___ _ _
 72
    65
 73
     6
 40
1.25
 49
0.625
 74
     0
 49
-0.125
 74
     0
 49
0.125
 74
     0
 49
-0.125
 74
     0
 49
0.125
 74
     0
 49
-0.125
 74
     0
  0
LTYPE
  5
37
100
AcDbSymbolTableRecord
100
AcDbLinetypeTableRecord
  2
PHANTOMX2
 70
     0
  3
____________    ____    ____    ____________   
 72
    65
 73
     6
 40
5.0
 49
2.5
 74
     0
 49
-0.5
 74
     0
 49
0.5
 74
     0
 49
-0.5
 74
     0
 49
0.5
 74
     0
 49
-0.5
 74
     0
  0
ENDTAB
   0
TABLE
   2
LAYER
   5
2
 100
AcDbSymbolTable
  70
8
   0
LAYER
   5
E
 100
AcDbSymbolTableRecord
 100
AcDbLayerTableRecord
   2
0
  70
0
  62
7
   6
CONTINUOUS
 390
30
   0
LAYER
   5
39
 100
AcDbSymbolTableRecord
 100
AcDbLayerTableRecord
   2
LEVEL001
  70
0
  62
7
   6
CONTINUOUS
 390
30
   0
LAYER
   5
3A
 100
AcDbSymbolTableRecord
 100
AcDbLayerTableRecord
   2
LEVEL004
  70
0
  62
7
   6
CONTINUOUS
 390
30
   0
LAYER
   5
3B
 100
AcDbSymbolTableRecord
 100
AcDbLayerTableRecord
   2
LEVEL005
  70
0
  62
7
   6
CONTINUOUS
 390
30
   0
LAYER
   5
3C
 100
AcDbSymbolTableRecord
 100
AcDbLayerTableRecord
   2
LEVEL006
  70
0
  62
7
   6
CONTINUOUS
 390
30
   0
LAYER
   5
3D
 100
AcDbSymbolTableRecord
 100
AcDbLayerTableRecord
   2
LEVEL007
  70
0
  62
7
   6
CONTINUOUS
 390
30
   0
LAYER
   5
3E
 100
AcDbSymbolTableRecord
 100
AcDbLayerTableRecord
   2
LEVEL011
  70
0
  62
7
   6
CONTINUOUS
 390
30
   0
LAYER
   5
3F
 100
AcDbSymbolTableRecord
 100
AcDbLayerTableRecord
   2
LEVEL012
  70
0
  62
7
   6
CONTINUOUS
 390
30
   0
ENDTAB
  0
TABLE
  2
STYLE
  5
3
100
AcDbSymbolTable
  70
6
  0
STYLE
  5
F
100
AcDbSymbolTableRecord
100
AcDbTextStyleTableRecord
  2
STANDARD
 70
     0
 40
0.0
 41
1.0
 50
0.0
 71
     0
 42
0.2
  3
TXT
  4
BIGFONT
  0
STYLE
  5
38
100
AcDbSymbolTableRecord
100
AcDbTextStyleTableRecord
  2
STANDARD1
 70
     4
 40
0.0
 41
1.0
 50
0.0
 71
     0
 42
0.2
  3
TXT
  4
BIGFONT
   0
STYLE
   5
40
 100
AcDbSymbolTableRecord
 100
AcDbTextStyleTableRecord
   2
GMM001
  70
0
  40
0.0
  41
 0.80000000000000
  50
0.0
  71
     0
  42
1.0
   3
txt.shx
   4
bigfont.shx
   0
STYLE
   5
41
 100
AcDbSymbolTableRecord
 100
AcDbTextStyleTableRecord
   2
GMM002
  70
0
  40
0.0
  41
 1.0000000000000
  50
0.0
  71
     0
  42
1.0
   3
txt.shx
   4
bigfont.shx
   0
STYLE
   5
42
 100
AcDbSymbolTableRecord
 100
AcDbTextStyleTableRecord
   2
GMM003
  70
0
  40
0.0
  41
 1.0714285714286
  50
0.0
  71
     0
  42
1.0
   3
txt.shx
   4
bigfont.shx
   0
STYLE
   5
43
 100
AcDbSymbolTableRecord
 100
AcDbTextStyleTableRecord
   2
GMM004
  70
0
  40
0.0
  41
 0.88888888888889
  50
0.0
  71
     0
  42
1.0
   3
txt.shx
   4
bigfont.shx
   0
ENDTAB
  0
TABLE
  2
VIEW
  5
6
100
AcDbSymbolTable
 70
     0
  0
ENDTAB
  0
TABLE
  2
UCS
  5
7
100
AcDbSymbolTable
 70
     0
  0
ENDTAB
  0
TABLE
  2
APPID
  5
9
100
AcDbSymbolTable
 70
     1
  0
APPID
  5
10
100
AcDbSymbolTableRecord
100
AcDbRegAppTableRecord
  2
ACAD
 70
     0
  0
ENDTAB
   0
TABLE
   2
DIMSTYLE
   5
A
 100
AcDbSymbolTable
  70
8
 100
AcDbDimStyleTable
  0
DIMSTYLE
105
1D
100
AcDbSymbolTableRecord
100
AcDbDimStyleTableRecord
  2
STANDARD
 70
     0
  3

  4

  5

  6

  7

 40
1.0
 41
0.18
 42
0.0625
 43
0.38
 44
0.18
 45
0.0
 46
0.0
 47
0.0
 48
0.0
140
0.18
141
0.09
142
0.0
143
25.4
144
1.0
145
0.0
146
1.0
147
0.09
 71
     0
 72
     0
 73
     1
 74
     1
 75
     0
 76
     0
 77
     0
 78
     0
170
     0
171
     2
172
     0
173
     0
174
     0
175
     0
176
     0
177
     0
178
     0
270
     2
271
     4
272
     4
273
     2
274
     2
340
F
275
     0
280
     0
281
     0
282
     0
283
     1
284
     0
285
     0
286
     0
287
     3
288
     0
   0
DIMSTYLE
 105
44
 100
AcDbSymbolTableRecord
 100
AcDbDimStyleTableRecord
   2
GMM001
  70
0
   3

   4

   5

   6

   7

  40
 1.0000000000000
  41
 2.0000000000000
  42
 1.0000000000000
  43
 8.0000000000000
  44
 1.0000000000000
  45
0.0
  46
0.0
  47
0.0
  48
0.0
 140
 3.0000000000000
 141
 1.0000000000000
 142
0.0
 143
 0.39400000000000E-1
 144
 1.0000000000000
 145
0.0
 146
 0.83333333333333
 147
 1.0000000000000
  71
0
  72
0
  73
0
  74
0
  75
0
  76
0
  77
3
  78
8
 170
0
 171
2
 172
1
 173
1
 174
0
 175
0
 176
8
 177
8
 178
8
 270
2
 271
6
 272
0
 273
2
 274
2
 340
41
 275
1
 280
0
 281
0
 282
0
 283
1
 284
0
 285
0
 286
0
 287
3
 288
0
   0
DIMSTYLE
 105
45
 100
AcDbSymbolTableRecord
 100
AcDbDimStyleTableRecord
   2
GMM002
  70
0
   3

   4

   5

   6

   7

  40
 1.0000000000000
  41
 2.0000000000000
  42
 1.0000000000000
  43
 8.0000000000000
  44
 1.0000000000000
  45
0.0
  46
0.0
  47
0.0
  48
0.0
 140
 3.0000000000000
 141
 1.0000000000000
 142
0.0
 143
 0.39400000000000E-1
 144
 1.0000000000000
 145
0.0
 146
 0.83333333333333
 147
 1.0000000000000
  71
0
  72
0
  73
0
  74
0
  75
0
  76
0
  77
3
  78
8
 170
0
 171
2
 172
1
 173
1
 174
0
 175
0
 176
8
 177
8
 178
8
 270
2
 271
6
 272
0
 273
2
 274
2
 340
41
 275
1
 280
0
 281
0
 282
0
 283
1
 284
0
 285
0
 286
0
 287
3
 288
0
   0
DIMSTYLE
 105
46
 100
AcDbSymbolTableRecord
 100
AcDbDimStyleTableRecord
   2
GMM003
  70
0
   3

   4

   5

   6

   7

  40
 1.0000000000000
  41
 2.0000000000000
  42
 1.0000000000000
  43
 8.0000000000000
  44
 1.0000000000000
  45
0.0
  46
0.0
  47
 0.40000000000000
  48
0.0
 140
 3.0000000000000
 141
 1.0000000000000
 142
0.0
 143
 0.39400000000000E-1
 144
 1.0000000000000
 145
0.0
 146
 0.83333333333333
 147
 1.0000000000000
  71
1
  72
0
  73
0
  74
0
  75
0
  76
0
  77
3
  78
8
 170
0
 171
2
 172
1
 173
1
 174
0
 175
0
 176
8
 177
8
 178
8
 270
2
 271
6
 272
1
 273
2
 274
2
 340
41
 275
1
 280
0
 281
0
 282
0
 283
1
 284
0
 285
0
 286
0
 287
3
 288
0
   0
DIMSTYLE
 105
47
 100
AcDbSymbolTableRecord
 100
AcDbDimStyleTableRecord
   2
GMM004
  70
0
   3

   4

   5

   6

   7

  40
 1.0000000000000
  41
 2.0000000000000
  42
 1.0000000000000
  43
 8.0000000000000
  44
 1.0000000000000
  45
0.0
  46
0.0
  47
0.0
  48
0.0
 140
 3.0000000000000
 141
 1.0000000000000
 142
0.0
 143
 0.39400000000000E-1
 144
 1.0000000000000
 145
0.0
 146
 0.83333333333333
 147
 0.96106261290637
  71
0
  72
0
  73
0
  74
0
  75
0
  76
0
  77
3
  78
8
 170
0
 171
2
 172
1
 173
1
 174
0
 175
0
 176
8
 177
8
 178
8
 270
2
 271
6
 272
0
 273
2
 274
2
 340
41
 275
1
 280
0
 281
0
 282
0
 283
1
 284
0
 285
0
 286
0
 287
3
 288
1
   0
DIMSTYLE
 105
48
 100
AcDbSymbolTableRecord
 100
AcDbDimStyleTableRecord
   2
GMM005
  70
0
   3
扉厚<>
   4

   5

   6

   7

  40
 1.0000000000000
  41
 2.0000000000000
  42
 1.0000000000000
  43
 8.0000000000000
  44
0.0
  45
0.0
  46
0.0
  47
0.0
  48
0.0
 140
 3.0000000000000
 141
 1.0000000000000
 142
0.0
 143
 0.39400000000000E-1
 144
 1.0000000000000
 145
0.0
 146
 0.83333333333333
 147
 1.0000000000000
  71
0
  72
0
  73
0
  74
0
  75
1
  76
1
  77
3
  78
8
 170
0
 171
2
 172
1
 173
1
 174
0
 175
0
 176
8
 177
8
 178
8
 270
2
 271
6
 272
0
 273
2
 274
2
 340
41
 275
1
 280
0
 281
0
 282
0
 283
1
 284
0
 285
0
 286
0
 287
3
 288
0
   0
DIMSTYLE
 105
49
 100
AcDbSymbolTableRecord
 100
AcDbDimStyleTableRecord
   2
GMM006
  70
0
   3

   4

   5

   6

   7

  40
 1.0000000000000
  41
 2.0000000000000
  42
 1.0000000000000
  43
 8.0000000000000
  44
 1.0000000000000
  45
0.0
  46
0.0
  47
0.0
  48
0.0
 140
 3.0000000000000
 141
 1.0000000000000
 142
0.0
 143
 0.39400000000000E-1
 144
 1.0000000000000
 145
0.0
 146
 0.83333333333333
 147
0.0
  71
0
  72
0
  73
0
  74
0
  75
0
  76
0
  77
1
  78
8
 170
0
 171
2
 172
1
 173
1
 174
0
 175
0
 176
8
 177
8
 178
8
 270
2
 271
6
 272
0
 273
2
 274
2
 340
41
 275
1
 280
0
 281
0
 282
0
 283
1
 284
0
 285
0
 286
0
 287
3
 288
0
   0
ENDTAB
  0
TABLE
  2
BLOCK_RECORD
  5
1
100
AcDbSymbolTable
 70
     0
  0
BLOCK_RECORD
  5
18
100
AcDbSymbolTableRecord
100
AcDbBlockTableRecord
  2
*MODEL_SPACE
  0
BLOCK_RECORD
  5
15
100
AcDbSymbolTableRecord
100
AcDbBlockTableRecord
  2
*PAPER_SPACE
   0
BLOCK_RECORD
   5
4A
 100
AcDbSymbolTableRecord
 100
AcDbBlockTableRecord
   2
*D1
   0
BLOCK_RECORD
   5
4B
 100
AcDbSymbolTableRecord
 100
AcDbBlockTableRecord
   2
*D2
   0
BLOCK_RECORD
   5
4C
 100
AcDbSymbolTableRecord
 100
AcDbBlockTableRecord
   2
*D3
   0
BLOCK_RECORD
   5
4D
 100
AcDbSymbolTableRecord
 100
AcDbBlockTableRecord
   2
*D4
   0
BLOCK_RECORD
   5
4E
 100
AcDbSymbolTableRecord
 100
AcDbBlockTableRecord
   2
*D5
   0
BLOCK_RECORD
   5
4F
 100
AcDbSymbolTableRecord
 100
AcDbBlockTableRecord
   2
*D6
   0
BLOCK_RECORD
   5
50
 100
AcDbSymbolTableRecord
 100
AcDbBlockTableRecord
   2
*D7
   0
BLOCK_RECORD
   5
51
 100
AcDbSymbolTableRecord
 100
AcDbBlockTableRecord
   2
*D8
   0
BLOCK_RECORD
   5
52
 100
AcDbSymbolTableRecord
 100
AcDbBlockTableRecord
   2
*D9
   0
BLOCK_RECORD
   5
53
 100
AcDbSymbolTableRecord
 100
AcDbBlockTableRecord
   2
*D10
   0
BLOCK_RECORD
   5
54
 100
AcDbSymbolTableRecord
 100
AcDbBlockTableRecord
   2
*D11
   0
BLOCK_RECORD
   5
55
 100
AcDbSymbolTableRecord
 100
AcDbBlockTableRecord
   2
*D12
   0
BLOCK_RECORD
   5
56
 100
AcDbSymbolTableRecord
 100
AcDbBlockTableRecord
   2
*D13
   0
BLOCK_RECORD
   5
57
 100
AcDbSymbolTableRecord
 100
AcDbBlockTableRecord
   2
*D14
   0
BLOCK_RECORD
   5
58
 100
AcDbSymbolTableRecord
 100
AcDbBlockTableRecord
   2
*D15
   0
BLOCK_RECORD
   5
59
 100
AcDbSymbolTableRecord
 100
AcDbBlockTableRecord
   2
_ARCHTICK
   0
BLOCK_RECORD
   5
5A
 100
AcDbSymbolTableRecord
 100
AcDbBlockTableRecord
   2
_BOXBLANK
   0
BLOCK_RECORD
   5
5B
 100
AcDbSymbolTableRecord
 100
AcDbBlockTableRecord
   2
_BOXFILLED
   0
BLOCK_RECORD
   5
5C
 100
AcDbSymbolTableRecord
 100
AcDbBlockTableRecord
   2
_CLOSED
   0
BLOCK_RECORD
   5
5D
 100
AcDbSymbolTableRecord
 100
AcDbBlockTableRecord
   2
_CLOSEDBLANK
   0
BLOCK_RECORD
   5
5E
 100
AcDbSymbolTableRecord
 100
AcDbBlockTableRecord
   2
_DATUMBLANK
   0
BLOCK_RECORD
   5
5F
 100
AcDbSymbolTableRecord
 100
AcDbBlockTableRecord
   2
_DATUMFILLED
   0
BLOCK_RECORD
   5
60
 100
AcDbSymbolTableRecord
 100
AcDbBlockTableRecord
   2
_DOT
   0
BLOCK_RECORD
   5
61
 100
AcDbSymbolTableRecord
 100
AcDbBlockTableRecord
   2
_DOTBLANK
   0
BLOCK_RECORD
   5
62
 100
AcDbSymbolTableRecord
 100
AcDbBlockTableRecord
   2
_DOTSMALL
   0
BLOCK_RECORD
   5
63
 100
AcDbSymbolTableRecord
 100
AcDbBlockTableRecord
   2
_INTEGRAL
   0
BLOCK_RECORD
   5
64
 100
AcDbSymbolTableRecord
 100
AcDbBlockTableRecord
   2
_NONE
   0
BLOCK_RECORD
   5
65
 100
AcDbSymbolTableRecord
 100
AcDbBlockTableRecord
   2
_OBLIQUE
   0
BLOCK_RECORD
   5
66
 100
AcDbSymbolTableRecord
 100
AcDbBlockTableRecord
   2
_OPEN
   0
BLOCK_RECORD
   5
67
 100
AcDbSymbolTableRecord
 100
AcDbBlockTableRecord
   2
_OPEN30
   0
BLOCK_RECORD
   5
68
 100
AcDbSymbolTableRecord
 100
AcDbBlockTableRecord
   2
_OPEN90
   0
BLOCK_RECORD
   5
69
 100
AcDbSymbolTableRecord
 100
AcDbBlockTableRecord
   2
_ORIGIN
   0
ENDTAB
   0
ENDSEC
  0
SECTION
  2
BLOCKS
  0
BLOCK
  5
19
100
AcDbEntity
  8
0
100
AcDbBlockBegin
  2
*MODEL_SPACE
 70
     0
 10
0.0
 20
0.0
 30
0.0
  3
*MODEL_SPACE
  1

  0
ENDBLK
  5
1A
100
AcDbEntity
  8
0
100
AcDbBlockEnd
  0
BLOCK
  5
16
100
AcDbEntity
 67
     1
  8
0
100
AcDbBlockBegin
  2
*PAPER_SPACE
 70
     0
 10
0.0
 20
0.0
 30
0.0
  3
*PAPER_SPACE
  1

  0
ENDBLK
  5
17
100
AcDbEntity
 67
     1
  8
0
100
AcDbBlockEnd
   0
BLOCK
   5
6A
 100
AcDbEntity
   8
0
 100
AcDbBlockBegin
   2
_ARCHTICK
  70
0
  10
0.0
  20
0.0
  30
0.0
   3
_ARCHTICK
   0
POLYLINE
   5
6B
 100
AcDbEntity
   8
0
 370
-2
   6
BYBLOCK
  62
0
 100
AcDb2dPolyline
  66
1
  10
0.0
  20
0.0
  30
0.0
  70
1
  40
 0.15000000000000
  41
 0.15000000000000
   0
VERTEX
   5
6C
 100
AcDbEntity
   8
0
   6
BYBLOCK
  62
0
 100
AcDbVertex
 100
AcDb2dVertex
  10
-0.50000000000000
  20
-0.50000000000000
  30
0.0
  40
 0.15000000000000
  41
 0.15000000000000
   0
VERTEX
   5
6D
 100
AcDbEntity
   8
0
   6
BYBLOCK
  62
0
 100
AcDbVertex
 100
AcDb2dVertex
  10
 0.50000000000000
  20
 0.50000000000000
  30
0.0
  40
 0.15000000000000
  41
 0.15000000000000
   0
SEQEND
   5
6E
 100
AcDbEntity
   8
0
   6
BYBLOCK
  62
0
   0
ENDBLK
   5
6F
 100
AcDbEntity
   8
0
 100
AcDbBlockEnd
   0
BLOCK
   5
70
 100
AcDbEntity
   8
0
 100
AcDbBlockBegin
   2
_OBLIQUE
  70
0
  10
0.0
  20
0.0
  30
0.0
   3
_OBLIQUE
   0
LINE
   5
71
 100
AcDbEntity
   8
0
 370
-2
 100
AcDbLine
   6
BYBLOCK
  62
0
  10
-0.50000000000000
  20
-0.50000000000000
  30
0.0
  11
 0.50000000000000
  21
 0.50000000000000
  31
0.0
   0
ENDBLK
   5
72
 100
AcDbEntity
   8
0
 100
AcDbBlockEnd
   0
BLOCK
   5
73
 100
AcDbEntity
   8
0
 100
AcDbBlockBegin
   2
_BOXBLANK
  70
0
  10
0.0
  20
0.0
  30
0.0
   3
_BOXBLANK
   0
LINE
   5
74
 100
AcDbEntity
   8
0
 370
-2
 100
AcDbLine
   6
BYBLOCK
  62
0
  10
-0.50000000000000
  20
-0.50000000000000
  30
0.0
  11
 0.50000000000000
  21
-0.50000000000000
  31
0.0
   0
LINE
   5
75
 100
AcDbEntity
   8
0
 370
-2
 100
AcDbLine
   6
BYBLOCK
  62
0
  10
 0.50000000000000
  20
-0.50000000000000
  30
0.0
  11
 0.50000000000000
  21
 0.50000000000000
  31
0.0
   0
LINE
   5
76
 100
AcDbEntity
   8
0
 370
-2
 100
AcDbLine
   6
BYBLOCK
  62
0
  10
 0.50000000000000
  20
 0.50000000000000
  30
0.0
  11
-0.50000000000000
  21
 0.50000000000000
  31
0.0
   0
LINE
   5
77
 100
AcDbEntity
   8
0
 370
-2
 100
AcDbLine
   6
BYBLOCK
  62
0
  10
-0.50000000000000
  20
 0.50000000000000
  30
0.0
  11
-0.50000000000000
  21
-0.50000000000000
  31
0.0
   0
LINE
   5
78
 100
AcDbEntity
   8
0
 370
-2
 100
AcDbLine
   6
BYBLOCK
  62
0
  10
-0.50000000000000
  20
0.0
  30
0.0
  11
-1.0000000000000
  21
0.0
  31
0.0
   0
ENDBLK
   5
79
 100
AcDbEntity
   8
0
 100
AcDbBlockEnd
   0
BLOCK
   5
7A
 100
AcDbEntity
   8
0
 100
AcDbBlockBegin
   2
_BOXFILLED
  70
0
  10
0.0
  20
0.0
  30
0.0
   3
_BOXFILLED
   0
SOLID
   5
7B
 100
AcDbEntity
   8
0
 100
AcDbTrace
   6
BYBLOCK
  62
0
  10
-0.50000000000000
  20
 0.50000000000000
  30
0.0
  11
 0.50000000000000
  21
 0.50000000000000
  31
0.0
  12
-0.50000000000000
  22
-0.50000000000000
  32
0.0
  13
 0.50000000000000
  23
-0.50000000000000
  33
0.0
   0
LINE
   5
7C
 100
AcDbEntity
   8
0
 370
-2
 100
AcDbLine
   6
BYBLOCK
  62
0
  10
-0.50000000000000
  20
0.0
  30
0.0
  11
-1.0000000000000
  21
0.0
  31
0.0
   0
ENDBLK
   5
7D
 100
AcDbEntity
   8
0
 100
AcDbBlockEnd
   0
BLOCK
   5
7E
 100
AcDbEntity
   8
0
 100
AcDbBlockBegin
   2
_CLOSED
  70
0
  10
0.0
  20
0.0
  30
0.0
   3
_CLOSED
   0
LINE
   5
7F
 100
AcDbEntity
   8
0
 370
-2
 100
AcDbLine
   6
BYBLOCK
  62
0
  10
-1.0000000000000
  20
 0.16666666666667
  30
0.0
  11
0.0
  21
0.0
  31
0.0
   0
LINE
   5
80
 100
AcDbEntity
   8
0
 370
-2
 100
AcDbLine
   6
BYBLOCK
  62
0
  10
0.0
  20
0.0
  30
0.0
  11
-1.0000000000000
  21
-0.16666666666667
  31
0.0
   0
LINE
   5
81
 100
AcDbEntity
   8
0
 370
-2
 100
AcDbLine
   6
BYBLOCK
  62
0
  10
-1.0000000000000
  20
 0.16666666666667
  30
0.0
  11
-1.0000000000000
  21
-0.16666666666667
  31
0.0
   0
LINE
   5
82
 100
AcDbEntity
   8
0
 370
-2
 100
AcDbLine
   6
BYBLOCK
  62
0
  10
0.0
  20
0.0
  30
0.0
  11
-1.0000000000000
  21
0.0
  31
0.0
   0
ENDBLK
   5
83
 100
AcDbEntity
   8
0
 100
AcDbBlockEnd
   0
BLOCK
   5
84
 100
AcDbEntity
   8
0
 100
AcDbBlockBegin
   2
_OPEN
  70
0
  10
0.0
  20
0.0
  30
0.0
   3
_OPEN
   0
LINE
   5
85
 100
AcDbEntity
   8
0
 370
-2
 100
AcDbLine
   6
BYBLOCK
  62
0
  10
-1.0000000000000
  20
 0.16666666666667
  30
0.0
  11
0.0
  21
0.0
  31
0.0
   0
LINE
   5
86
 100
AcDbEntity
   8
0
 370
-2
 100
AcDbLine
   6
BYBLOCK
  62
0
  10
0.0
  20
0.0
  30
0.0
  11
-1.0000000000000
  21
-0.16666666666667
  31
0.0
   0
LINE
   5
87
 100
AcDbEntity
   8
0
 370
-2
 100
AcDbLine
   6
BYBLOCK
  62
0
  10
0.0
  20
0.0
  30
0.0
  11
-1.0000000000000
  21
0.0
  31
0.0
   0
ENDBLK
   5
88
 100
AcDbEntity
   8
0
 100
AcDbBlockEnd
   0
BLOCK
   5
89
 100
AcDbEntity
   8
0
 100
AcDbBlockBegin
   2
_OPEN30
  70
0
  10
0.0
  20
0.0
  30
0.0
   3
_OPEN30
   0
LINE
   5
8A
 100
AcDbEntity
   8
0
 370
-2
 100
AcDbLine
   6
BYBLOCK
  62
0
  10
-1.0000000000000
  20
 0.26794919243110
  30
0.0
  11
0.0
  21
0.0
  31
0.0
   0
LINE
   5
8B
 100
AcDbEntity
   8
0
 370
-2
 100
AcDbLine
   6
BYBLOCK
  62
0
  10
0.0
  20
0.0
  30
0.0
  11
-1.0000000000000
  21
-0.26794919243110
  31
0.0
   0
LINE
   5
8C
 100
AcDbEntity
   8
0
 370
-2
 100
AcDbLine
   6
BYBLOCK
  62
0
  10
0.0
  20
0.0
  30
0.0
  11
-1.0000000000000
  21
0.0
  31
0.0
   0
ENDBLK
   5
8D
 100
AcDbEntity
   8
0
 100
AcDbBlockEnd
   0
BLOCK
   5
8E
 100
AcDbEntity
   8
0
 100
AcDbBlockBegin
   2
_OPEN90
  70
0
  10
0.0
  20
0.0
  30
0.0
   3
_OPEN90
   0
LINE
   5
8F
 100
AcDbEntity
   8
0
 370
-2
 100
AcDbLine
   6
BYBLOCK
  62
0
  10
-0.50000000000000
  20
 0.50000000000000
  30
0.0
  11
0.0
  21
0.0
  31
0.0
   0
LINE
   5
90
 100
AcDbEntity
   8
0
 370
-2
 100
AcDbLine
   6
BYBLOCK
  62
0
  10
0.0
  20
0.0
  30
0.0
  11
-0.50000000000000
  21
-0.50000000000000
  31
0.0
   0
LINE
   5
91
 100
AcDbEntity
   8
0
 370
-2
 100
AcDbLine
   6
BYBLOCK
  62
0
  10
0.0
  20
0.0
  30
0.0
  11
-1.0000000000000
  21
0.0
  31
0.0
   0
ENDBLK
   5
92
 100
AcDbEntity
   8
0
 100
AcDbBlockEnd
   0
BLOCK
   5
93
 100
AcDbEntity
   8
0
 100
AcDbBlockBegin
   2
_CLOSEDBLANK
  70
0
  10
0.0
  20
0.0
  30
0.0
   3
_CLOSEDBLANK
   0
LINE
   5
94
 100
AcDbEntity
   8
0
 370
-2
 100
AcDbLine
   6
BYBLOCK
  62
0
  10
-1.0000000000000
  20
 0.16666666666667
  30
0.0
  11
0.0
  21
0.0
  31
0.0
   0
LINE
   5
95
 100
AcDbEntity
   8
0
 370
-2
 100
AcDbLine
   6
BYBLOCK
  62
0
  10
0.0
  20
0.0
  30
0.0
  11
-1.0000000000000
  21
-0.16666666666667
  31
0.0
   0
LINE
   5
96
 100
AcDbEntity
   8
0
 370
-2
 100
AcDbLine
   6
BYBLOCK
  62
0
  10
-1.0000000000000
  20
 0.16666666666667
  30
0.0
  11
-1.0000000000000
  21
-0.16666666666667
  31
0.0
   0
ENDBLK
   5
97
 100
AcDbEntity
   8
0
 100
AcDbBlockEnd
   0
BLOCK
   5
98
 100
AcDbEntity
   8
0
 100
AcDbBlockBegin
   2
_DOT
  70
0
  10
0.0
  20
0.0
  30
0.0
   3
_DOT
   0
POLYLINE
   5
99
 100
AcDbEntity
   8
0
 370
-2
   6
BYBLOCK
  62
0
 100
AcDb2dPolyline
  66
1
  10
0.0
  20
0.0
  30
0.0
  70
1
  40
 0.50000000000000
  41
 0.50000000000000
   0
VERTEX
   5
9A
 100
AcDbEntity
   8
0
   6
BYBLOCK
  62
0
 100
AcDbVertex
 100
AcDb2dVertex
  10
-0.25000000000000
  20
0.0
  30
0.0
  42
 1.0000000000000
  40
 0.50000000000000
  41
 0.50000000000000
   0
VERTEX
   5
9B
 100
AcDbEntity
   8
0
   6
BYBLOCK
  62
0
 100
AcDbVertex
 100
AcDb2dVertex
  10
 0.25000000000000
  20
0.0
  30
0.0
  42
 1.0000000000000
  40
 0.50000000000000
  41
 0.50000000000000
   0
SEQEND
   5
9C
 100
AcDbEntity
   8
0
   6
BYBLOCK
  62
0
   0
LINE
   5
9D
 100
AcDbEntity
   8
0
 370
-2
 100
AcDbLine
   6
BYBLOCK
  62
0
  10
-0.50000000000000
  20
0.0
  30
0.0
  11
-1.0000000000000
  21
0.0
  31
0.0
   0
ENDBLK
   5
9E
 100
AcDbEntity
   8
0
 100
AcDbBlockEnd
   0
BLOCK
   5
9F
 100
AcDbEntity
   8
0
 100
AcDbBlockBegin
   2
_DOTSMALL
  70
0
  10
0.0
  20
0.0
  30
0.0
   3
_DOTSMALL
   0
POLYLINE
   5
A0
 100
AcDbEntity
   8
0
 370
-2
   6
BYBLOCK
  62
0
 100
AcDb2dPolyline
  66
1
  10
0.0
  20
0.0
  30
0.0
  70
1
  40
 0.50000000000000
  41
 0.50000000000000
   0
VERTEX
   5
A1
 100
AcDbEntity
   8
0
   6
BYBLOCK
  62
0
 100
AcDbVertex
 100
AcDb2dVertex
  10
-0.62500000000000E-1
  20
0.0
  30
0.0
  42
 1.0000000000000
  40
 0.50000000000000
  41
 0.50000000000000
   0
VERTEX
   5
A2
 100
AcDbEntity
   8
0
   6
BYBLOCK
  62
0
 100
AcDbVertex
 100
AcDb2dVertex
  10
 0.62500000000000E-1
  20
0.0
  30
0.0
  42
 1.0000000000000
  40
 0.50000000000000
  41
 0.50000000000000
   0
SEQEND
   5
A3
 100
AcDbEntity
   8
0
   6
BYBLOCK
  62
0
   0
ENDBLK
   5
A4
 100
AcDbEntity
   8
0
 100
AcDbBlockEnd
   0
BLOCK
   5
A5
 100
AcDbEntity
   8
0
 100
AcDbBlockBegin
   2
_DATUMBLANK
  70
0
  10
0.0
  20
0.0
  30
0.0
   3
_DATUMBLANK
   0
LINE
   5
A6
 100
AcDbEntity
   8
0
 370
-2
 100
AcDbLine
   6
BYBLOCK
  62
0
  10
0.0
  20
 0.57735027000000
  30
0.0
  11
-1.0000000000000
  21
0.0
  31
0.0
   0
LINE
   5
A7
 100
AcDbEntity
   8
0
 370
-2
 100
AcDbLine
   6
BYBLOCK
  62
0
  10
-1.0000000000000
  20
0.0
  30
0.0
  11
0.0
  21
-0.57735027000000
  31
0.0
   0
LINE
   5
A8
 100
AcDbEntity
   8
0
 370
-2
 100
AcDbLine
   6
BYBLOCK
  62
0
  10
0.0
  20
-0.57735027000000
  30
0.0
  11
0.0
  21
 0.57735027000000
  31
0.0
   0
ENDBLK
   5
A9
 100
AcDbEntity
   8
0
 100
AcDbBlockEnd
   0
BLOCK
   5
AA
 100
AcDbEntity
   8
0
 100
AcDbBlockBegin
   2
_DATUMFILLED
  70
0
  10
0.0
  20
0.0
  30
0.0
   3
_DATUMFILLED
   0
SOLID
   5
AB
 100
AcDbEntity
   8
0
 100
AcDbTrace
   6
BYBLOCK
  62
0
  10
0.0
  20
 0.57735027000000
  30
0.0
  11
-1.0000000000000
  21
0.0
  31
0.0
  12
0.0
  22
-0.57735027000000
  32
0.0
  13
0.0
  23
-0.57735027000000
  33
0.0
   0
ENDBLK
   5
AC
 100
AcDbEntity
   8
0
 100
AcDbBlockEnd
   0
BLOCK
   5
AD
 100
AcDbEntity
   8
0
 100
AcDbBlockBegin
   2
_ORIGIN
  70
0
  10
0.0
  20
0.0
  30
0.0
   3
_ORIGIN
   0
CIRCLE
   5
AE
 100
AcDbEntity
   8
0
 370
-2
 100
AcDbCircle
   6
BYBLOCK
  62
0
  10
0.0
  20
0.0
  30
0.0
  40
 0.50000000000000
   0
LINE
   5
AF
 100
AcDbEntity
   8
0
 370
-2
 100
AcDbLine
   6
BYBLOCK
  62
0
  10
0.0
  20
0.0
  30
0.0
  11
-1.0000000000000
  21
0.0
  31
0.0
   0
ENDBLK
   5
B0
 100
AcDbEntity
   8
0
 100
AcDbBlockEnd
   0
BLOCK
   5
B1
 100
AcDbEntity
   8
0
 100
AcDbBlockBegin
   2
_NONE
  70
0
  10
0.0
  20
0.0
  30
0.0
   3
_NONE
   0
CIRCLE
   5
B2
 100
AcDbEntity
   8
0
 370
-2
 100
AcDbCircle
   6
BYBLOCK
  62
0
  10
0.0
  20
0.0
  30
0.0
  40
 0.25000000000000
   0
ENDBLK
   5
B3
 100
AcDbEntity
   8
0
 100
AcDbBlockEnd
   0
BLOCK
   5
B4
 100
AcDbEntity
   8
0
 100
AcDbBlockBegin
   2
_DOTBLANK
  70
0
  10
0.0
  20
0.0
  30
0.0
   3
_DOTBLANK
   0
CIRCLE
   5
B5
 100
AcDbEntity
   8
0
 370
-2
 100
AcDbCircle
   6
BYBLOCK
  62
0
  10
0.0
  20
0.0
  30
0.0
  40
 0.50000000000000
   0
LINE
   5
B6
 100
AcDbEntity
   8
0
 370
-2
 100
AcDbLine
   6
BYBLOCK
  62
0
  10
-0.50000000000000
  20
0.0
  30
0.0
  11
-1.0000000000000
  21
0.0
  31
0.0
   0
ENDBLK
   5
B7
 100
AcDbEntity
   8
0
 100
AcDbBlockEnd
   0
BLOCK
   5
B8
 100
AcDbEntity
   8
0
 100
AcDbBlockBegin
   2
_INTEGRAL
  70
0
  10
0.0
  20
0.0
  30
0.0
   3
_INTEGRAL
   0
ARC
   5
B9
 100
AcDbEntity
   8
0
 370
-2
   6
BYBLOCK
  62
0
 100
AcDbCircle
  10
 0.44488800000000
  20
-0.91335000000000E-1
  30
0.0
  40
 0.45416700000000
 100
AcDbArc
  50
 102.00000000000
  51
 168.00000000000
   0
ARC
   5
BA
 100
AcDbEntity
   8
0
 370
-2
   6
BYBLOCK
  62
0
 100
AcDbCircle
  10
-0.44488800000000
  20
 0.91335000000000E-1
  30
0.0
  40
 0.45416700000000
 100
AcDbArc
  50
 282.00000000000
  51
 348.00000000000
   0
ENDBLK
   5
BB
 100
AcDbEntity
   8
0
 100
AcDbBlockEnd
   0
BLOCK
   5
BC
 100
AcDbEntity
   8
0
 100
AcDbBlockBegin
   2
*D1
  70
65
  10
0.0
  20
0.0
  30
0.0
   3
*D1
   0
LINE
   5
BD
 100
AcDbEntity
   8
0
 370
15
 100
AcDbLine
   6
CONTINUOUS
  62
8
  10
 44.418217636390
  20
 249.61296296296
  30
0.0
  11
 44.418217636390
  21
 240.42962962963
  31
0.0
   0
LINE
   5
BE
 100
AcDbEntity
   8
0
 370
15
 100
AcDbLine
   6
CONTINUOUS
  62
8
  10
 56.418217636394
  20
 249.61296296296
  30
0.0
  11
 56.418217636394
  21
 240.42962962963
  31
0.0
   0
LINE
   5
BF
 100
AcDbEntity
   8
0
 370
15
 100
AcDbLine
   6
CONTINUOUS
  62
8
  10
 44.418217636390
  20
 241.42962962963
  30
0.0
  11
 50.418217636392
  21
 241.42962962963
  31
0.0
   0
LINE
   5
C0
 100
AcDbEntity
   8
0
 370
15
 100
AcDbLine
   6
CONTINUOUS
  62
8
  10
 56.418217636394
  20
 241.42962962963
  30
0.0
  11
 50.418217636392
  21
 241.42962962963
  31
0.0
   0
SOLID
   5
C1
 100
AcDbEntity
   8
0
 100
AcDbTrace
   6
CONTINUOUS
  62
8
  10
 44.418217636390
  20
 241.42962962963
  30
0.0
  11
 46.418217636390
  21
 241.07697566821
  31
0.0
  12
 46.418217636390
  22
 241.78228359104
  32
0.0
  13
 46.418217636390
  23
 241.78228359104
  33
0.0
   0
SOLID
   5
C2
 100
AcDbEntity
   8
0
 100
AcDbTrace
   6
CONTINUOUS
  62
8
  10
 56.418217636394
  20
 241.42962962963
  30
0.0
  11
 54.418217636394
  21
 241.78228359104
  31
0.0
  12
 54.418217636394
  22
 241.07697566821
  32
0.0
  13
 54.418217636394
  23
 241.07697566821
  33
0.0
   0
MTEXT
   5
C3
 100
AcDbEntity
   8
0
 370
15
  62
8
 100
AcDbMText
  10
 50.418217636392
  20
 242.42962962963
  30
0.0
  40
 3.0000000000000
  41
0.0
  71
8
  72
1
   1
\A1;12
   7
GMM002
   0
ENDBLK
   5
C4
 100
AcDbEntity
   8
0
 100
AcDbBlockEnd
   0
BLOCK
   5
C5
 100
AcDbEntity
   8
0
 100
AcDbBlockBegin
   2
*D2
  70
65
  10
0.0
  20
0.0
  30
0.0
   3
*D2
   0
LINE
   5
C6
 100
AcDbEntity
   8
0
 370
15
 100
AcDbLine
   6
CONTINUOUS
  62
8
  10
 44.168217636392
  20
 250.61296296296
  30
0.0
  11
 44.168217636392
  21
 234.56296296296
  31
0.0
   0
LINE
   5
C7
 100
AcDbEntity
   8
0
 370
15
 100
AcDbLine
   6
CONTINUOUS
  62
8
  10
 56.668217636392
  20
 250.61296296296
  30
0.0
  11
 56.668217636392
  21
 234.56296296296
  31
0.0
   0
LINE
   5
C8
 100
AcDbEntity
   8
0
 370
15
 100
AcDbLine
   6
CONTINUOUS
  62
8
  10
 44.168217636392
  20
 235.56296296296
  30
0.0
  11
 50.418217636392
  21
 235.56296296296
  31
0.0
   0
LINE
   5
C9
 100
AcDbEntity
   8
0
 370
15
 100
AcDbLine
   6
CONTINUOUS
  62
8
  10
 56.668217636392
  20
 235.56296296296
  30
0.0
  11
 50.418217636392
  21
 235.56296296296
  31
0.0
   0
SOLID
   5
CA
 100
AcDbEntity
   8
0
 100
AcDbTrace
   6
CONTINUOUS
  62
8
  10
 44.168217636392
  20
 235.56296296296
  30
0.0
  11
 46.168217636392
  21
 235.21030900154
  31
0.0
  12
 46.168217636392
  22
 235.91561692438
  32
0.0
  13
 46.168217636392
  23
 235.91561692438
  33
0.0
   0
SOLID
   5
CB
 100
AcDbEntity
   8
0
 100
AcDbTrace
   6
CONTINUOUS
  62
8
  10
 56.668217636392
  20
 235.56296296296
  30
0.0
  11
 54.668217636392
  21
 235.91561692438
  31
0.0
  12
 54.668217636392
  22
 235.21030900154
  32
0.0
  13
 54.668217636392
  23
 235.21030900154
  33
0.0
   0
MTEXT
   5
CC
 100
AcDbEntity
   8
0
 370
15
  62
8
 100
AcDbMText
  10
 50.418217636392
  20
 236.56296296296
  30
0.0
  40
 3.0000000000000
  41
0.0
  71
8
  72
1
   1
\A1;12.5
   7
GMM002
   0
ENDBLK
   5
CD
 100
AcDbEntity
   8
0
 100
AcDbBlockEnd
   0
BLOCK
   5
CE
 100
AcDbEntity
   8
0
 100
AcDbBlockBegin
   2
*D3
  70
65
  10
0.0
  20
0.0
  30
0.0
   3
*D3
   0
LINE
   5
CF
 100
AcDbEntity
   8
0
 370
15
 100
AcDbLine
   6
CONTINUOUS
  62
8
  10
 45.518217636392
  20
 255.21296296296
  30
0.0
  11
 45.518217636392
  21
 260.57283950617
  31
0.0
   0
LINE
   5
D0
 100
AcDbEntity
   8
0
 370
15
 100
AcDbLine
   6
CONTINUOUS
  62
8
  10
 55.318217636392
  20
 255.21296296296
  30
0.0
  11
 55.318217636392
  21
 260.57283950617
  31
0.0
   0
LINE
   5
D1
 100
AcDbEntity
   8
0
 370
15
 100
AcDbLine
   6
CONTINUOUS
  62
8
  10
 45.518217636392
  20
 259.57283950617
  30
0.0
  11
 50.418217636392
  21
 259.57283950617
  31
0.0
   0
LINE
   5
D2
 100
AcDbEntity
   8
0
 370
15
 100
AcDbLine
   6
CONTINUOUS
  62
8
  10
 55.318217636392
  20
 259.57283950617
  30
0.0
  11
 50.418217636392
  21
 259.57283950617
  31
0.0
   0
SOLID
   5
D3
 100
AcDbEntity
   8
0
 100
AcDbTrace
   6
CONTINUOUS
  62
8
  10
 45.518217636392
  20
 259.57283950617
  30
0.0
  11
 47.518217636392
  21
 259.22018554476
  31
0.0
  12
 47.518217636392
  22
 259.92549346759
  32
0.0
  13
 47.518217636392
  23
 259.92549346759
  33
0.0
   0
SOLID
   5
D4
 100
AcDbEntity
   8
0
 100
AcDbTrace
   6
CONTINUOUS
  62
8
  10
 55.318217636392
  20
 259.57283950617
  30
0.0
  11
 53.318217636392
  21
 259.92549346759
  31
0.0
  12
 53.318217636392
  22
 259.22018554476
  32
0.0
  13
 53.318217636392
  23
 259.22018554476
  33
0.0
   0
MTEXT
   5
D5
 100
AcDbEntity
   8
0
 370
15
  62
8
 100
AcDbMText
  10
 50.418217636392
  20
 260.57283950617
  30
0.0
  40
 3.0000000000000
  41
0.0
  71
8
  72
1
   1
\A1;9.8
   7
GMM002
   0
ENDBLK
   5
D6
 100
AcDbEntity
   8
0
 100
AcDbBlockEnd
   0
BLOCK
   5
D7
 100
AcDbEntity
   8
0
 100
AcDbBlockBegin
   2
*D4
  70
65
  10
0.0
  20
0.0
  30
0.0
   3
*D4
   0
LINE
   5
D8
 100
AcDbEntity
   8
0
 370
15
 100
AcDbLine
   6
CONTINUOUS
  62
8
  10
 43.218217636392
  20
 254.82481037094
  30
0.0
  11
 43.218217636392
  21
 266.87407407407
  31
0.0
   0
LINE
   5
D9
 100
AcDbEntity
   8
0
 370
15
 100
AcDbLine
   6
CONTINUOUS
  62
8
  10
 57.618217636392
  20
 254.82481037094
  30
0.0
  11
 57.618217636392
  21
 266.87407407407
  31
0.0
   0
LINE
   5
DA
 100
AcDbEntity
   8
0
 370
15
 100
AcDbLine
   6
CONTINUOUS
  62
8
  10
 43.218217636392
  20
 265.87407407407
  30
0.0
  11
 50.418217636392
  21
 265.87407407407
  31
0.0
   0
LINE
   5
DB
 100
AcDbEntity
   8
0
 370
15
 100
AcDbLine
   6
CONTINUOUS
  62
8
  10
 57.618217636392
  20
 265.87407407407
  30
0.0
  11
 50.418217636392
  21
 265.87407407407
  31
0.0
   0
SOLID
   5
DC
 100
AcDbEntity
   8
0
 100
AcDbTrace
   6
CONTINUOUS
  62
8
  10
 43.218217636392
  20
 265.87407407407
  30
0.0
  11
 45.218217636392
  21
 265.52142011266
  31
0.0
  12
 45.218217636392
  22
 266.22672803549
  32
0.0
  13
 45.218217636392
  23
 266.22672803549
  33
0.0
   0
SOLID
   5
DD
 100
AcDbEntity
   8
0
 100
AcDbTrace
   6
CONTINUOUS
  62
8
  10
 57.618217636392
  20
 265.87407407407
  30
0.0
  11
 55.618217636392
  21
 266.22672803549
  31
0.0
  12
 55.618217636392
  22
 265.52142011266
  32
0.0
  13
 55.618217636392
  23
 265.52142011266
  33
0.0
   0
MTEXT
   5
DE
 100
AcDbEntity
   8
0
 370
15
  62
8
 100
AcDbMText
  10
 50.418217636392
  20
 266.87407407407
  30
0.0
  40
 3.0000000000000
  41
0.0
  71
8
  72
1
   1
\A1;14.4
   7
GMM002
   0
ENDBLK
   5
DF
 100
AcDbEntity
   8
0
 100
AcDbBlockEnd
   0
BLOCK
   5
E0
 100
AcDbEntity
   8
0
 100
AcDbBlockBegin
   2
*D5
  70
65
  10
0.0
  20
0.0
  30
0.0
   3
*D5
   0
LINE
   5
E1
 100
AcDbEntity
   8
0
 370
15
 100
AcDbLine
   6
CONTINUOUS
  62
8
  10
 57.118217636392
  20
 248.61296296296
  30
0.0
  11
 65.100362126562
  21
 248.61296296296
  31
0.0
   0
LINE
   5
E2
 100
AcDbEntity
   8
0
 370
15
 100
AcDbLine
   6
CONTINUOUS
  62
8
  10
 58.518217636392
  20
 253.61296296296
  30
0.0
  11
 65.100362126562
  21
 253.61296296296
  31
0.0
   0
LINE
   5
E3
 100
AcDbEntity
   8
0
 370
15
 100
AcDbLine
   6
CONTINUOUS
  62
8
  10
 64.100362126562
  20
 248.61296296296
  30
0.0
  11
 64.100362126562
  21
 251.11296296296
  31
0.0
   0
LINE
   5
E4
 100
AcDbEntity
   8
0
 370
15
 100
AcDbLine
   6
CONTINUOUS
  62
8
  10
 64.100362126562
  20
 253.61296296296
  30
0.0
  11
 64.100362126562
  21
 251.11296296296
  31
0.0
   0
SOLID
   5
E5
 100
AcDbEntity
   8
0
 100
AcDbTrace
   6
CONTINUOUS
  62
8
  10
 64.100362126562
  20
 248.61296296296
  30
0.0
  11
 64.453016087979
  21
 250.61296296296
  31
0.0
  12
 63.747708165145
  22
 250.61296296296
  32
0.0
  13
 63.747708165145
  23
 250.61296296296
  33
0.0
   0
SOLID
   5
E6
 100
AcDbEntity
   8
0
 100
AcDbTrace
   6
CONTINUOUS
  62
8
  10
 64.100362126562
  20
 253.61296296296
  30
0.0
  11
 63.747708165145
  21
 251.61296296296
  31
0.0
  12
 64.453016087979
  22
 251.61296296296
  32
0.0
  13
 64.453016087979
  23
 251.61296296296
  33
0.0
   0
MTEXT
   5
E7
 100
AcDbEntity
   8
0
 370
15
  62
8
 100
AcDbMText
  10
 63.100362126562
  20
 251.11296296296
  30
0.0
  40
 3.0000000000000
  41
0.0
  71
8
  72
1
   1
\A1;5
   7
GMM002
  11
0.0
  21
 1.0000000000000
  31
0.0
   0
ENDBLK
   5
E8
 100
AcDbEntity
   8
0
 100
AcDbBlockEnd
   0
BLOCK
   5
E9
 100
AcDbEntity
   8
0
 100
AcDbBlockBegin
   2
*D6
  70
65
  10
0.0
  20
0.0
  30
0.0
   3
*D6
   0
LINE
   5
EA
 100
AcDbEntity
   8
0
 370
15
 100
AcDbLine
   6
CONTINUOUS
  62
8
  10
 60.718217636392
  20
 248.61296296296
  30
0.0
  11
 71.280883388565
  21
 248.61296296296
  31
0.0
   0
LINE
   5
EB
 100
AcDbEntity
   8
0
 370
15
 100
AcDbLine
   6
CONTINUOUS
  62
8
  10
 57.724492243073
  20
 254.71296296296
  30
0.0
  11
 71.280883388565
  21
 254.71296296296
  31
0.0
   0
LINE
   5
EC
 100
AcDbEntity
   8
0
 370
15
 100
AcDbLine
   6
CONTINUOUS
  62
8
  10
 70.280883388565
  20
 248.61296296296
  30
0.0
  11
 70.280883388565
  21
 251.66296296296
  31
0.0
   0
LINE
   5
ED
 100
AcDbEntity
   8
0
 370
15
 100
AcDbLine
   6
CONTINUOUS
  62
8
  10
 70.280883388565
  20
 254.71296296296
  30
0.0
  11
 70.280883388565
  21
 251.66296296296
  31
0.0
   0
SOLID
   5
EE
 100
AcDbEntity
   8
0
 100
AcDbTrace
   6
CONTINUOUS
  62
8
  10
 70.280883388565
  20
 248.61296296296
  30
0.0
  11
 70.633537349982
  21
 250.61296296296
  31
0.0
  12
 69.928229427148
  22
 250.61296296296
  32
0.0
  13
 69.928229427148
  23
 250.61296296296
  33
0.0
   0
SOLID
   5
EF
 100
AcDbEntity
   8
0
 100
AcDbTrace
   6
CONTINUOUS
  62
8
  10
 70.280883388565
  20
 254.71296296296
  30
0.0
  11
 69.928229427148
  21
 252.71296296296
  31
0.0
  12
 70.633537349982
  22
 252.71296296296
  32
0.0
  13
 70.633537349982
  23
 252.71296296296
  33
0.0
   0
MTEXT
   5
F0
 100
AcDbEntity
   8
0
 370
15
  62
8
 100
AcDbMText
  10
 69.280883388565
  20
 251.66296296296
  30
0.0
  40
 3.0000000000000
  41
0.0
  71
8
  72
1
   1
\A1;6.1
   7
GMM002
  11
0.0
  21
 1.0000000000000
  31
0.0
   0
ENDBLK
   5
F1
 100
AcDbEntity
   8
0
 100
AcDbBlockEnd
   0
BLOCK
   5
F2
 100
AcDbEntity
   8
0
 100
AcDbBlockBegin
   2
*D7
  70
65
  10
0.0
  20
0.0
  30
0.0
   3
*D7
   0
LINE
   5
F3
 100
AcDbEntity
   8
0
 370
15
 100
AcDbLine
   6
CONTINUOUS
  62
8
  10
 49.427580543368
  20
 37.432098765417
  30
0.0
  11
 61.427580543368
  21
 37.432098765417
  31
0.0
   0
LINE
   5
F4
 100
AcDbEntity
   8
0
 370
15
 100
AcDbLine
   6
CONTINUOUS
  62
8
  10
 49.427580543368
  20
 187.43209876541
  30
0.0
  11
 61.427580543368
  21
 187.43209876541
  31
0.0
   0
LINE
   5
F5
 100
AcDbEntity
   8
0
 370
15
 100
AcDbLine
   6
CONTINUOUS
  62
8
  10
 60.427580543368
  20
 37.432098765417
  30
0.0
  11
 60.427580543368
  21
 112.43209876542
  31
0.0
   0
LINE
   5
F6
 100
AcDbEntity
   8
0
 370
15
 100
AcDbLine
   6
CONTINUOUS
  62
8
  10
 60.427580543368
  20
 187.43209876541
  30
0.0
  11
 60.427580543368
  21
 112.43209876542
  31
0.0
   0
SOLID
   5
F7
 100
AcDbEntity
   8
0
 100
AcDbTrace
   6
CONTINUOUS
  62
8
  10
 60.427580543368
  20
 37.432098765417
  30
0.0
  11
 60.780234504784
  21
 39.432098765417
  31
0.0
  12
 60.074926581951
  22
 39.432098765417
  32
0.0
  13
 60.074926581951
  23
 39.432098765417
  33
0.0
   0
SOLID
   5
F8
 100
AcDbEntity
   8
0
 100
AcDbTrace
   6
CONTINUOUS
  62
8
  10
 60.427580543368
  20
 187.43209876541
  30
0.0
  11
 60.074926581951
  21
 185.43209876541
  31
0.0
  12
 60.780234504784
  22
 185.43209876541
  32
0.0
  13
 60.780234504784
  23
 185.43209876541
  33
0.0
   0
MTEXT
   5
F9
 100
AcDbEntity
   8
0
 370
15
  62
8
 100
AcDbMText
  10
 59.427580543368
  20
 112.43209876542
  30
0.0
  40
 3.0000000000000
  41
0.0
  71
8
  72
1
   1
\A1;ロング引手長さ
   7
GMM002
  11
0.0
  21
 1.0000000000000
  31
0.0
   0
ENDBLK
   5
FA
 100
AcDbEntity
   8
0
 100
AcDbBlockEnd
   0
BLOCK
   5
FB
 100
AcDbEntity
   8
0
 100
AcDbBlockBegin
   2
*D8
  70
65
  10
0.0
  20
0.0
  30
0.0
   3
*D8
   0
LINE
   5
FC
 100
AcDbEntity
   8
0
 370
15
 100
AcDbLine
   6
CONTINUOUS
  62
8
  10
 33.827580543368
  20
 36.432098765417
  30
0.0
  11
 33.827580543368
  21
 26.432098765417
  31
0.0
   0
LINE
   5
FD
 100
AcDbEntity
   8
0
 370
15
 100
AcDbLine
   6
CONTINUOUS
  62
8
  10
 48.427580543368
  20
 36.432098765417
  30
0.0
  11
 48.427580543368
  21
 26.432098765417
  31
0.0
   0
LINE
   5
FE
 100
AcDbEntity
   8
0
 370
15
 100
AcDbLine
   6
CONTINUOUS
  62
8
  10
 33.827580543368
  20
 27.432098765417
  30
0.0
  11
 41.127580543368
  21
 27.432098765417
  31
0.0
   0
LINE
   5
FF
 100
AcDbEntity
   8
0
 370
15
 100
AcDbLine
   6
CONTINUOUS
  62
8
  10
 48.427580543368
  20
 27.432098765417
  30
0.0
  11
 41.127580543368
  21
 27.432098765417
  31
0.0
   0
SOLID
   5
100
 100
AcDbEntity
   8
0
 100
AcDbTrace
   6
CONTINUOUS
  62
8
  10
 33.827580543368
  20
 27.432098765417
  30
0.0
  11
 35.827580543368
  21
 27.079444804000
  31
0.0
  12
 35.827580543368
  22
 27.784752726834
  32
0.0
  13
 35.827580543368
  23
 27.784752726834
  33
0.0
   0
SOLID
   5
101
 100
AcDbEntity
   8
0
 100
AcDbTrace
   6
CONTINUOUS
  62
8
  10
 48.427580543368
  20
 27.432098765417
  30
0.0
  11
 46.427580543368
  21
 27.784752726834
  31
0.0
  12
 46.427580543368
  22
 27.079444804000
  32
0.0
  13
 46.427580543368
  23
 27.079444804000
  33
0.0
   0
MTEXT
   5
102
 100
AcDbEntity
   8
0
 370
15
  62
8
 100
AcDbMText
  10
 41.127580543368
  20
 28.432098765417
  30
0.0
  40
 3.0000000000000
  41
0.0
  71
8
  72
1
   1
\A1;14.4
   7
GMM002
   0
ENDBLK
   5
103
 100
AcDbEntity
   8
0
 100
AcDbBlockEnd
   0
BLOCK
   5
104
 100
AcDbEntity
   8
0
 100
AcDbBlockBegin
   2
*D9
  70
65
  10
0.0
  20
0.0
  30
0.0
   3
*D9
   0
LINE
   5
105
 100
AcDbEntity
   8
0
 370
15
 100
AcDbLine
   6
CONTINUOUS
  62
8
  10
 87.285146453229
  20
 37.432098765417
  30
0.0
  11
 99.285146453234
  21
 37.432098765417
  31
0.0
   0
LINE
   5
106
 100
AcDbEntity
   8
0
 370
15
 100
AcDbLine
   6
CONTINUOUS
  62
8
  10
 87.285146453229
  20
 187.43209876541
  30
0.0
  11
 99.285146453234
  21
 187.43209876541
  31
0.0
   0
LINE
   5
107
 100
AcDbEntity
   8
0
 370
15
 100
AcDbLine
   6
CONTINUOUS
  62
8
  10
 98.285146453234
  20
 37.432098765417
  30
0.0
  11
 98.285146453234
  21
 112.43209876542
  31
0.0
   0
LINE
   5
108
 100
AcDbEntity
   8
0
 370
15
 100
AcDbLine
   6
CONTINUOUS
  62
8
  10
 98.285146453234
  20
 187.43209876541
  30
0.0
  11
 98.285146453234
  21
 112.43209876542
  31
0.0
   0
SOLID
   5
109
 100
AcDbEntity
   8
0
 100
AcDbTrace
   6
CONTINUOUS
  62
8
  10
 98.285146453234
  20
 37.432098765417
  30
0.0
  11
 98.637800414651
  21
 39.432098765417
  31
0.0
  12
 97.932492491818
  22
 39.432098765417
  32
0.0
  13
 97.932492491818
  23
 39.432098765417
  33
0.0
   0
SOLID
   5
10A
 100
AcDbEntity
   8
0
 100
AcDbTrace
   6
CONTINUOUS
  62
8
  10
 98.285146453234
  20
 187.43209876541
  30
0.0
  11
 97.932492491818
  21
 185.43209876541
  31
0.0
  12
 98.637800414651
  22
 185.43209876541
  32
0.0
  13
 98.637800414651
  23
 185.43209876541
  33
0.0
   0
MTEXT
   5
10B
 100
AcDbEntity
   8
0
 370
15
  62
8
 100
AcDbMText
  10
 97.285146453234
  20
 112.43209876542
  30
0.0
  40
 3.0000000000000
  41
0.0
  71
8
  72
1
   1
\A1;戸高全長
   7
GMM002
  11
0.0
  21
 1.0000000000000
  31
0.0
   0
ENDBLK
   5
10C
 100
AcDbEntity
   8
0
 100
AcDbBlockEnd
   0
BLOCK
   5
10D
 100
AcDbEntity
   8
0
 100
AcDbBlockBegin
   2
*D10
  70
65
  10
0.0
  20
0.0
  30
0.0
   3
*D10
   0
LINE
   5
10E
 100
AcDbEntity
   8
0
 370
15
 100
AcDbLine
   6
CONTINUOUS
  62
8
  10
 73.885146453229
  20
 36.432098765417
  30
0.0
  11
 73.885146453229
  21
 26.432098765417
  31
0.0
   0
LINE
   5
10F
 100
AcDbEntity
   8
0
 370
15
 100
AcDbLine
   6
CONTINUOUS
  62
8
  10
 86.285146453229
  20
 36.432098765417
  30
0.0
  11
 86.285146453229
  21
 26.432098765417
  31
0.0
   0
LINE
   5
110
 100
AcDbEntity
   8
0
 370
15
 100
AcDbLine
   6
CONTINUOUS
  62
8
  10
 73.885146453229
  20
 27.432098765417
  30
0.0
  11
 80.085146453229
  21
 27.432098765417
  31
0.0
   0
LINE
   5
111
 100
AcDbEntity
   8
0
 370
15
 100
AcDbLine
   6
CONTINUOUS
  62
8
  10
 86.285146453229
  20
 27.432098765417
  30
0.0
  11
 80.085146453229
  21
 27.432098765417
  31
0.0
   0
SOLID
   5
112
 100
AcDbEntity
   8
0
 100
AcDbTrace
   6
CONTINUOUS
  62
8
  10
 73.885146453229
  20
 27.432098765417
  30
0.0
  11
 75.885146453229
  21
 27.079444804000
  31
0.0
  12
 75.885146453229
  22
 27.784752726834
  32
0.0
  13
 75.885146453229
  23
 27.784752726834
  33
0.0
   0
SOLID
   5
113
 100
AcDbEntity
   8
0
 100
AcDbTrace
   6
CONTINUOUS
  62
8
  10
 86.285146453229
  20
 27.432098765417
  30
0.0
  11
 84.285146453229
  21
 27.784752726834
  31
0.0
  12
 84.285146453229
  22
 27.079444804000
  32
0.0
  13
 84.285146453229
  23
 27.079444804000
  33
0.0
   0
MTEXT
   5
114
 100
AcDbEntity
   8
0
 370
15
  62
8
 100
AcDbMText
  10
 80.085146453229
  20
 28.432098765417
  30
0.0
  40
 3.0000000000000
  41
0.0
  71
8
  72
1
   1
\A1;12{\H0.625x;\S+0.4^  0;}
   7
GMM002
   0
ENDBLK
   5
115
 100
AcDbEntity
   8
0
 100
AcDbBlockEnd
   0
BLOCK
   5
116
 100
AcDbEntity
   8
0
 100
AcDbBlockBegin
   2
*D11
  70
65
  10
0.0
  20
0.0
  30
0.0
   3
*D11
   0
LINE
   5
117
 100
AcDbEntity
   8
0
 370
15
 100
AcDbLine
   6
CONTINUOUS
  62
8
  10
 119.90524918365
  20
 151.92076300344
  30
0.0
  11
 115.59323206428
  21
 151.92076300344
  31
0.0
   0
LINE
   5
118
 100
AcDbEntity
   8
0
 370
15
 100
AcDbLine
   6
CONTINUOUS
  62
8
  10
 119.90524918365
  20
 137.52076300344
  30
0.0
  11
 115.59323206428
  21
 137.52076300344
  31
0.0
   0
LINE
   5
119
 100
AcDbEntity
   8
0
 370
15
 100
AcDbLine
   6
CONTINUOUS
  62
8
  10
 116.59323206428
  20
 151.92076300344
  30
0.0
  11
 116.59323206428
  21
 144.72076300344
  31
0.0
   0
LINE
   5
11A
 100
AcDbEntity
   8
0
 370
15
 100
AcDbLine
   6
CONTINUOUS
  62
8
  10
 116.59323206428
  20
 137.52076300344
  30
0.0
  11
 116.59323206428
  21
 144.72076300344
  31
0.0
   0
SOLID
   5
11B
 100
AcDbEntity
   8
0
 100
AcDbTrace
   6
CONTINUOUS
  62
8
  10
 116.59323206428
  20
 151.92076300344
  30
0.0
  11
 116.24057810287
  21
 149.92076300344
  31
0.0
  12
 116.94588602570
  22
 149.92076300344
  32
0.0
  13
 116.94588602570
  23
 149.92076300344
  33
0.0
   0
SOLID
   5
11C
 100
AcDbEntity
   8
0
 100
AcDbTrace
   6
CONTINUOUS
  62
8
  10
 116.59323206428
  20
 137.52076300344
  30
0.0
  11
 116.94588602570
  21
 139.52076300344
  31
0.0
  12
 116.24057810287
  22
 139.52076300344
  32
0.0
  13
 116.24057810287
  23
 139.52076300344
  33
0.0
   0
MTEXT
   5
11D
 100
AcDbEntity
   8
0
 370
15
  62
8
 100
AcDbMText
  10
 115.59323206428
  20
 144.72076300344
  30
0.0
  40
 3.0000000000000
  41
0.0
  71
8
  72
1
   1
\A1;14.4
   7
GMM002
  11
0.0
  21
 1.0000000000000
  31
0.0
   0
ENDBLK
   5
11E
 100
AcDbEntity
   8
0
 100
AcDbBlockEnd
   0
BLOCK
   5
11F
 100
AcDbEntity
   8
0
 100
AcDbBlockBegin
   2
*D12
  70
65
  10
0.0
  20
0.0
  30
0.0
   3
*D12
   0
LINE
   5
120
 100
AcDbEntity
   8
0
 370
15
 100
AcDbLine
   6
CONTINUOUS
  62
8
  10
 120.01709659163
  20
 137.51448839676
  30
0.0
  11
 120.01709659163
  21
 132.09900614910
  31
0.0
   0
LINE
   5
121
 100
AcDbEntity
   8
0
 370
15
 100
AcDbLine
   6
CONTINUOUS
  62
8
  10
 111.79159319476
  20
 133.09900614910
  30
0.0
  11
 120.56709659163
  21
 133.09900614910
  31
0.0
   0
LINE
   5
122
 100
AcDbEntity
   8
0
 370
15
 100
AcDbLine
   6
CONTINUOUS
  62
8
  10
 123.61709659163
  20
 133.09900614910
  30
0.0
  11
 120.56709659163
  21
 133.09900614910
  31
0.0
   0
SOLID
   5
123
 100
AcDbEntity
   8
0
 100
AcDbTrace
   6
CONTINUOUS
  62
8
  10
 120.01709659163
  20
 133.09900614910
  30
0.0
  11
 118.01709659163
  21
 133.45166011052
  31
0.0
  12
 118.01709659163
  22
 132.74635218769
  32
0.0
  13
 118.01709659163
  23
 132.74635218769
  33
0.0
   0
SOLID
   5
124
 100
AcDbEntity
   8
0
 100
AcDbTrace
   6
CONTINUOUS
  62
8
  10
 121.11709659163
  20
 133.09900614910
  30
0.0
  11
 123.11709659163
  21
 132.74635218769
  31
0.0
  12
 123.11709659163
  22
 133.45166011052
  32
0.0
  13
 123.11709659163
  23
 133.45166011052
  33
0.0
   0
MTEXT
   5
125
 100
AcDbEntity
   8
0
 370
15
  62
8
 100
AcDbMText
  10
 118.54159319476
  20
 134.06006876201
  30
0.0
  40
 3.0000000000000
  41
0.0
  71
9
  72
1
   1
\A1;1.1
   7
GMM002
   0
ENDBLK
   5
126
 100
AcDbEntity
   8
0
 100
AcDbBlockEnd
   0
BLOCK
   5
127
 100
AcDbEntity
   8
0
 100
AcDbBlockBegin
   2
*D13
  70
65
  10
0.0
  20
0.0
  30
0.0
   3
*D13
   0
LINE
   5
128
 100
AcDbEntity
   8
0
 370
15
 100
AcDbLine
   6
CONTINUOUS
  62
8
  10
 147.11709659163
  20
 138.72076300344
  30
0.0
  11
 153.66001746535
  21
 138.72076300344
  31
0.0
   0
LINE
   5
129
 100
AcDbEntity
   8
0
 370
15
 100
AcDbLine
   6
CONTINUOUS
  62
8
  10
 147.11709659163
  20
 150.72076300344
  30
0.0
  11
 153.66001746535
  21
 150.72076300344
  31
0.0
   0
LINE
   5
12A
 100
AcDbEntity
   8
0
 370
15
 100
AcDbLine
   6
CONTINUOUS
  62
8
  10
 152.66001746535
  20
 138.72076300344
  30
0.0
  11
 152.66001746535
  21
 144.72076300344
  31
0.0
   0
LINE
   5
12B
 100
AcDbEntity
   8
0
 370
15
 100
AcDbLine
   6
CONTINUOUS
  62
8
  10
 152.66001746535
  20
 150.72076300344
  30
0.0
  11
 152.66001746535
  21
 144.72076300344
  31
0.0
   0
SOLID
   5
12C
 100
AcDbEntity
   8
0
 100
AcDbTrace
   6
CONTINUOUS
  62
8
  10
 152.66001746535
  20
 138.72076300344
  30
0.0
  11
 153.01267142677
  21
 140.72076300344
  31
0.0
  12
 152.30736350393
  22
 140.72076300344
  32
0.0
  13
 152.30736350393
  23
 140.72076300344
  33
0.0
   0
SOLID
   5
12D
 100
AcDbEntity
   8
0
 100
AcDbTrace
   6
CONTINUOUS
  62
8
  10
 152.66001746535
  20
 150.72076300344
  30
0.0
  11
 152.30736350393
  21
 148.72076300344
  31
0.0
  12
 153.01267142677
  22
 148.72076300344
  32
0.0
  13
 153.01267142677
  23
 148.72076300344
  33
0.0
   0
MTEXT
   5
12E
 100
AcDbEntity
   8
0
 370
15
  62
8
 100
AcDbMText
  10
 151.66001746535
  20
 144.72076300344
  30
0.0
  40
 3.0000000000000
  41
0.0
  71
8
  72
1
   1
\A1;12
   7
GMM002
  11
0.0
  21
 1.0000000000000
  31
0.0
   0
ENDBLK
   5
12F
 100
AcDbEntity
   8
0
 100
AcDbBlockEnd
   0
BLOCK
   5
130
 100
AcDbEntity
   8
0
 100
AcDbBlockBegin
   2
*D14
  70
65
  10
0.0
  20
0.0
  30
0.0
   3
*D14
   0
LINE
   5
131
 100
AcDbEntity
   8
0
 370
15
 100
AcDbLine
   6
CONTINUOUS
  62
8
  10
 141.11709659163
  20
 137.72076300344
  30
0.0
  11
 141.11709659163
  21
 132.09900614910
  31
0.0
   0
LINE
   5
132
 100
AcDbEntity
   8
0
 370
15
 100
AcDbLine
   6
CONTINUOUS
  62
8
  10
 141.11709659163
  20
 133.09900614910
  30
0.0
  11
 143.61709659163
  21
 133.09900614910
  31
0.0
   0
LINE
   5
133
 100
AcDbEntity
   8
0
 370
15
 100
AcDbLine
   6
CONTINUOUS
  62
8
  10
 146.11709659163
  20
 133.09900614910
  30
0.0
  11
 143.61709659163
  21
 133.09900614910
  31
0.0
   0
SOLID
   5
134
 100
AcDbEntity
   8
0
 100
AcDbTrace
   6
CONTINUOUS
  62
8
  10
 141.11709659163
  20
 133.09900614910
  30
0.0
  11
 143.11709659163
  21
 132.74635218769
  31
0.0
  12
 143.11709659163
  22
 133.45166011052
  32
0.0
  13
 143.11709659163
  23
 133.45166011052
  33
0.0
   0
SOLID
   5
135
 100
AcDbEntity
   8
0
 100
AcDbTrace
   6
CONTINUOUS
  62
8
  10
 146.11709659163
  20
 133.09900614910
  30
0.0
  11
 144.11709659163
  21
 133.45166011052
  31
0.0
  12
 144.11709659163
  22
 132.74635218769
  32
0.0
  13
 144.11709659163
  23
 132.74635218769
  33
0.0
   0
MTEXT
   5
136
 100
AcDbEntity
   8
0
 370
15
  62
8
 100
AcDbMText
  10
 143.61709659163
  20
 134.09900614910
  30
0.0
  40
 3.0000000000000
  41
0.0
  71
8
  72
1
   1
\A1;5
   7
GMM002
   0
ENDBLK
   5
137
 100
AcDbEntity
   8
0
 100
AcDbBlockEnd
   0
BLOCK
   5
138
 100
AcDbEntity
   8
0
 100
AcDbBlockBegin
   2
*D15
  70
65
  10
0.0
  20
0.0
  30
0.0
   3
*D15
   0
LINE
   5
139
 100
AcDbEntity
   8
0
 370
15
 100
AcDbLine
   6
CONTINUOUS
  62
8
  10
 121.11709659163
  20
 121.91422574028
  30
0.0
  11
 133.61709659163
  21
 121.91422574028
  31
0.0
   0
LINE
   5
13A
 100
AcDbEntity
   8
0
 370
15
 100
AcDbLine
   6
CONTINUOUS
  62
8
  10
 146.11709659163
  20
 121.91422574028
  30
0.0
  11
 133.61709659163
  21
 121.91422574028
  31
0.0
   0
SOLID
   5
13B
 100
AcDbEntity
   8
0
 100
AcDbTrace
   6
CONTINUOUS
  62
8
  10
 121.11709659163
  20
 121.91422574028
  30
0.0
  11
 123.11709659163
  21
 121.56157177886
  31
0.0
  12
 123.11709659163
  22
 122.26687970170
  32
0.0
  13
 123.11709659163
  23
 122.26687970170
  33
0.0
   0
SOLID
   5
13C
 100
AcDbEntity
   8
0
 100
AcDbTrace
   6
CONTINUOUS
  62
8
  10
 146.11709659163
  20
 121.91422574028
  30
0.0
  11
 144.11709659163
  21
 122.26687970170
  31
0.0
  12
 144.11709659163
  22
 121.56157177886
  32
0.0
  13
 144.11709659163
  23
 121.56157177886
  33
0.0
   0
MTEXT
   5
13D
 100
AcDbEntity
   8
0
 370
15
  62
8
 100
AcDbMText
  10
 133.61709659163
  20
 122.91422574028
  30
0.0
  40
 3.0000000000000
  41
0.0
  71
8
  72
1
   1
\A1;扉厚25mm以上
   7
GMM002
   0
ENDBLK
   5
13E
 100
AcDbEntity
   8
0
 100
AcDbBlockEnd
   0
ENDSEC
   0
SECTION
   2
ENTITIES
   0
LINE
   5
13F
 100
AcDbEntity
   8
LEVEL001
 370
30
 100
AcDbLine
   6
CONTINUOUS
  62
7
  10
 344.15000000000
  20
 272.07500000000
  30
0.0
  11
 336.95000000000
  21
 272.07500000000
  31
0.0
   0
LINE
   5
140
 100
AcDbEntity
   8
LEVEL001
 370
30
 100
AcDbLine
   6
CONTINUOUS
  62
7
  10
 336.95000000000
  20
 272.07500000000
  30
0.0
  11
 336.95000000000
  21
 261.27500000000
  31
0.0
   0
LINE
   5
141
 100
AcDbEntity
   8
LEVEL001
 370
30
 100
AcDbLine
   6
CONTINUOUS
  62
7
  10
 336.95000000000
  20
 261.27500000000
  30
0.0
  11
 340.55000000000
  21
 261.27500000000
  31
0.0
   0
LINE
   5
142
 100
AcDbEntity
   8
LEVEL001
 370
30
 100
AcDbLine
   6
CONTINUOUS
  62
7
  10
 340.55000000000
  20
 261.27500000000
  30
0.0
  11
 340.55000000000
  21
 263.07500000000
  31
0.0
   0
LINE
   5
143
 100
AcDbEntity
   8
LEVEL001
 370
30
 100
AcDbLine
   6
CONTINUOUS
  62
7
  10
 340.55000000000
  20
 263.07500000000
  30
0.0
  11
 344.15000000000
  21
 263.07500000000
  31
0.0
   0
ARC
   5
144
 100
AcDbEntity
   8
LEVEL001
 370
30
   6
CONTINUOUS
  62
7
 100
AcDbCircle
  10
 344.15000000000
  20
 267.57500000000
  30
0.0
  40
 4.5000000000000
 100
AcDbArc
  50
 270.00000000000
  51
 90.000000000000
   0
LINE
   5
145
 100
AcDbEntity
   8
LEVEL001
 370
30
 100
AcDbLine
   6
CONTINUOUS
  62
7
  10
 340.55000000000
  20
 266.67500000000
  30
0.0
  11
 344.15000000000
  21
 266.67500000000
  31
0.0
   0
ARC
   5
146
 100
AcDbEntity
   8
LEVEL001
 370
30
   6
CONTINUOUS
  62
7
 100
AcDbCircle
  10
 344.15000000000
  20
 267.57500000000
  30
0.0
  40
 0.90000000000000
 100
AcDbArc
  50
 270.00000000000
  51
 90.000000000000
   0
LINE
   5
147
 100
AcDbEntity
   8
LEVEL001
 370
30
 100
AcDbLine
   6
CONTINUOUS
  62
7
  10
 344.15000000000
  20
 268.47500000000
  30
0.0
  11
 340.55000000000
  21
 268.47500000000
  31
0.0
   0
LINE
   5
148
 100
AcDbEntity
   8
LEVEL001
 370
30
 100
AcDbLine
   6
CONTINUOUS
  62
7
  10
 340.55000000000
  20
 268.47500000000
  30
0.0
  11
 340.55000000000
  21
 266.67500000000
  31
0.0
   0
LINE
   5
149
 100
AcDbEntity
   8
LEVEL001
 370
30
 100
AcDbLine
   6
CONTINUOUS
  62
7
  10
 345.95000000000
  20
 261.27500000000
  30
0.0
  11
 353.15000000000
  21
 272.07500000000
  31
0.0
   0
LINE
   5
14A
 100
AcDbEntity
   8
LEVEL001
 370
30
 100
AcDbLine
   6
CONTINUOUS
  62
7
  10
 353.15000000000
  20
 272.07500000000
  30
0.0
  11
 362.15000000000
  21
 272.07500000000
  31
0.0
   0
LINE
   5
14B
 100
AcDbEntity
   8
LEVEL001
 370
30
 100
AcDbLine
   6
CONTINUOUS
  62
7
  10
 362.15000000000
  20
 272.07500000000
  30
0.0
  11
 362.15000000000
  21
 264.87500000000
  31
0.0
   0
LINE
   5
14C
 100
AcDbEntity
   8
LEVEL001
 370
30
 100
AcDbLine
   6
CONTINUOUS
  62
7
  10
 362.15000000000
  20
 264.87500000000
  30
0.0
  11
 367.55000000000
  21
 264.87500000000
  31
0.0
   0
LINE
   5
14D
 100
AcDbEntity
   8
LEVEL001
 370
30
 100
AcDbLine
   6
CONTINUOUS
  62
7
  10
 367.55000000000
  20
 264.87500000000
  30
0.0
  11
 367.55000000000
  21
 268.47500000000
  31
0.0
   0
LINE
   5
14E
 100
AcDbEntity
   8
LEVEL001
 370
30
 100
AcDbLine
   6
CONTINUOUS
  62
7
  10
 367.55000000000
  20
 268.47500000000
  30
0.0
  11
 363.95000000000
  21
 268.47500000000
  31
0.0
   0
LINE
   5
14F
 100
AcDbEntity
   8
LEVEL001
 370
30
 100
AcDbLine
   6
CONTINUOUS
  62
7
  10
 363.95000000000
  20
 268.47500000000
  30
0.0
  11
 363.95000000000
  21
 272.07500000000
  31
0.0
   0
LINE
   5
150
 100
AcDbEntity
   8
LEVEL001
 370
30
 100
AcDbLine
   6
CONTINUOUS
  62
7
  10
 363.95000000000
  20
 272.07500000000
  30
0.0
  11
 385.55000000000
  21
 272.07500000000
  31
0.0
   0
LINE
   5
151
 100
AcDbEntity
   8
LEVEL001
 370
30
 100
AcDbLine
   6
CONTINUOUS
  62
7
  10
 385.55000000000
  20
 272.07500000000
  30
0.0
  11
 385.55000000000
  21
 268.47500000000
  31
0.0
   0
LINE
   5
152
 100
AcDbEntity
   8
LEVEL001
 370
30
 100
AcDbLine
   6
CONTINUOUS
  62
7
  10
 385.55000000000
  20
 268.47500000000
  30
0.0
  11
 378.35000000000
  21
 268.47500000000
  31
0.0
   0
LINE
   5
153
 100
AcDbEntity
   8
LEVEL001
 370
30
 100
AcDbLine
   6
CONTINUOUS
  62
7
  10
 378.35000000000
  20
 268.47500000000
  30
0.0
  11
 378.35000000000
  21
 267.57500000000
  31
0.0
   0
LINE
   5
154
 100
AcDbEntity
   8
LEVEL001
 370
30
 100
AcDbLine
   6
CONTINUOUS
  62
7
  10
 378.35000000000
  20
 267.57500000000
  30
0.0
  11
 384.65000000000
  21
 267.57500000000
  31
0.0
   0
LINE
   5
155
 100
AcDbEntity
   8
LEVEL001
 370
30
 100
AcDbLine
   6
CONTINUOUS
  62
7
  10
 384.65000000000
  20
 267.57500000000
  30
0.0
  11
 384.65000000000
  21
 265.77500000000
  31
0.0
   0
LINE
   5
156
 100
AcDbEntity
   8
LEVEL001
 370
30
 100
AcDbLine
   6
CONTINUOUS
  62
7
  10
 384.65000000000
  20
 265.77500000000
  30
0.0
  11
 378.35000000000
  21
 265.77500000000
  31
0.0
   0
LINE
   5
157
 100
AcDbEntity
   8
LEVEL001
 370
30
 100
AcDbLine
   6
CONTINUOUS
  62
7
  10
 378.35000000000
  20
 265.77500000000
  30
0.0
  11
 378.35000000000
  21
 264.87500000000
  31
0.0
   0
LINE
   5
158
 100
AcDbEntity
   8
LEVEL001
 370
30
 100
AcDbLine
   6
CONTINUOUS
  62
7
  10
 378.35000000000
  20
 264.87500000000
  30
0.0
  11
 385.55000000000
  21
 264.87500000000
  31
0.0
   0
LINE
   5
159
 100
AcDbEntity
   8
LEVEL001
 370
30
 100
AcDbLine
   6
CONTINUOUS
  62
7
  10
 385.55000000000
  20
 264.87500000000
  30
0.0
  11
 385.55000000000
  21
 261.27500000000
  31
0.0
   0
LINE
   5
15A
 100
AcDbEntity
   8
LEVEL001
 370
30
 100
AcDbLine
   6
CONTINUOUS
  62
7
  10
 385.55000000000
  20
 261.27500000000
  30
0.0
  11
 374.75000000000
  21
 261.27500000000
  31
0.0
   0
LINE
   5
15B
 100
AcDbEntity
   8
LEVEL001
 370
30
 100
AcDbLine
   6
CONTINUOUS
  62
7
  10
 374.75000000000
  20
 261.27500000000
  30
0.0
  11
 374.75000000000
  21
 268.47500000000
  31
0.0
   0
LINE
   5
15C
 100
AcDbEntity
   8
LEVEL001
 370
30
 100
AcDbLine
   6
CONTINUOUS
  62
7
  10
 374.75000000000
  20
 268.47500000000
  30
0.0
  11
 371.15000000000
  21
 268.47500000000
  31
0.0
   0
LINE
   5
15D
 100
AcDbEntity
   8
LEVEL001
 370
30
 100
AcDbLine
   6
CONTINUOUS
  62
7
  10
 371.15000000000
  20
 268.47500000000
  30
0.0
  11
 371.15000000000
  21
 261.27500000000
  31
0.0
   0
LINE
   5
15E
 100
AcDbEntity
   8
LEVEL001
 370
30
 100
AcDbLine
   6
CONTINUOUS
  62
7
  10
 371.15000000000
  20
 261.27500000000
  30
0.0
  11
 358.55000000000
  21
 261.27500000000
  31
0.0
   0
LINE
   5
15F
 100
AcDbEntity
   8
LEVEL001
 370
30
 100
AcDbLine
   6
CONTINUOUS
  62
7
  10
 358.55000000000
  20
 261.27500000000
  30
0.0
  11
 358.55000000000
  21
 272.07500000000
  31
0.0
   0
LINE
   5
160
 100
AcDbEntity
   8
LEVEL001
 370
30
 100
AcDbLine
   6
CONTINUOUS
  62
7
  10
 358.55000000000
  20
 272.07500000000
  30
0.0
  11
 351.35000000000
  21
 261.27500000000
  31
0.0
   0
LINE
   5
161
 100
AcDbEntity
   8
LEVEL001
 370
30
 100
AcDbLine
   6
CONTINUOUS
  62
7
  10
 351.35000000000
  20
 261.27500000000
  30
0.0
  11
 345.95000000000
  21
 261.27500000000
  31
0.0
   0
LINE
   5
162
 100
AcDbEntity
   8
LEVEL001
 370
30
 100
AcDbLine
   6
CONTINUOUS
  62
7
  10
 357.35000000000
  20
 268.11166923470
  30
0.0
  11
 352.79222051020
  21
 261.27500000000
  31
0.0
   0
LINE
   5
163
 100
AcDbEntity
   8
LEVEL001
 370
30
 100
AcDbLine
   6
CONTINUOUS
  62
7
  10
 352.79222051020
  20
 261.27500000000
  30
0.0
  11
 357.35000000000
  21
 261.27500000000
  31
0.0
   0
LINE
   5
164
 100
AcDbEntity
   8
LEVEL001
 370
30
 100
AcDbLine
   6
CONTINUOUS
  62
7
  10
 357.35000000000
  20
 261.27500000000
  30
0.0
  11
 357.35000000000
  21
 268.11166923470
  31
0.0
   0
ARC
   5
165
 100
AcDbEntity
   8
LEVEL001
 370
30
   6
CONTINUOUS
  62
7
 100
AcDbCircle
  10
 390.95000000000
  20
 266.67500000000
  30
0.0
  40
 5.4000000000000
 100
AcDbArc
  50
 90.000000000000
  51
 270.00000000000
   0
ARC
   5
166
 100
AcDbEntity
   8
LEVEL001
 370
30
   6
CONTINUOUS
  62
7
 100
AcDbCircle
  10
 390.95000000000
  20
 266.67500000000
  30
0.0
  40
 1.8000000000000
 100
AcDbArc
  50
 90.000000000000
  51
 270.00000000000
   0
LINE
   5
167
 100
AcDbEntity
   8
LEVEL001
 370
30
 100
AcDbLine
   6
CONTINUOUS
  62
7
  10
 390.95000000000
  20
 272.07500000000
  30
0.0
  11
 396.35000000000
  21
 272.07500000000
  31
0.0
   0
LINE
   5
168
 100
AcDbEntity
   8
LEVEL001
 370
30
 100
AcDbLine
   6
CONTINUOUS
  62
7
  10
 396.35000000000
  20
 272.07500000000
  30
0.0
  11
 396.35000000000
  21
 268.47500000000
  31
0.0
   0
LINE
   5
169
 100
AcDbEntity
   8
LEVEL001
 370
30
 100
AcDbLine
   6
CONTINUOUS
  62
7
  10
 396.35000000000
  20
 268.47500000000
  30
0.0
  11
 390.95000000000
  21
 268.47500000000
  31
0.0
   0
LINE
   5
16A
 100
AcDbEntity
   8
LEVEL001
 370
30
 100
AcDbLine
   6
CONTINUOUS
  62
7
  10
 336.95000000000
  20
 272.07500000000
  30
0.0
  11
 336.95000000000
  21
 261.27500000000
  31
0.0
   0
LINE
   5
16B
 100
AcDbEntity
   8
LEVEL001
 370
30
 100
AcDbLine
   6
CONTINUOUS
  62
7
  10
 336.95000000000
  20
 261.27500000000
  30
0.0
  11
 340.55000000000
  21
 261.27500000000
  31
0.0
   0
LINE
   5
16C
 100
AcDbEntity
   8
LEVEL001
 370
30
 100
AcDbLine
   6
CONTINUOUS
  62
7
  10
 340.55000000000
  20
 261.27500000000
  30
0.0
  11
 340.55000000000
  21
 263.07500000000
  31
0.0
   0
LINE
   5
16D
 100
AcDbEntity
   8
LEVEL001
 370
30
 100
AcDbLine
   6
CONTINUOUS
  62
7
  10
 340.55000000000
  20
 263.07500000000
  30
0.0
  11
 344.15000000000
  21
 263.07500000000
  31
0.0
   0
ARC
   5
16E
 100
AcDbEntity
   8
LEVEL001
 370
30
   6
CONTINUOUS
  62
7
 100
AcDbCircle
  10
 344.15000000000
  20
 267.57500000000
  30
0.0
  40
 4.5000000000000
 100
AcDbArc
  50
 270.00000000000
  51
 90.000000000000
   0
LINE
   5
16F
 100
AcDbEntity
   8
LEVEL001
 370
30
 100
AcDbLine
   6
CONTINUOUS
  62
7
  10
 344.15000000000
  20
 272.07500000000
  30
0.0
  11
 336.95000000000
  21
 272.07500000000
  31
0.0
   0
LINE
   5
170
 100
AcDbEntity
   8
LEVEL001
 370
30
 100
AcDbLine
   6
CONTINUOUS
  62
7
  10
 340.55000000000
  20
 268.47500000000
  30
0.0
  11
 340.55000000000
  21
 266.67500000000
  31
0.0
   0
LINE
   5
171
 100
AcDbEntity
   8
LEVEL001
 370
30
 100
AcDbLine
   6
CONTINUOUS
  62
7
  10
 340.55000000000
  20
 266.67500000000
  30
0.0
  11
 344.15000000000
  21
 266.67500000000
  31
0.0
   0
ARC
   5
172
 100
AcDbEntity
   8
LEVEL001
 370
30
   6
CONTINUOUS
  62
7
 100
AcDbCircle
  10
 344.15000000000
  20
 267.57500000000
  30
0.0
  40
 0.90000000000000
 100
AcDbArc
  50
 270.00000000000
  51
 90.000000000000
   0
LINE
   5
173
 100
AcDbEntity
   8
LEVEL001
 370
30
 100
AcDbLine
   6
CONTINUOUS
  62
7
  10
 344.15000000000
  20
 268.47500000000
  30
0.0
  11
 340.55000000000
  21
 268.47500000000
  31
0.0
   0
LINE
   5
174
 100
AcDbEntity
   8
LEVEL001
 370
30
 100
AcDbLine
   6
CONTINUOUS
  62
7
  10
 353.15000000000
  20
 272.07500000000
  30
0.0
  11
 345.95000000000
  21
 261.27500000000
  31
0.0
   0
LINE
   5
175
 100
AcDbEntity
   8
LEVEL001
 370
30
 100
AcDbLine
   6
CONTINUOUS
  62
7
  10
 345.95000000000
  20
 261.27500000000
  30
0.0
  11
 351.35000000000
  21
 261.27500000000
  31
0.0
   0
LINE
   5
176
 100
AcDbEntity
   8
LEVEL001
 370
30
 100
AcDbLine
   6
CONTINUOUS
  62
7
  10
 351.35000000000
  20
 261.27500000000
  30
0.0
  11
 358.55000000000
  21
 272.07500000000
  31
0.0
   0
LINE
   5
177
 100
AcDbEntity
   8
LEVEL001
 370
30
 100
AcDbLine
   6
CONTINUOUS
  62
7
  10
 358.55000000000
  20
 272.07500000000
  30
0.0
  11
 353.15000000000
  21
 272.07500000000
  31
0.0
   0
LINE
   5
178
 100
AcDbEntity
   8
LEVEL001
 370
30
 100
AcDbLine
   6
CONTINUOUS
  62
7
  10
 357.35000000000
  20
 261.27500000000
  30
0.0
  11
 357.35000000000
  21
 268.11166923470
  31
0.0
   0
LINE
   5
179
 100
AcDbEntity
   8
LEVEL001
 370
30
 100
AcDbLine
   6
CONTINUOUS
  62
7
  10
 357.35000000000
  20
 268.11166923470
  30
0.0
  11
 352.79222051020
  21
 261.27500000000
  31
0.0
   0
LINE
   5
17A
 100
AcDbEntity
   8
LEVEL001
 370
30
 100
AcDbLine
   6
CONTINUOUS
  62
7
  10
 352.79222051020
  20
 261.27500000000
  30
0.0
  11
 357.35000000000
  21
 261.27500000000
  31
0.0
   0
LINE
   5
17B
 100
AcDbEntity
   8
LEVEL001
 370
30
 100
AcDbLine
   6
CONTINUOUS
  62
7
  10
 358.55000000000
  20
 261.27500000000
  30
0.0
  11
 371.15000000000
  21
 261.27500000000
  31
0.0
   0
LINE
   5
17C
 100
AcDbEntity
   8
LEVEL001
 370
30
 100
AcDbLine
   6
CONTINUOUS
  62
7
  10
 371.15000000000
  20
 261.27500000000
  30
0.0
  11
 371.15000000000
  21
 268.47500000000
  31
0.0
   0
LINE
   5
17D
 100
AcDbEntity
   8
LEVEL001
 370
30
 100
AcDbLine
   6
CONTINUOUS
  62
7
  10
 371.15000000000
  20
 268.47500000000
  30
0.0
  11
 374.75000000000
  21
 268.47500000000
  31
0.0
   0
LINE
   5
17E
 100
AcDbEntity
   8
LEVEL001
 370
30
 100
AcDbLine
   6
CONTINUOUS
  62
7
  10
 374.75000000000
  20
 268.47500000000
  30
0.0
  11
 374.75000000000
  21
 261.27500000000
  31
0.0
   0
LINE
   5
17F
 100
AcDbEntity
   8
LEVEL001
 370
30
 100
AcDbLine
   6
CONTINUOUS
  62
7
  10
 374.75000000000
  20
 261.27500000000
  30
0.0
  11
 385.55000000000
  21
 261.27500000000
  31
0.0
   0
LINE
   5
180
 100
AcDbEntity
   8
LEVEL001
 370
30
 100
AcDbLine
   6
CONTINUOUS
  62
7
  10
 385.55000000000
  20
 261.27500000000
  30
0.0
  11
 385.55000000000
  21
 264.87500000000
  31
0.0
   0
LINE
   5
181
 100
AcDbEntity
   8
LEVEL001
 370
30
 100
AcDbLine
   6
CONTINUOUS
  62
7
  10
 385.55000000000
  20
 264.87500000000
  30
0.0
  11
 378.35000000000
  21
 264.87500000000
  31
0.0
   0
LINE
   5
182
 100
AcDbEntity
   8
LEVEL001
 370
30
 100
AcDbLine
   6
CONTINUOUS
  62
7
  10
 378.35000000000
  20
 264.87500000000
  30
0.0
  11
 378.35000000000
  21
 265.77500000000
  31
0.0
   0
LINE
   5
183
 100
AcDbEntity
   8
LEVEL001
 370
30
 100
AcDbLine
   6
CONTINUOUS
  62
7
  10
 378.35000000000
  20
 265.77500000000
  30
0.0
  11
 384.65000000000
  21
 265.77500000000
  31
0.0
   0
LINE
   5
184
 100
AcDbEntity
   8
LEVEL001
 370
30
 100
AcDbLine
   6
CONTINUOUS
  62
7
  10
 384.65000000000
  20
 265.77500000000
  30
0.0
  11
 384.65000000000
  21
 267.57500000000
  31
0.0
   0
LINE
   5
185
 100
AcDbEntity
   8
LEVEL001
 370
30
 100
AcDbLine
   6
CONTINUOUS
  62
7
  10
 384.65000000000
  20
 267.57500000000
  30
0.0
  11
 378.35000000000
  21
 267.57500000000
  31
0.0
   0
LINE
   5
186
 100
AcDbEntity
   8
LEVEL001
 370
30
 100
AcDbLine
   6
CONTINUOUS
  62
7
  10
 378.35000000000
  20
 267.57500000000
  30
0.0
  11
 378.35000000000
  21
 268.47500000000
  31
0.0
   0
LINE
   5
187
 100
AcDbEntity
   8
LEVEL001
 370
30
 100
AcDbLine
   6
CONTINUOUS
  62
7
  10
 378.35000000000
  20
 268.47500000000
  30
0.0
  11
 385.55000000000
  21
 268.47500000000
  31
0.0
   0
LINE
   5
188
 100
AcDbEntity
   8
LEVEL001
 370
30
 100
AcDbLine
   6
CONTINUOUS
  62
7
  10
 385.55000000000
  20
 268.47500000000
  30
0.0
  11
 385.55000000000
  21
 272.07500000000
  31
0.0
   0
LINE
   5
189
 100
AcDbEntity
   8
LEVEL001
 370
30
 100
AcDbLine
   6
CONTINUOUS
  62
7
  10
 385.55000000000
  20
 272.07500000000
  30
0.0
  11
 363.95000000000
  21
 272.07500000000
  31
0.0
   0
LINE
   5
18A
 100
AcDbEntity
   8
LEVEL001
 370
30
 100
AcDbLine
   6
CONTINUOUS
  62
7
  10
 363.95000000000
  20
 272.07500000000
  30
0.0
  11
 363.95000000000
  21
 268.47500000000
  31
0.0
   0
LINE
   5
18B
 100
AcDbEntity
   8
LEVEL001
 370
30
 100
AcDbLine
   6
CONTINUOUS
  62
7
  10
 363.95000000000
  20
 268.47500000000
  30
0.0
  11
 367.55000000000
  21
 268.47500000000
  31
0.0
   0
LINE
   5
18C
 100
AcDbEntity
   8
LEVEL001
 370
30
 100
AcDbLine
   6
CONTINUOUS
  62
7
  10
 367.55000000000
  20
 268.47500000000
  30
0.0
  11
 367.55000000000
  21
 264.87500000000
  31
0.0
   0
LINE
   5
18D
 100
AcDbEntity
   8
LEVEL001
 370
30
 100
AcDbLine
   6
CONTINUOUS
  62
7
  10
 367.55000000000
  20
 264.87500000000
  30
0.0
  11
 362.15000000000
  21
 264.87500000000
  31
0.0
   0
LINE
   5
18E
 100
AcDbEntity
   8
LEVEL001
 370
30
 100
AcDbLine
   6
CONTINUOUS
  62
7
  10
 362.15000000000
  20
 264.87500000000
  30
0.0
  11
 362.15000000000
  21
 272.07500000000
  31
0.0
   0
LINE
   5
18F
 100
AcDbEntity
   8
LEVEL001
 370
30
 100
AcDbLine
   6
CONTINUOUS
  62
7
  10
 362.15000000000
  20
 272.07500000000
  30
0.0
  11
 358.55000000000
  21
 272.07500000000
  31
0.0
   0
LINE
   5
190
 100
AcDbEntity
   8
LEVEL001
 370
30
 100
AcDbLine
   6
CONTINUOUS
  62
7
  10
 358.55000000000
  20
 272.07500000000
  30
0.0
  11
 358.55000000000
  21
 261.27500000000
  31
0.0
   0
LINE
   5
191
 100
AcDbEntity
   8
LEVEL001
 370
30
 100
AcDbLine
   6
CONTINUOUS
  62
7
  10
 390.95000000000
  20
 261.27500000000
  30
0.0
  11
 396.35000000000
  21
 261.27500000000
  31
0.0
   0
LINE
   5
192
 100
AcDbEntity
   8
LEVEL001
 370
30
 100
AcDbLine
   6
CONTINUOUS
  62
7
  10
 396.35000000000
  20
 261.27500000000
  30
0.0
  11
 396.35000000000
  21
 264.87500000000
  31
0.0
   0
LINE
   5
193
 100
AcDbEntity
   8
LEVEL001
 370
30
 100
AcDbLine
   6
CONTINUOUS
  62
7
  10
 396.35000000000
  20
 264.87500000000
  30
0.0
  11
 390.95000000000
  21
 264.87500000000
  31
0.0
   0
ARC
   5
194
 100
AcDbEntity
   8
LEVEL001
 370
30
   6
CONTINUOUS
  62
7
 100
AcDbCircle
  10
 390.95000000000
  20
 266.67500000000
  30
0.0
  40
 1.8000000000000
 100
AcDbArc
  50
 90.000000000000
  51
 270.00000000000
   0
LINE
   5
195
 100
AcDbEntity
   8
LEVEL001
 370
30
 100
AcDbLine
   6
CONTINUOUS
  62
7
  10
 390.95000000000
  20
 268.47500000000
  30
0.0
  11
 396.35000000000
  21
 268.47500000000
  31
0.0
   0
LINE
   5
196
 100
AcDbEntity
   8
LEVEL001
 370
30
 100
AcDbLine
   6
CONTINUOUS
  62
7
  10
 396.35000000000
  20
 268.47500000000
  30
0.0
  11
 396.35000000000
  21
 272.07500000000
  31
0.0
   0
LINE
   5
197
 100
AcDbEntity
   8
LEVEL001
 370
30
 100
AcDbLine
   6
CONTINUOUS
  62
7
  10
 396.35000000000
  20
 272.07500000000
  30
0.0
  11
 390.95000000000
  21
 272.07500000000
  31
0.0
   0
ARC
   5
198
 100
AcDbEntity
   8
LEVEL001
 370
30
   6
CONTINUOUS
  62
7
 100
AcDbCircle
  10
 390.95000000000
  20
 266.67500000000
  30
0.0
  40
 5.4000000000000
 100
AcDbArc
  50
 90.000000000000
  51
 270.00000000000
   0
MTEXT
   5
19A
 100
AcDbEntity
   8
LEVEL001
 370
30
  62
7
 100
AcDbMText
  10
 336.95000000000
  20
 273.87500000000
  30
0.0
  40
 3.7500000000000
  41
0.0
  71
7
  72
1
   1
\T1.000000;ケージーパルテック株式会社
   7
GMM001
  44
 0.79999984000003
   0
LINE
   5
19B
 100
AcDbEntity
   8
LEVEL001
 370
30
 100
AcDbLine
   6
CONTINUOUS
  62
7
  10
 333.35000000000
  20
 263.67500000000
  30
0.0
  11
 328.85000000000
  21
 270.87500000000
  31
0.0
   0
LINE
   5
19C
 100
AcDbEntity
   8
LEVEL001
 370
30
 100
AcDbLine
   6
CONTINUOUS
  62
7
  10
 328.85000000000
  20
 270.87500000000
  30
0.0
  11
 333.35000000000
  21
 270.87500000000
  31
0.0
   0
LINE
   5
19D
 100
AcDbEntity
   8
LEVEL001
 370
30
 100
AcDbLine
   6
CONTINUOUS
  62
7
  10
 333.35000000000
  20
 270.87500000000
  30
0.0
  11
 333.35000000000
  21
 263.67500000000
  31
0.0
   0
LINE
   5
19E
 100
AcDbEntity
   8
LEVEL001
 370
30
 100
AcDbLine
   6
CONTINUOUS
  62
7
  10
 328.85000000000
  20
 270.87500000000
  30
0.0
  11
 333.35000000000
  21
 263.67500000000
  31
0.0
   0
LINE
   5
19F
 100
AcDbEntity
   8
LEVEL001
 370
30
 100
AcDbLine
   6
CONTINUOUS
  62
7
  10
 333.35000000000
  20
 263.67500000000
  30
0.0
  11
 333.35000000000
  21
 270.87500000000
  31
0.0
   0
LINE
   5
1A0
 100
AcDbEntity
   8
LEVEL001
 370
30
 100
AcDbLine
   6
CONTINUOUS
  62
7
  10
 333.35000000000
  20
 270.87500000000
  30
0.0
  11
 328.85000000000
  21
 270.87500000000
  31
0.0
   0
LINE
   5
1A1
 100
AcDbEntity
   8
LEVEL001
 370
30
 100
AcDbLine
   6
CONTINUOUS
  62
7
  10
 319.05000000000
  20
 280.47500000000
  30
0.0
  11
 312.65000000000
  21
 270.87500000000
  31
0.0
   0
LINE
   5
1A2
 100
AcDbEntity
   8
LEVEL001
 370
30
 100
AcDbLine
   6
CONTINUOUS
  62
7
  10
 312.65000000000
  20
 270.87500000000
  30
0.0
  11
 319.05000000000
  21
 261.27500000000
  31
0.0
   0
LINE
   5
1A3
 100
AcDbEntity
   8
LEVEL001
 370
30
 100
AcDbLine
   6
CONTINUOUS
  62
7
  10
 324.45000000000
  20
 261.27500000000
  30
0.0
  11
 318.05000000000
  21
 270.87500000000
  31
0.0
   0
LINE
   5
1A4
 100
AcDbEntity
   8
LEVEL001
 370
30
 100
AcDbLine
   6
CONTINUOUS
  62
7
  10
 318.05000000000
  20
 270.87500000000
  30
0.0
  11
 324.45000000000
  21
 280.47500000000
  31
0.0
   0
LINE
   5
1A5
 100
AcDbEntity
   8
LEVEL001
 370
30
 100
AcDbLine
   6
CONTINUOUS
  62
7
  10
 327.15000000000
  20
 280.47500000000
  30
0.0
  11
 320.75000000000
  21
 270.87500000000
  31
0.0
   0
LINE
   5
1A6
 100
AcDbEntity
   8
LEVEL001
 370
30
 100
AcDbLine
   6
CONTINUOUS
  62
7
  10
 320.75000000000
  20
 270.87500000000
  30
0.0
  11
 327.15000000000
  21
 261.27500000000
  31
0.0
   0
LINE
   5
1A7
 100
AcDbEntity
   8
LEVEL001
 370
30
 100
AcDbLine
   6
CONTINUOUS
  62
7
  10
 332.55000000000
  20
 261.27500000000
  30
0.0
  11
 326.15000000000
  21
 270.87500000000
  31
0.0
   0
LINE
   5
1A8
 100
AcDbEntity
   8
LEVEL001
 370
30
 100
AcDbLine
   6
CONTINUOUS
  62
7
  10
 326.15000000000
  20
 270.87500000000
  30
0.0
  11
 332.55000000000
  21
 280.47500000000
  31
0.0
   0
LINE
   5
1A9
 100
AcDbEntity
   8
LEVEL001
 370
30
 100
AcDbLine
   6
CONTINUOUS
  62
7
  10
 319.05000000000
  20
 261.27500000000
  30
0.0
  11
 312.65000000000
  21
 270.87500000000
  31
0.0
   0
LINE
   5
1AA
 100
AcDbEntity
   8
LEVEL001
 370
30
 100
AcDbLine
   6
CONTINUOUS
  62
7
  10
 312.65000000000
  20
 270.87500000000
  30
0.0
  11
 319.05000000000
  21
 280.47500000000
  31
0.0
   0
LINE
   5
1AB
 100
AcDbEntity
   8
LEVEL001
 370
30
 100
AcDbLine
   6
CONTINUOUS
  62
7
  10
 319.05000000000
  20
 280.47500000000
  30
0.0
  11
 324.45000000000
  21
 280.47500000000
  31
0.0
   0
LINE
   5
1AC
 100
AcDbEntity
   8
LEVEL001
 370
30
 100
AcDbLine
   6
CONTINUOUS
  62
7
  10
 324.45000000000
  20
 280.47500000000
  30
0.0
  11
 318.05000000000
  21
 270.87500000000
  31
0.0
   0
LINE
   5
1AD
 100
AcDbEntity
   8
LEVEL001
 370
30
 100
AcDbLine
   6
CONTINUOUS
  62
7
  10
 318.05000000000
  20
 270.87500000000
  30
0.0
  11
 324.45000000000
  21
 261.27500000000
  31
0.0
   0
LINE
   5
1AE
 100
AcDbEntity
   8
LEVEL001
 370
30
 100
AcDbLine
   6
CONTINUOUS
  62
7
  10
 324.45000000000
  20
 261.27500000000
  30
0.0
  11
 319.05000000000
  21
 261.27500000000
  31
0.0
   0
LINE
   5
1AF
 100
AcDbEntity
   8
LEVEL001
 370
30
 100
AcDbLine
   6
CONTINUOUS
  62
7
  10
 327.15000000000
  20
 261.27500000000
  30
0.0
  11
 320.75000000000
  21
 270.87500000000
  31
0.0
   0
LINE
   5
1B0
 100
AcDbEntity
   8
LEVEL001
 370
30
 100
AcDbLine
   6
CONTINUOUS
  62
7
  10
 320.75000000000
  20
 270.87500000000
  30
0.0
  11
 327.15000000000
  21
 280.47500000000
  31
0.0
   0
LINE
   5
1B1
 100
AcDbEntity
   8
LEVEL001
 370
30
 100
AcDbLine
   6
CONTINUOUS
  62
7
  10
 327.15000000000
  20
 280.47500000000
  30
0.0
  11
 332.55000000000
  21
 280.47500000000
  31
0.0
   0
LINE
   5
1B2
 100
AcDbEntity
   8
LEVEL001
 370
30
 100
AcDbLine
   6
CONTINUOUS
  62
7
  10
 332.55000000000
  20
 280.47500000000
  30
0.0
  11
 326.15000000000
  21
 270.87500000000
  31
0.0
   0
LINE
   5
1B3
 100
AcDbEntity
   8
LEVEL001
 370
30
 100
AcDbLine
   6
CONTINUOUS
  62
7
  10
 326.15000000000
  20
 270.87500000000
  30
0.0
  11
 332.55000000000
  21
 261.27500000000
  31
0.0
   0
LINE
   5
1B4
 100
AcDbEntity
   8
LEVEL001
 370
30
 100
AcDbLine
   6
CONTINUOUS
  62
7
  10
 332.55000000000
  20
 261.27500000000
  30
0.0
  11
 327.15000000000
  21
 261.27500000000
  31
0.0
   0
LINE
   5
1B5
 100
AcDbEntity
   8
0
 370
30
 100
AcDbLine
   6
DOT
  62
7
  10
0.0
  20
0.0
  30
0.0
  11
 420.00000000000
  21
0.0
  31
0.0
   0
LINE
   5
1B6
 100
AcDbEntity
   8
0
 370
30
 100
AcDbLine
   6
DOT
  62
7
  10
 420.00000000000
  20
0.0
  30
0.0
  11
 420.00000000000
  21
 297.00000000000
  31
0.0
   0
LINE
   5
1B7
 100
AcDbEntity
   8
0
 370
30
 100
AcDbLine
   6
DOT
  62
7
  10
 420.00000000000
  20
 297.00000000000
  30
0.0
  11
0.0
  21
 297.00000000000
  31
0.0
   0
LINE
   5
1B8
 100
AcDbEntity
   8
0
 370
30
 100
AcDbLine
   6
DOT
  62
7
  10
0.0
  20
 297.00000000000
  30
0.0
  11
0.0
  21
0.0
  31
0.0
   0
LINE
   5
1B9
 100
AcDbEntity
   8
LEVEL001
 370
40
 100
AcDbLine
   6
CONTINUOUS
  62
3
  10
 15.499999999950
  20
 275.00000000000
  30
0.0
  11
 304.49999999995
  21
 275.00000000000
  31
0.0
   0
LINE
   5
1BA
 100
AcDbEntity
   8
LEVEL001
 370
40
 100
AcDbLine
   6
CONTINUOUS
  62
3
  10
 304.49999999995
  20
 256.75000000000
  30
0.0
  11
 404.49999999995
  21
 256.75000000000
  31
0.0
   0
LINE
   5
1BB
 100
AcDbEntity
   8
LEVEL001
 370
40
 100
AcDbLine
   6
CONTINUOUS
  62
3
  10
 304.49999999995
  20
 236.75000000000
  30
0.0
  11
 404.49999999995
  21
 236.75000000000
  31
0.0
   0
LINE
   5
1BC
 100
AcDbEntity
   8
LEVEL001
 370
40
 100
AcDbLine
   6
CONTINUOUS
  62
3
  10
 304.49999999995
  20
 216.75000000000
  30
0.0
  11
 404.49999999995
  21
 216.75000000000
  31
0.0
   0
LINE
   5
1BD
 100
AcDbEntity
   8
LEVEL001
 370
40
 100
AcDbLine
   6
CONTINUOUS
  62
3
  10
 304.49999999995
  20
 72.000000000010
  30
0.0
  11
 404.49999999995
  21
 72.000000000010
  31
0.0
   0
LINE
   5
1BE
 100
AcDbEntity
   8
LEVEL001
 370
40
 100
AcDbLine
   6
CONTINUOUS
  62
3
  10
 304.49999999995
  20
 52.000000000010
  30
0.0
  11
 404.49999999995
  21
 52.000000000010
  31
0.0
   0
LINE
   5
1BF
 100
AcDbEntity
   8
LEVEL001
 370
40
 100
AcDbLine
   6
CONTINUOUS
  62
3
  10
 304.49999999995
  20
 32.000000000010
  30
0.0
  11
 404.49999999995
  21
 32.000000000010
  31
0.0
   0
LINE
   5
1C0
 100
AcDbEntity
   8
LEVEL001
 370
40
 100
AcDbLine
   6
CONTINUOUS
  62
3
  10
 354.49999999995
  20
 52.000000000010
  30
0.0
  11
 354.49999999995
  21
 12.000000000010
  31
0.0
   0
LINE
   5
1C1
 100
AcDbEntity
   8
LEVEL001
 370
40
 100
AcDbLine
   6
CONTINUOUS
  62
3
  10
 354.49999999995
  20
 38.666666666680
  30
0.0
  11
 404.49999999995
  21
 38.666666666680
  31
0.0
   0
LINE
   5
1C2
 100
AcDbEntity
   8
LEVEL001
 370
40
 100
AcDbLine
   6
CONTINUOUS
  62
3
  10
 354.49999999995
  20
 45.333333333345
  30
0.0
  11
 404.49999999995
  21
 45.333333333345
  31
0.0
   0
LINE
   5
1C3
 100
AcDbEntity
   8
LEVEL001
 370
50
 100
AcDbLine
   6
CONTINUOUS
  62
4
  10
 404.49999999995
  20
 285.00000000000
  30
0.0
  11
 15.499999999950
  21
 285.00000000000
  31
0.0
   0
LINE
   5
1C4
 100
AcDbEntity
   8
LEVEL001
 370
50
 100
AcDbLine
   6
CONTINUOUS
  62
4
  10
 304.49999999995
  20
 285.00000000000
  30
0.0
  11
 304.49999999995
  21
 12.000000000010
  31
0.0
   0
LINE
   5
1C5
 100
AcDbEntity
   8
LEVEL001
 370
50
 100
AcDbLine
   6
CONTINUOUS
  62
4
  10
 404.49999999995
  20
 12.000000000010
  30
0.0
  11
 404.49999999995
  21
 285.00000000000
  31
0.0
   0
LINE
   5
1C6
 100
AcDbEntity
   8
LEVEL001
 370
50
 100
AcDbLine
   6
CONTINUOUS
  62
4
  10
 15.499999999950
  20
 285.00000000000
  30
0.0
  11
 15.499999999950
  21
 12.000000000010
  31
0.0
   0
LINE
   5
1C7
 100
AcDbEntity
   8
LEVEL001
 370
50
 100
AcDbLine
   6
CONTINUOUS
  62
4
  10
 15.499999999950
  20
 12.000000000010
  30
0.0
  11
 404.49999999995
  21
 12.000000000010
  31
0.0
   0
HATCH
   5
1C8
 100
AcDbEntity
   8
0
  62
1
 100
AcDbHatch
  10
0.0
  20
0.0
  30
0.0
 210
0.0
 220
0.0
 230
 1.0000000000000
   2
SOLID
  70
1
  71
1
  91
7
  92
1
  93
6
  72
1
  10
 324.45000000000
  20
 280.47500000000
  11
 318.05000000000
  21
 270.87500000000
  72
1
  10
 318.05000000000
  20
 270.87500000000
  11
 324.45000000000
  21
 261.27500000000
  72
1
  10
 324.45000000000
  20
 261.27500000000
  11
 319.05000000000
  21
 261.27500000000
  72
1
  10
 319.05000000000
  20
 261.27500000000
  11
 312.65000000000
  21
 270.87500000000
  72
1
  10
 312.65000000000
  20
 270.87500000000
  11
 319.05000000000
  21
 280.47500000000
  72
1
  10
 319.05000000000
  20
 280.47500000000
  11
 324.45000000000
  21
 280.47500000000
  97
1
 330

  92
16
  93
6
  72
1
  10
 327.15000000000
  20
 280.47500000000
  11
 332.55000000000
  21
 280.47500000000
  72
1
  10
 332.55000000000
  20
 280.47500000000
  11
 326.15000000000
  21
 270.87500000000
  72
1
  10
 326.15000000000
  20
 270.87500000000
  11
 332.55000000000
  21
 261.27500000000
  72
1
  10
 332.55000000000
  20
 261.27500000000
  11
 327.15000000000
  21
 261.27500000000
  72
1
  10
 327.15000000000
  20
 261.27500000000
  11
 320.75000000000
  21
 270.87500000000
  72
1
  10
 320.75000000000
  20
 270.87500000000
  11
 327.15000000000
  21
 280.47500000000
  97
1
 330

  92
16
  93
3
  72
1
  10
 333.35000000000
  20
 270.87500000000
  11
 328.85000000000
  21
 270.87500000000
  72
1
  10
 328.85000000000
  20
 270.87500000000
  11
 333.35000000000
  21
 263.67500000000
  72
1
  10
 333.35000000000
  20
 263.67500000000
  11
 333.35000000000
  21
 270.87500000000
  97
1
 330

  92
16
  93
6
  72
1
  10
 336.95000000000
  20
 272.07500000000
  11
 344.15000000000
  21
 272.07500000000
  72
2
  10
 344.15000000000
  20
 267.57500000000
  40
 4.5000000000000
  50
 270.00000000000
  51
 90.000000000000
  73
0
  72
1
  10
 344.15000000000
  20
 263.07500000000
  11
 340.55000000000
  21
 263.07500000000
  72
1
  10
 340.55000000000
  20
 263.07500000000
  11
 340.55000000000
  21
 261.27500000000
  72
1
  10
 340.55000000000
  20
 261.27500000000
  11
 336.95000000000
  21
 261.27500000000
  72
1
  10
 336.95000000000
  20
 261.27500000000
  11
 336.95000000000
  21
 272.07500000000
  97
1
 330

  92
16
  93
4
  72
1
  10
 344.15000000000
  20
 268.47500000000
  11
 340.55000000000
  21
 268.47500000000
  72
1
  10
 340.55000000000
  20
 268.47500000000
  11
 340.55000000000
  21
 266.67500000000
  72
1
  10
 340.55000000000
  20
 266.67500000000
  11
 344.15000000000
  21
 266.67500000000
  72
2
  10
 344.15000000000
  20
 267.57500000000
  40
 0.90000000000000
  50
 270.00000000000
  51
 90.000000000000
  73
1
  97
1
 330

  92
16
  93
4
  72
1
  10
 345.95000000000
  20
 261.27500000000
  11
 353.15000000000
  21
 272.07500000000
  72
1
  10
 353.15000000000
  20
 272.07500000000
  11
 358.55000000000
  21
 272.07500000000
  72
1
  10
 358.55000000000
  20
 272.07500000000
  11
 351.35000000000
  21
 261.27500000000
  72
1
  10
 351.35000000000
  20
 261.27500000000
  11
 345.95000000000
  21
 261.27500000000
  97
1
 330

  92
16
  93
3
  72
1
  10
 357.35000000000
  20
 268.11166923470
  11
 352.79222051020
  21
 261.27500000000
  72
1
  10
 352.79222051020
  20
 261.27500000000
  11
 357.35000000000
  21
 261.27500000000
  72
1
  10
 357.35000000000
  20
 261.27500000000
  11
 357.35000000000
  21
 268.11166923470
  97
1
 330

  75
0
  76
1
  98
1
  10
0.0
  20
0.0
   0
HATCH
   5
1C9
 100
AcDbEntity
   8
0
  62
1
 100
AcDbHatch
  10
0.0
  20
0.0
  30
0.0
 210
0.0
 220
0.0
 230
 1.0000000000000
   2
SOLID
  70
1
  71
1
  91
1
  92
1
  93
22
  72
1
  10
 358.55000000000
  20
 272.07500000000
  11
 362.15000000000
  21
 272.07500000000
  72
1
  10
 362.15000000000
  20
 272.07500000000
  11
 362.15000000000
  21
 264.87500000000
  72
1
  10
 362.15000000000
  20
 264.87500000000
  11
 367.55000000000
  21
 264.87500000000
  72
1
  10
 367.55000000000
  20
 264.87500000000
  11
 367.55000000000
  21
 268.47500000000
  72
1
  10
 367.55000000000
  20
 268.47500000000
  11
 363.95000000000
  21
 268.47500000000
  72
1
  10
 363.95000000000
  20
 268.47500000000
  11
 363.95000000000
  21
 272.07500000000
  72
1
  10
 363.95000000000
  20
 272.07500000000
  11
 385.55000000000
  21
 272.07500000000
  72
1
  10
 385.55000000000
  20
 272.07500000000
  11
 385.55000000000
  21
 268.47500000000
  72
1
  10
 385.55000000000
  20
 268.47500000000
  11
 378.35000000000
  21
 268.47500000000
  72
1
  10
 378.35000000000
  20
 268.47500000000
  11
 378.35000000000
  21
 267.57500000000
  72
1
  10
 378.35000000000
  20
 267.57500000000
  11
 384.65000000000
  21
 267.57500000000
  72
1
  10
 384.65000000000
  20
 267.57500000000
  11
 384.65000000000
  21
 265.77500000000
  72
1
  10
 384.65000000000
  20
 265.77500000000
  11
 378.35000000000
  21
 265.77500000000
  72
1
  10
 378.35000000000
  20
 265.77500000000
  11
 378.35000000000
  21
 264.87500000000
  72
1
  10
 378.35000000000
  20
 264.87500000000
  11
 385.55000000000
  21
 264.87500000000
  72
1
  10
 385.55000000000
  20
 264.87500000000
  11
 385.55000000000
  21
 261.27500000000
  72
1
  10
 385.55000000000
  20
 261.27500000000
  11
 374.75000000000
  21
 261.27500000000
  72
1
  10
 374.75000000000
  20
 261.27500000000
  11
 374.75000000000
  21
 268.47500000000
  72
1
  10
 374.75000000000
  20
 268.47500000000
  11
 371.15000000000
  21
 268.47500000000
  72
1
  10
 371.15000000000
  20
 268.47500000000
  11
 371.15000000000
  21
 261.27500000000
  72
1
  10
 371.15000000000
  20
 261.27500000000
  11
 358.55000000000
  21
 261.27500000000
  72
1
  10
 358.55000000000
  20
 261.27500000000
  11
 358.55000000000
  21
 272.07500000000
  97
1
 330

  75
0
  76
1
  98
1
  10
0.0
  20
0.0
   0
HATCH
   5
1CA
 100
AcDbEntity
   8
0
  62
1
 100
AcDbHatch
  10
0.0
  20
0.0
  30
0.0
 210
0.0
 220
0.0
 230
 1.0000000000000
   2
SOLID
  70
1
  71
1
  91
1
  92
1
  93
8
  72
1
  10
 396.35000000000
  20
 272.07500000000
  11
 390.95000000000
  21
 272.07500000000
  72
2
  10
 390.95000000000
  20
 266.67500000000
  40
 5.4000000000000
  50
 90.000000000000
  51
 270.00000000000
  73
1
  72
1
  10
 390.95000000000
  20
 261.27500000000
  11
 396.35000000000
  21
 261.27500000000
  72
1
  10
 396.35000000000
  20
 261.27500000000
  11
 396.35000000000
  21
 264.87500000000
  72
1
  10
 396.35000000000
  20
 264.87500000000
  11
 390.95000000000
  21
 264.87500000000
  72
2
  10
 390.95000000000
  20
 266.67500000000
  40
 1.8000000000000
  50
 90.000000000000
  51
 270.00000000000
  73
0
  72
1
  10
 390.95000000000
  20
 268.47500000000
  11
 396.35000000000
  21
 268.47500000000
  72
1
  10
 396.35000000000
  20
 268.47500000000
  11
 396.35000000000
  21
 272.07500000000
  97
1
 330

  75
0
  76
1
  98
1
  10
0.0
  20
0.0
   0
MTEXT
   5
1CC
 100
AcDbEntity
   8
LEVEL001
 370
15
  62
8
 100
AcDbMText
  10
 310.79999999995
  20
 28.250000000010
  30
0.0
  40
 3.0000000000000
  41
0.0
  71
5
  72
1
   1
\T1.000000;サイズ：
   7
GMM002
  44
 0.79999984000003
   0
MTEXT
   5
1CE
 100
AcDbEntity
   8
LEVEL001
 370
15
  62
8
 100
AcDbMText
  10
 309.29999999995
  20
 48.250000000010
  30
0.0
  40
 3.0000000000000
  41
0.0
  71
5
  72
1
   1
\T1.000000;縮尺：
   7
GMM002
  44
 0.79999984000003
   0
MTEXT
   5
1D0
 100
AcDbEntity
   8
LEVEL001
 370
15
  62
8
 100
AcDbMText
  10
 312.29999999995
  20
 68.250000000010
  30
0.0
  40
 3.0000000000000
  41
0.0
  71
5
  72
1
   1
\T1.000000;図面名称：
   7
GMM002
  44
 0.79999984000003
   0
MTEXT
   5
1D2
 100
AcDbEntity
   8
LEVEL001
 370
15
  62
8
 100
AcDbMText
  10
 363.79999999995
  20
 28.250000000010
  30
0.0
  40
 3.0000000000000
  41
0.0
  71
5
  72
1
   1
\T1.000000;ファイル名：
   7
GMM002
  44
 0.79999984000003
   0
MTEXT
   5
1D4
 100
AcDbEntity
   8
LEVEL001
 370
15
  62
8
 100
AcDbMText
  10
 362.29999999995
  20
 48.666666666680
  30
0.0
  40
 2.8000000000000
  41
0.0
  71
5
  72
1
   1
\T1.000000;作成日付：
   7
GMM003
  44
 0.79999984000003
   0
MTEXT
   5
1D6
 100
AcDbEntity
   8
LEVEL001
 370
15
  62
8
 100
AcDbMText
  10
 362.29999999995
  20
 42.000000000010
  30
0.0
  40
 2.8000000000000
  41
0.0
  71
5
  72
1
   1
\T1.000000;変更日付：
   7
GMM003
  44
 0.79999984000003
   0
MTEXT
   5
1D8
 100
AcDbEntity
   8
LEVEL001
 370
15
  62
8
 100
AcDbMText
  10
 329.49999999995
  20
 18.250000000010
  30
0.0
  40
 3.7500000000000
  41
0.0
  71
5
  72
1
   1
\T1.000000;Ａ３
   7
GMM002
  44
 0.79999984000003
   0
MTEXT
   5
1DA
 100
AcDbEntity
   8
LEVEL001
 370
15
  62
8
 100
AcDbMText
  10
 309.29999999995
  20
 213.00000000000
  30
0.0
  40
 3.0000000000000
  41
0.0
  71
5
  72
1
   1
\T1.000000;仕様：
   7
GMM002
  44
 0.79999984000003
   0
MTEXT
   5
1DC
 100
AcDbEntity
   8
LEVEL001
 370
15
  62
8
 100
AcDbMText
  10
 309.29999999995
  20
 233.00000000000
  30
0.0
  40
 3.0000000000000
  41
0.0
  71
5
  72
1
   1
\T1.000000;形式：
   7
GMM002
  44
 0.79999984000003
   0
MTEXT
   5
1DE
 100
AcDbEntity
   8
LEVEL001
 370
15
  62
8
 100
AcDbMText
  10
 310.79999999995
  20
 253.00000000000
  30
0.0
  40
 3.0000000000000
  41
0.0
  71
5
  72
1
   1
\T1.000000;商品名：
   7
GMM002
  44
 0.79999984000003
   0
MTEXT
   5
1E0
 100
AcDbEntity
   8
LEVEL001
 370
15
  62
8
 100
AcDbMText
  10
 346.89999999995
  20
 76.870803459012
  30
0.0
  40
 4.0000000000000
  41
0.0
  71
5
  72
1
   1
\T1.000000;　※本製品は予告無しに変更する事があります。
   7
GMM002
  44
 0.79999984000003
   0
MTEXT
   5
1E2
 100
AcDbEntity
   8
LEVEL001
 370
15
  62
8
 100
AcDbMText
  10
 329.49999999995
  20
 38.250000000010
  30
0.0
  40
 3.7500000000000
  41
0.0
  71
5
  72
1
   1
\T1.000000;Ｓ＝１：１
   7
GMM002
  44
 0.79999984000003
   0
MTEXT
   5
1E4
 100
AcDbEntity
   8
LEVEL001
 370
15
  62
8
 100
AcDbMText
  10
 387.21508456075
  20
 42.000000000010
  30
0.0
  40
 3.0000000000000
  41
0.0
  71
5
  72
1
   1
\T1.000000;令和　　年　　月　　日
   7
GMM002
  44
 0.79999984000003
   0
MTEXT
   5
1E6
 100
AcDbEntity
   8
LEVEL001
 370
15
  62
8
 100
AcDbMText
  10
 387.21508456075
  20
 35.333333333345
  30
0.0
  40
 3.0000000000000
  41
0.0
  71
5
  72
1
   1
\T1.000000;令和　　年　　月　　日
   7
GMM002
  44
 0.79999984000003
   0
MTEXT
   5
1E8
 100
AcDbEntity
   8
0
 370
15
  62
8
 100
AcDbMText
  10
 15.799999999950
  20
 280.00000000000
  30
0.0
  40
 3.0000000000000
  41
0.0
  71
4
  72
1
   1
\W0.500000;\T1.000000; \W1.000000;\T1.000000;　ＡＬＨ１２シリーズ
   7
GMM002
  44
 0.79999984000003
   0
MTEXT
   5
1EA
 100
AcDbEntity
   8
LEVEL001
 370
15
  62
8
 100
AcDbMText
  10
 379.49999999995
  20
 20.083333333345
  30
0.0
  40
 2.5000000000000
  41
0.0
  71
5
  72
1
   1
\T1.000000;ＡＬＨ１２
   7
GMM002
  44
 0.79999984000003
   0
LINE
   5
1EB
 100
AcDbEntity
   8
0
 370
15
 100
AcDbLine
   6
DASHDOT
  62
8
  10
 55.758986814231
  20
 251.61296296296
  30
0.0
  11
 56.977448458554
  21
 251.61296296296
  31
0.0
   0
LINE
   5
1EC
 100
AcDbEntity
   8
0
 370
15
 100
AcDbLine
   6
DASHDOT
  62
8
  10
 55.931582844134
  20
 250.41296296296
  30
0.0
  11
 56.904852428655
  21
 250.41296296296
  31
0.0
   0
LINE
   5
1ED
 100
AcDbEntity
   8
0
 370
15
 100
AcDbLine
   6
DASHDOT
  62
8
  10
 52.968217636392
  20
 248.25531885566
  30
0.0
  11
 52.968217636392
  21
 249.57060707026
  31
0.0
   0
LINE
   5
1EE
 100
AcDbEntity
   8
0
 370
15
 100
AcDbLine
   6
DASHDOT
  62
8
  10
 50.418217636392
  20
 248.11352973476
  30
0.0
  11
 50.418217636392
  21
 255.11239619117
  31
0.0
   0
LINE
   5
1EF
 100
AcDbEntity
   8
0
 370
15
 100
AcDbLine
   6
DASHDOT
  62
8
  10
 45.077448458554
  20
 251.61296296296
  30
0.0
  11
 43.858986814231
  21
 251.61296296296
  31
0.0
   0
LINE
   5
1F0
 100
AcDbEntity
   8
0
 370
15
 100
AcDbLine
   6
DASHDOT
  62
8
  10
 44.904852428651
  20
 250.41296296296
  30
0.0
  11
 43.931582844130
  21
 250.41296296296
  31
0.0
   0
LINE
   5
1F1
 100
AcDbEntity
   8
0
 370
15
 100
AcDbLine
   6
DASHDOT
  62
8
  10
 47.868217636392
  20
 248.25531885566
  30
0.0
  11
 47.868217636392
  21
 249.57060707026
  31
0.0
   0
DIMENSION
   5
1F2
 100
AcDbEntity
   8
0
 370
15
   6
CONTINUOUS
  62
8
 100
AcDbDimension
   2
*D1
  10
 56.418217636394
  20
 241.42962962963
  30
0.0
  11
 50.418217636392
  21
 241.42962962963
  31
0.0
  70
0
   3
GMM001
 100
AcDbAlignedDimension
  13
 44.418217636390
  23
 250.61296296296
  33
0.0
  14
 56.418217636394
  24
 250.61296296296
  34
0.0
 100
AcDbRotatedDimension
   0
DIMENSION
   5
1F3
 100
AcDbEntity
   8
0
 370
15
   6
CONTINUOUS
  62
8
 100
AcDbDimension
   2
*D2
  10
 56.668217636392
  20
 235.56296296296
  30
0.0
  11
 50.418217636392
  21
 235.56296296296
  31
0.0
  70
0
   3
GMM001
 100
AcDbAlignedDimension
  13
 44.168217636392
  23
 251.61296296296
  33
0.0
  14
 56.668217636392
  24
 251.61296296296
  34
0.0
 100
AcDbRotatedDimension
   0
DIMENSION
   5
1F4
 100
AcDbEntity
   8
0
 370
15
   6
CONTINUOUS
  62
8
 100
AcDbDimension
   2
*D3
  10
 55.318217636392
  20
 259.57283950617
  30
0.0
  11
 50.418217636392
  21
 259.57283950617
  31
0.0
  70
0
   3
GMM001
 100
AcDbAlignedDimension
  13
 45.518217636392
  23
 254.21296296296
  33
0.0
  14
 55.318217636392
  24
 254.21296296296
  34
0.0
 100
AcDbRotatedDimension
   0
DIMENSION
   5
1F5
 100
AcDbEntity
   8
0
 370
15
   6
CONTINUOUS
  62
8
 100
AcDbDimension
   2
*D4
  10
 57.618217636392
  20
 265.87407407407
  30
0.0
  11
 50.418217636392
  21
 265.87407407407
  31
0.0
  70
0
   3
GMM001
 100
AcDbAlignedDimension
  13
 43.218217636392
  23
 253.82481037094
  33
0.0
  14
 57.618217636392
  24
 253.82481037094
  34
0.0
 100
AcDbRotatedDimension
   0
DIMENSION
   5
1F6
 100
AcDbEntity
   8
0
 370
15
   6
CONTINUOUS
  62
8
 100
AcDbDimension
   2
*D5
  10
 64.100362126562
  20
 253.61296296296
  30
0.0
  11
 64.100362126562
  21
 251.11296296296
  31
0.0
  70
0
   3
GMM001
 100
AcDbAlignedDimension
  13
 56.118217636392
  23
 248.61296296296
  33
0.0
  14
 57.518217636392
  24
 253.61296296296
  34
0.0
  50
 90.000000000000
 100
AcDbRotatedDimension
   0
DIMENSION
   5
1F7
 100
AcDbEntity
   8
0
 370
15
   6
CONTINUOUS
  62
8
 100
AcDbDimension
   2
*D6
  10
 70.280883388565
  20
 254.71296296296
  30
0.0
  11
 70.280883388565
  21
 251.66296296296
  31
0.0
  70
0
   3
GMM001
 100
AcDbAlignedDimension
  13
 59.718217636392
  23
 248.61296296296
  33
0.0
  14
 56.724492243073
  24
 254.71296296296
  34
0.0
  50
 90.000000000000
 100
AcDbRotatedDimension
   0
LINE
   5
1F8
 100
AcDbEntity
   8
0
 370
15
 100
AcDbLine
   6
CONTINUOUS
  62
8
  10
 37.897438132991
  20
 218.03749313348
  30
0.0
  11
 67.476399974727
  21
 218.03749313348
  31
0.0
   0
MTEXT
   5
1FA
 100
AcDbEntity
   8
0
 370
15
  62
8
 100
AcDbMText
  10
 52.686919053859
  20
 230.59954390356
  30
0.0
  40
 3.0000000000000
  41
0.0
  71
2
  72
1
   1
{\W1.000000;\T1.000000;アルミロング引手}\P{\W1.000000;\T1.000000;　ＡＬＨ１２}\P{\W0.500000;\T1.000000; (\W1.000000;\T1.000000;Ｓ＝１／１\W0.500000;\T1.000000;)}
   7
GMM002
  44
 0.79999984000003
   0
LINE
   5
1FB
 100
AcDbEntity
   8
0
 370
30
 100
AcDbLine
   6
CONTINUOUS
  62
7
  10
 50.718217636325
  20
 248.61296296303
  30
0.0
  11
 50.418217636392
  21
 248.91296296296
  31
0.0
   0
ARC
   5
1FC
 100
AcDbEntity
   8
0
 370
30
   6
CONTINUOUS
  62
7
 100
AcDbCircle
  10
 57.418217636393
  20
 253.81296296296
  30
0.0
  40
 0.20000000000000
 100
AcDbArc
  50
 270.00000000000
  51
 0.16284439969093E-10
   0
LINE
   5
1FD
 100
AcDbEntity
   8
0
 370
30
 100
AcDbLine
   6
CONTINUOUS
  62
7
  10
 55.318217636394
  20
 249.71296296296
  30
0.0
  11
 55.318217636392
  21
 254.21296296296
  31
0.0
   0
ARC
   5
1FE
 100
AcDbEntity
   8
0
 370
30
   6
CONTINUOUS
  62
7
 100
AcDbCircle
  10
 57.418217636393
  20
 253.81296296296
  30
0.0
  40
 0.20000000000000
 100
AcDbArc
  50
 269.99999999996
  51
 7.1807557817799
   0
LINE
   5
1FF
 100
AcDbEntity
   8
0
 370
30
 100
AcDbLine
   6
CONTINUOUS
  62
7
  10
 55.818217636392
  20
 254.71296296296
  30
0.0
  11
 56.624492243074
  21
 254.71296296296
  31
0.0
   0
ARC
   5
200
 100
AcDbEntity
   8
0
 370
30
   6
CONTINUOUS
  62
7
 100
AcDbCircle
  10
 56.624492243074
  20
 253.71296296296
  30
0.0
  40
 1.0000000000000
 100
AcDbArc
  50
 6.4218215217992
  51
 90.000000000030
   0
ARC
   5
201
 100
AcDbEntity
   8
0
 370
30
   6
CONTINUOUS
  62
7
 100
AcDbCircle
  10
 55.818217636393
  20
 254.21296296296
  30
0.0
  40
 0.50000000000000
 100
AcDbArc
  50
 90.000000000140
  51
 179.99999999997
   0
ARC
   5
202
 100
AcDbEntity
   8
0
 370
30
   6
CONTINUOUS
  62
7
 100
AcDbCircle
  10
 56.368217636392
  20
 251.61296296296
  30
0.0
  40
 0.30000000000000
 100
AcDbArc
  50
 279.59406822720
  51
 80.405931772785
   0
LINE
   5
203
 100
AcDbEntity
   8
0
 370
30
 100
AcDbLine
   6
CONTINUOUS
  62
7
  10
 56.418217636394
  20
 250.61296296296
  30
0.0
  11
 56.418217636394
  21
 251.31715897381
  31
0.0
   0
ARC
   5
204
 100
AcDbEntity
   8
0
 370
30
   6
CONTINUOUS
  62
7
 100
AcDbCircle
  10
 56.418217636394
  20
 250.41296296296
  30
0.0
  40
 0.20000000000000
 100
AcDbArc
  50
 90.000000000000
  51
 239.99999999933
   0
LINE
   5
205
 100
AcDbEntity
   8
0
 370
30
 100
AcDbLine
   6
CONTINUOUS
  62
7
  10
 56.318217636392
  20
 249.61296296296
  30
0.0
  11
 56.318217636392
  21
 250.23975788221
  31
0.0
   0
ARC
   5
206
 100
AcDbEntity
   8
0
 370
30
   6
CONTINUOUS
  62
7
 100
AcDbCircle
  10
 55.318217636392
  20
 249.61296296296
  30
0.0
  40
 1.0000000000000
 100
AcDbArc
  50
 270.00000000000
  51
0.0
   0
POINT
   5
207
 100
AcDbEntity
   8
0
 100
AcDbPoint
  62
7
  10
 56.318217636392
  20
 248.61296296296
  30
0.0
   0
LINE
   5
208
 100
AcDbEntity
   8
0
 370
30
 100
AcDbLine
   6
CONTINUOUS
  62
7
  10
 52.968217636392
  20
 248.91296296296
  30
0.0
  11
 52.668217636394
  21
 248.61296296296
  31
0.0
   0
LINE
   5
209
 100
AcDbEntity
   8
0
 370
30
 100
AcDbLine
   6
CONTINUOUS
  62
7
  10
 52.668217636394
  20
 248.61296296296
  30
0.0
  11
 50.718217636392
  21
 248.61296296296
  31
0.0
   0
LINE
   5
20A
 100
AcDbEntity
   8
0
 370
30
 100
AcDbLine
   6
CONTINUOUS
  62
7
  10
 53.268217636390
  20
 248.61296296296
  30
0.0
  11
 52.968217636392
  21
 248.91296296296
  31
0.0
   0
LINE
   5
20B
 100
AcDbEntity
   8
0
 370
30
 100
AcDbLine
   6
CONTINUOUS
  62
7
  10
 55.318217636392
  20
 248.61296296296
  30
0.0
  11
 53.268217636390
  21
 248.61296296296
  31
0.0
   0
LINE
   5
20C
 100
AcDbEntity
   8
0
 370
30
 100
AcDbLine
   6
CONTINUOUS
  62
7
  10
 50.418217636392
  20
 249.71296296296
  30
0.0
  11
 55.318217636394
  21
 249.71296296296
  31
0.0
   0
LINE
   5
20D
 100
AcDbEntity
   8
0
 370
30
 100
AcDbLine
   6
CONTINUOUS
  62
7
  10
 50.118217636459
  20
 248.61296296303
  30
0.0
  11
 50.418217636392
  21
 248.91296296296
  31
0.0
   0
ARC
   5
20E
 100
AcDbEntity
   8
0
 370
30
   6
CONTINUOUS
  62
7
 100
AcDbCircle
  10
 43.418217636392
  20
 253.81296296296
  30
0.0
  40
 0.20000000000000
 100
AcDbArc
  50
 179.99999999998
  51
 270.00000000001
   0
LINE
   5
20F
 100
AcDbEntity
   8
0
 370
30
 100
AcDbLine
   6
CONTINUOUS
  62
7
  10
 45.518217636391
  20
 249.71296296296
  30
0.0
  11
 45.518217636393
  21
 254.21296296296
  31
0.0
   0
ARC
   5
210
 100
AcDbEntity
   8
0
 370
30
   6
CONTINUOUS
  62
7
 100
AcDbCircle
  10
 43.418217636392
  20
 253.81296296296
  30
0.0
  40
 0.20000000000000
 100
AcDbArc
  50
 172.81924421822
  51
 270.00000000004
   0
LINE
   5
211
 100
AcDbEntity
   8
0
 370
30
 100
AcDbLine
   6
CONTINUOUS
  62
7
  10
 45.018217636393
  20
 254.71296296296
  30
0.0
  11
 44.211943029711
  21
 254.71296296296
  31
0.0
   0
ARC
   5
212
 100
AcDbEntity
   8
0
 370
30
   6
CONTINUOUS
  62
7
 100
AcDbCircle
  10
 44.211943029711
  20
 253.71296296296
  30
0.0
  40
 1.0000000000000
 100
AcDbArc
  50
 89.999999999970
  51
 173.57817847820
   0
ARC
   5
213
 100
AcDbEntity
   8
0
 370
30
   6
CONTINUOUS
  62
7
 100
AcDbCircle
  10
 45.018217636392
  20
 254.21296296296
  30
0.0
  40
 0.50000000000000
 100
AcDbArc
  50
 0.29311991944368E-10
  51
 89.999999999860
   0
ARC
   5
214
 100
AcDbEntity
   8
0
 370
30
   6
CONTINUOUS
  62
7
 100
AcDbCircle
  10
 44.468217636392
  20
 251.61296296296
  30
0.0
  40
 0.30000000000000
 100
AcDbArc
  50
 99.594068227215
  51
 260.40593177280
   0
LINE
   5
215
 100
AcDbEntity
   8
0
 370
30
 100
AcDbLine
   6
CONTINUOUS
  62
7
  10
 44.418217636390
  20
 250.61296296296
  30
0.0
  11
 44.418217636390
  21
 251.31715897381
  31
0.0
   0
ARC
   5
216
 100
AcDbEntity
   8
0
 370
30
   6
CONTINUOUS
  62
7
 100
AcDbCircle
  10
 44.418217636390
  20
 250.41296296296
  30
0.0
  40
 0.20000000000000
 100
AcDbArc
  50
 300.00000000067
  51
 90.000000000000
   0
LINE
   5
217
 100
AcDbEntity
   8
0
 370
30
 100
AcDbLine
   6
CONTINUOUS
  62
7
  10
 44.518217636392
  20
 249.61296296296
  30
0.0
  11
 44.518217636392
  21
 250.23975788221
  31
0.0
   0
ARC
   5
218
 100
AcDbEntity
   8
0
 370
30
   6
CONTINUOUS
  62
7
 100
AcDbCircle
  10
 45.518217636392
  20
 249.61296296296
  30
0.0
  40
 1.0000000000000
 100
AcDbArc
  50
 180.00000000000
  51
 270.00000000000
   0
POINT
   5
219
 100
AcDbEntity
   8
0
 100
AcDbPoint
  62
7
  10
 44.518217636392
  20
 248.61296296296
  30
0.0
   0
LINE
   5
21A
 100
AcDbEntity
   8
0
 370
30
 100
AcDbLine
   6
CONTINUOUS
  62
7
  10
 47.868217636392
  20
 248.91296296296
  30
0.0
  11
 48.168217636390
  21
 248.61296296296
  31
0.0
   0
LINE
   5
21B
 100
AcDbEntity
   8
0
 370
30
 100
AcDbLine
   6
CONTINUOUS
  62
7
  10
 48.168217636390
  20
 248.61296296296
  30
0.0
  11
 50.118217636392
  21
 248.61296296296
  31
0.0
   0
LINE
   5
21C
 100
AcDbEntity
   8
0
 370
30
 100
AcDbLine
   6
CONTINUOUS
  62
7
  10
 47.568217636394
  20
 248.61296296296
  30
0.0
  11
 47.868217636392
  21
 248.91296296296
  31
0.0
   0
LINE
   5
21D
 100
AcDbEntity
   8
0
 370
30
 100
AcDbLine
   6
CONTINUOUS
  62
7
  10
 45.518217636392
  20
 248.61296296296
  30
0.0
  11
 47.568217636394
  21
 248.61296296296
  31
0.0
   0
LINE
   5
21E
 100
AcDbEntity
   8
0
 370
30
 100
AcDbLine
   6
CONTINUOUS
  62
7
  10
 50.418217636392
  20
 249.71296296296
  30
0.0
  11
 45.518217636391
  21
 249.71296296296
  31
0.0
   0
LINE
   5
21F
 100
AcDbEntity
   8
0
 370
30
 100
AcDbLine
   6
CONTINUOUS
  62
7
  10
 43.418217636390
  20
 253.61296296296
  30
0.0
  11
 44.418217636390
  21
 253.61296296296
  31
0.0
   0
LINE
   5
220
 100
AcDbEntity
   8
0
 370
30
 100
AcDbLine
   6
CONTINUOUS
  62
7
  10
 44.418217636390
  20
 251.90876695212
  30
0.0
  11
 44.418217636390
  21
 253.61296296296
  31
0.0
   0
LINE
   5
221
 100
AcDbEntity
   8
0
 370
30
 100
AcDbLine
   6
CONTINUOUS
  62
7
  10
 57.418217636395
  20
 253.61296296296
  30
0.0
  11
 56.418217636394
  21
 253.61296296296
  31
0.0
   0
LINE
   5
222
 100
AcDbEntity
   8
0
 370
30
 100
AcDbLine
   6
CONTINUOUS
  62
7
  10
 56.418217636394
  20
 251.90876695212
  30
0.0
  11
 56.418217636394
  21
 253.61296296296
  31
0.0
   0
DIMENSION
   5
223
 100
AcDbEntity
   8
0
 370
15
   6
CONTINUOUS
  62
8
 100
AcDbDimension
   2
*D7
  10
 60.427580543368
  20
 187.43209876541
  30
0.0
  11
 60.427580543368
  21
 112.43209876542
  31
0.0
  70
0
   1
\A1;ロング引手長さ
   3
GMM002
 100
AcDbAlignedDimension
  13
 48.427580543368
  23
 37.432098765417
  33
0.0
  14
 48.427580543368
  24
 187.43209876541
  34
0.0
  50
 90.000000000000
 100
AcDbRotatedDimension
   0
DIMENSION
   5
224
 100
AcDbEntity
   8
0
 370
15
   6
CONTINUOUS
  62
8
 100
AcDbDimension
   2
*D8
  10
 48.427580543368
  20
 27.432098765417
  30
0.0
  11
 41.127580543368
  21
 27.432098765417
  31
0.0
  70
0
   1
\A1;14.4
   3
GMM001
 100
AcDbAlignedDimension
  13
 33.827580543368
  23
 37.432098765417
  33
0.0
  14
 48.427580543368
  24
 37.432098765417
  34
0.0
 100
AcDbRotatedDimension
   0
LINE
   5
225
 100
AcDbEntity
   8
0
 370
15
 100
AcDbLine
   6
DASHDOT
  62
8
  10
 30.058116660202
  20
 109.40314340266
  30
0.0
  11
 53.352537295297
  21
 117.88161913831
  31
0.0
   0
LINE
   5
226
 100
AcDbEntity
   8
0
 370
15
 100
AcDbLine
   6
DASHDOT
  62
8
  10
 29.995567962749
  20
 106.87760026596
  30
0.0
  11
 53.352537295297
  21
 115.37884186568
  31
0.0
   0
MTEXT
   5
228
 100
AcDbEntity
   8
0
 370
25
  62
1
 100
AcDbMText
  10
 40.843381483363
  20
 199.41821038168
  30
0.0
  40
 4.0000000000000
  41
0.0
  71
5
  72
1
   1
\T1.000000;通し仕様
   7
GMM002
  44
 0.79999984000003
   0
LWPOLYLINE
   5
229
 100
AcDbEntity
   8
0
 370
30
   6
CONTINUOUS
  62
7
 100
AcDbPolyline
  90
4
  70
1
  10
 25.843381483363
  20
 195.41821038168
  10
 55.843381483363
  20
 195.41821038168
  10
 55.843381483363
  20
 203.41821038168
  10
 25.843381483363
  20
 203.41821038168
   0
LINE
   5
22A
 100
AcDbEntity
   8
0
 370
30
 100
AcDbLine
   6
CONTINUOUS
  62
7
  10
 33.827580543368
  20
 37.432098765417
  30
0.0
  11
 48.427580543368
  21
 37.432098765417
  31
0.0
   0
LINE
   5
22B
 100
AcDbEntity
   8
0
 370
30
 100
AcDbLine
   6
CONTINUOUS
  62
7
  10
 48.427580543368
  20
 187.43209876541
  30
0.0
  11
 33.827580543368
  21
 187.43209876541
  31
0.0
   0
LINE
   5
22C
 100
AcDbEntity
   8
0
 370
30
 100
AcDbLine
   6
CONTINUOUS
  62
7
  10
 33.827580543368
  20
 187.43209876541
  30
0.0
  11
 33.827580543368
  21
 110.73648795522
  31
0.0
   0
LINE
   5
22D
 100
AcDbEntity
   8
0
 370
30
 100
AcDbLine
   6
CONTINUOUS
  62
7
  10
 36.127580543368
  20
 187.43209876541
  30
0.0
  11
 36.127580543368
  21
 111.61480086699
  31
0.0
   0
LINE
   5
22E
 100
AcDbEntity
   8
0
 370
30
 100
AcDbLine
   6
CONTINUOUS
  62
7
  10
 33.827580543368
  20
 108.18972091205
  30
0.0
  11
 33.827580543368
  21
 37.432098765417
  31
0.0
   0
LINE
   5
22F
 100
AcDbEntity
   8
0
 370
30
 100
AcDbLine
   6
CONTINUOUS
  62
7
  10
 36.127580543368
  20
 109.05956135921
  30
0.0
  11
 36.127580543368
  21
 37.432098765417
  31
0.0
   0
LINE
   5
230
 100
AcDbEntity
   8
0
 370
30
 100
AcDbLine
   6
CONTINUOUS
  62
7
  10
 46.127580543368
  20
 37.432098765417
  30
0.0
  11
 46.127580543368
  21
 112.75903624794
  31
0.0
   0
LINE
   5
231
 100
AcDbEntity
   8
0
 370
30
 100
AcDbLine
   6
CONTINUOUS
  62
7
  10
 48.427580543368
  20
 37.432098765417
  30
0.0
  11
 48.427580543368
  21
 113.43209876542
  31
0.0
   0
LINE
   5
232
 100
AcDbEntity
   8
0
 370
30
 100
AcDbLine
   6
CONTINUOUS
  62
7
  10
 46.127580543368
  20
 115.36083156614
  30
0.0
  11
 46.127580543368
  21
 187.43209876541
  31
0.0
   0
LINE
   5
233
 100
AcDbEntity
   8
0
 370
30
 100
AcDbLine
   6
CONTINUOUS
  62
7
  10
 48.427580543368
  20
 116.12061546325
  30
0.0
  11
 48.427580543368
  21
 187.43209876541
  31
0.0
   0
MTEXT
   5
235
 100
AcDbEntity
   8
0
 370
15
  62
8
 100
AcDbMText
  10
 80.085146453229
  20
 193.88827261521
  30
0.0
  40
 3.5000000000000
  41
0.0
  71
5
  72
1
   1
\T1.000000;切欠寸法
   7
GMM002
  44
 0.79999984000003
   0
DIMENSION
   5
236
 100
AcDbEntity
   8
0
 370
15
   6
CONTINUOUS
  62
8
 100
AcDbDimension
   2
*D9
  10
 98.285146453234
  20
 187.43209876541
  30
0.0
  11
 98.285146453234
  21
 112.43209876542
  31
0.0
  70
0
   1
\A1;戸高全長
   3
GMM002
 100
AcDbAlignedDimension
  13
 86.285146453229
  23
 37.432098765417
  33
0.0
  14
 86.285146453229
  24
 187.43209876541
  34
0.0
  50
 90.000000000000
 100
AcDbRotatedDimension
   0
LINE
   5
237
 100
AcDbEntity
   8
0
 370
15
 100
AcDbLine
   6
DASHDOT
  62
8
  10
 70.053133872610
  20
 106.87760026596
  30
0.0
  11
 90.661947209036
  21
 114.37859488397
  31
0.0
   0
LINE
   5
238
 100
AcDbEntity
   8
0
 370
15
 100
AcDbLine
   6
DASHDOT
  62
8
  10
 70.115682570064
  20
 109.40314340266
  30
0.0
  11
 90.132672474844
  21
 116.68873190760
  31
0.0
   0
DIMENSION
   5
239
 100
AcDbEntity
   8
0
 370
15
   6
CONTINUOUS
  62
8
 100
AcDbDimension
   2
*D10
  10
 86.285146453229
  20
 27.432098765417
  30
0.0
  11
 80.085146453229
  21
 27.432098765417
  31
0.0
  70
0
   1
\A1;12{\H0.625x;\S+0.4^  0;}
   3
GMM003
 100
AcDbAlignedDimension
  13
 73.885146453229
  23
 37.432098765417
  33
0.0
  14
 86.285146453229
  24
 37.432098765417
  34
0.0
 100
AcDbRotatedDimension
   0
LINE
   5
23A
 100
AcDbEntity
   8
0
 370
30
 100
AcDbLine
   6
HIDDEN
  62
7
  10
 73.885146453229
  20
 37.432098765417
  30
0.0
  11
 86.285146453229
  21
 37.432098765417
  31
0.0
   0
LINE
   5
23B
 100
AcDbEntity
   8
0
 370
30
 100
AcDbLine
   6
HIDDEN
  62
7
  10
 86.285146453229
  20
 187.43209876541
  30
0.0
  11
 73.885146453229
  21
 187.43209876541
  31
0.0
   0
LINE
   5
23C
 100
AcDbEntity
   8
0
 370
30
 100
AcDbLine
   6
HIDDEN
  62
7
  10
 73.885146453229
  20
 187.43209876541
  30
0.0
  11
 73.885146453229
  21
 110.80325204559
  31
0.0
   0
LINE
   5
23D
 100
AcDbEntity
   8
0
 370
30
 100
AcDbLine
   6
HIDDEN
  62
7
  10
 86.285146453229
  20
 115.29847606108
  30
0.0
  11
 86.285146453229
  21
 187.43209876541
  31
0.0
   0
LINE
   5
23E
 100
AcDbEntity
   8
0
 370
30
 100
AcDbLine
   6
HIDDEN
  62
7
  10
 73.885146453229
  20
 108.23586008552
  30
0.0
  11
 73.885146453229
  21
 37.432098765417
  31
0.0
   0
LINE
   5
23F
 100
AcDbEntity
   8
0
 370
30
 100
AcDbLine
   6
HIDDEN
  62
7
  10
 86.285146453229
  20
 37.432098765417
  30
0.0
  11
 86.285146453229
  21
 112.76439634235
  31
0.0
   0
MTEXT
   5
241
 100
AcDbEntity
   8
LEVEL001
 370
15
  62
8
 100
AcDbMText
  10
 313.62752064161
  20
 207.91666666670
  30
0.0
  40
 3.5000000000000
  41
0.0
  71
1
  72
1
   3
{\W1.000000;\T1.000000;・ロング引手}\P{\W1.000000;\T1.000000;　ＡＬＨ１２}\P{\W1.000000;\T1.000000;　　材質／Ａ６０６３Ｓ－Ｔ５}\P{\W1.000000;\T1.000000;　　カラー／シルバー（Ｂ２）}\P{\W0.500000;\T1.000000;            \W1.000000;\T1.000000;アーバン
   3
ブラウンＭ（ＵＢＭ）}\P{\W1.000000;\T1.000000;　　長さ／２１００\W0.500000;\T1.000000;m/m\W1.000000;\T1.000000;・２３００\W0.500000;\T1.000000;m/m\W1.000000;\T1.000000;・２６００\W0.500000;\T1.000000;m/m\W1.000000;\T1.000000;　　}\P\P{\W1.000000;\T1.
   1
000000;　　　}
   7
GMM002
  44
 0.79999984000003
   0
MTEXT
   5
243
 100
AcDbEntity
   8
0
 370
15
  62
8
 100
AcDbMText
  10
 82.752168253680
  20
 260.97407407407
  30
0.0
  40
 3.0000000000000
  41
0.0
  71
1
  72
1
   3
{\W1.000000;\T1.000000;注）・ツバ厚１\W0.500000;\T1.000000;.\W1.000000;\T1.000000;１\W0.500000;\T1.000000;m/m\W1.000000;\T1.000000;のため引き違いの場合は建具間のクリアランスは通常より}\P{\W1.000000;\T1.000000;　　　２\W0.500000;\T1.000000;.\W1.000000
   1
;\T1.000000;２\W0.500000;\T1.000000;m/m\W1.000000;\T1.000000;以上広く設定している。}\P{\W1.000000;\T1.000000;　　・打込み仕様ですが、必ず接着剤を併用して下さい。}\P{\W1.000000;\T1.000000;　　　}
   7
GMM002
  44
 0.79999984000003
   0
MTEXT
   5
245
 100
AcDbEntity
   8
LEVEL001
 370
15
  62
8
 100
AcDbMText
  10
 387.21508456075
  20
 48.666666666680
  30
0.0
  40
 3.0000000000000
  41
0.0
  71
5
  72
1
   1
\T1.000000;令和０５年０５月１８日
   7
GMM002
  44
 0.79999984000003
   0
LWPOLYLINE
   5
246
 100
AcDbEntity
   8
0
 370
30
   6
CONTINUOUS
  62
7
 100
AcDbPolyline
  90
4
  70
1
  10
 111.45159886662
  20
 195.41821038168
  10
 141.45159886662
  20
 195.41821038168
  10
 141.45159886662
  20
 203.41821038168
  10
 111.45159886662
  20
 203.41821038168
   0
MTEXT
   5
248
 100
AcDbEntity
   8
0
 370
25
  62
1
 100
AcDbMText
  10
 126.45159886662
  20
 199.41821038168
  30
0.0
  40
 4.0000000000000
  41
0.0
  71
5
  72
1
   1
\T1.000000;圧入接着
   7
GMM002
  44
 0.79999984000003
   0
LINE
   5
249
 100
AcDbEntity
   8
0
 370
15
 100
AcDbLine
   6
DASHDOT
  62
8
  10
 123.11709659163
  20
 150.06153218128
  30
0.0
  11
 123.11709659163
  21
 151.27999382560
  31
0.0
   0
LINE
   5
24A
 100
AcDbEntity
   8
0
 370
15
 100
AcDbLine
   6
DASHDOT
  62
8
  10
 124.31709659163
  20
 150.23412821118
  30
0.0
  11
 124.31709659163
  21
 151.20739779570
  31
0.0
   0
LINE
   5
24B
 100
AcDbEntity
   8
0
 370
15
 100
AcDbLine
   6
DASHDOT
  62
8
  10
 126.47474069893
  20
 147.27076300344
  30
0.0
  11
 125.15945248433
  21
 147.27076300344
  31
0.0
   0
LINE
   5
24C
 100
AcDbEntity
   8
0
 370
15
 100
AcDbLine
   6
DASHDOT
  62
8
  10
 126.61652981984
  20
 144.72076300344
  30
0.0
  11
 119.61766336342
  21
 144.72076300344
  31
0.0
   0
LINE
   5
24D
 100
AcDbEntity
   8
0
 370
15
 100
AcDbLine
   6
DASHDOT
  62
8
  10
 123.11709659163
  20
 139.37999382560
  30
0.0
  11
 123.11709659163
  21
 138.16153218128
  31
0.0
   0
LINE
   5
24E
 100
AcDbEntity
   8
0
 370
15
 100
AcDbLine
   6
DASHDOT
  62
8
  10
 124.31709659163
  20
 139.20739779570
  30
0.0
  11
 124.31709659163
  21
 138.23412821118
  31
0.0
   0
LINE
   5
24F
 100
AcDbEntity
   8
0
 370
15
 100
AcDbLine
   6
DASHDOT
  62
8
  10
 126.47474069893
  20
 142.17076300344
  30
0.0
  11
 125.15945248433
  21
 142.17076300344
  31
0.0
   0
LINE
   5
250
 100
AcDbEntity
   8
0
 370
30
 100
AcDbLine
   6
CONTINUOUS
  62
7
  10
 126.11709659157
  20
 145.02076300337
  30
0.0
  11
 125.81709659163
  21
 144.72076300344
  31
0.0
   0
ARC
   5
251
 100
AcDbEntity
   8
0
 370
30
   6
CONTINUOUS
  62
7
 100
AcDbCircle
  10
 120.91709659163
  20
 151.72076300344
  30
0.0
  40
 0.20000000000000
 100
AcDbArc
  50
0.0
  51
 90.000000000004
   0
LINE
   5
252
 100
AcDbEntity
   8
0
 370
30
 100
AcDbLine
   6
CONTINUOUS
  62
7
  10
 125.01709659163
  20
 149.62076300344
  30
0.0
  11
 120.51709659163
  21
 149.62076300344
  31
0.0
   0
ARC
   5
253
 100
AcDbEntity
   8
0
 370
30
   6
CONTINUOUS
  62
7
 100
AcDbCircle
  10
 120.91709659163
  20
 151.72076300344
  30
0.0
  40
 0.20000000000000
 100
AcDbArc
  50
0.0
  51
 97.180755781764
   0
LINE
   5
254
 100
AcDbEntity
   8
0
 370
30
 100
AcDbLine
   6
CONTINUOUS
  62
7
  10
 120.01709659163
  20
 150.12076300344
  30
0.0
  11
 120.01709659163
  21
 150.92703761012
  31
0.0
   0
ARC
   5
255
 100
AcDbEntity
   8
0
 370
30
   6
CONTINUOUS
  62
7
 100
AcDbCircle
  10
 121.01709659163
  20
 150.92703761012
  30
0.0
  40
 1.0000000000000
 100
AcDbArc
  50
 96.421821521799
  51
 180.00000000003
   0
ARC
   5
256
 100
AcDbEntity
   8
0
 370
30
   6
CONTINUOUS
  62
7
 100
AcDbCircle
  10
 120.51709659163
  20
 150.12076300344
  30
0.0
  40
 0.50000000000000
 100
AcDbArc
  50
 180.00000000014
  51
 269.99999999997
   0
ARC
   5
257
 100
AcDbEntity
   8
0
 370
30
   6
CONTINUOUS
  62
7
 100
AcDbCircle
  10
 123.11709659163
  20
 150.67076300344
  30
0.0
  40
 0.30000000000000
 100
AcDbArc
  50
 9.5940682272041
  51
 170.40593177278
   0
LINE
   5
258
 100
AcDbEntity
   8
0
 370
30
 100
AcDbLine
   6
CONTINUOUS
  62
7
  10
 124.11709659163
  20
 150.72076300344
  30
0.0
  11
 123.41290058079
  21
 150.72076300344
  31
0.0
   0
ARC
   5
259
 100
AcDbEntity
   8
0
 370
30
   6
CONTINUOUS
  62
7
 100
AcDbCircle
  10
 124.31709659163
  20
 150.72076300344
  30
0.0
  40
 0.20000000000000
 100
AcDbArc
  50
 180.00000000000
  51
 329.99999999933
   0
LINE
   5
25A
 100
AcDbEntity
   8
0
 370
30
 100
AcDbLine
   6
CONTINUOUS
  62
7
  10
 125.11709659163
  20
 150.62076300344
  30
0.0
  11
 124.49030167239
  21
 150.62076300344
  31
0.0
   0
ARC
   5
25B
 100
AcDbEntity
   8
0
 370
30
   6
CONTINUOUS
  62
7
 100
AcDbCircle
  10
 125.11709659163
  20
 149.62076300344
  30
0.0
  40
 1.0000000000000
 100
AcDbArc
  50
0.0
  51
 90.000000000000
   0
POINT
   5
25C
 100
AcDbEntity
   8
0
 100
AcDbPoint
  62
7
  10
 126.11709659163
  20
 150.62076300344
  30
0.0
   0
LINE
   5
25D
 100
AcDbEntity
   8
0
 370
30
 100
AcDbLine
   6
CONTINUOUS
  62
7
  10
 125.81709659163
  20
 147.27076300344
  30
0.0
  11
 126.11709659163
  21
 146.97076300344
  31
0.0
   0
LINE
   5
25E
 100
AcDbEntity
   8
0
 370
30
 100
AcDbLine
   6
CONTINUOUS
  62
7
  10
 126.11709659163
  20
 146.97076300344
  30
0.0
  11
 126.11709659163
  21
 145.02076300344
  31
0.0
   0
LINE
   5
25F
 100
AcDbEntity
   8
0
 370
30
 100
AcDbLine
   6
CONTINUOUS
  62
7
  10
 126.11709659163
  20
 147.57076300344
  30
0.0
  11
 125.81709659163
  21
 147.27076300344
  31
0.0
   0
LINE
   5
260
 100
AcDbEntity
   8
0
 370
30
 100
AcDbLine
   6
CONTINUOUS
  62
7
  10
 126.11709659163
  20
 149.62076300344
  30
0.0
  11
 126.11709659163
  21
 147.57076300344
  31
0.0
   0
LINE
   5
261
 100
AcDbEntity
   8
0
 370
30
 100
AcDbLine
   6
CONTINUOUS
  62
7
  10
 125.01709659163
  20
 144.72076300344
  30
0.0
  11
 125.01709659163
  21
 149.62076300344
  31
0.0
   0
LINE
   5
262
 100
AcDbEntity
   8
0
 370
30
 100
AcDbLine
   6
CONTINUOUS
  62
7
  10
 126.11709659157
  20
 144.42076300351
  30
0.0
  11
 125.81709659163
  21
 144.72076300344
  31
0.0
   0
ARC
   5
263
 100
AcDbEntity
   8
0
 370
30
   6
CONTINUOUS
  62
7
 100
AcDbCircle
  10
 120.91709659163
  20
 137.72076300344
  30
0.0
  40
 0.20000000000000
 100
AcDbArc
  50
 270.00000000000
  51
 0.16284439969092E-10
   0
LINE
   5
264
 100
AcDbEntity
   8
0
 370
30
 100
AcDbLine
   6
CONTINUOUS
  62
7
  10
 125.01709659163
  20
 139.82076300344
  30
0.0
  11
 120.51709659163
  21
 139.82076300344
  31
0.0
   0
ARC
   5
265
 100
AcDbEntity
   8
0
 370
30
   6
CONTINUOUS
  62
7
 100
AcDbCircle
  10
 120.91709659163
  20
 137.72076300344
  30
0.0
  40
 0.20000000000000
 100
AcDbArc
  50
 262.81924421824
  51
 0.48853319907275E-10
   0
LINE
   5
266
 100
AcDbEntity
   8
0
 370
30
 100
AcDbLine
   6
CONTINUOUS
  62
7
  10
 120.01709659163
  20
 139.32076300344
  30
0.0
  11
 120.01709659163
  21
 138.51448839676
  31
0.0
   0
ARC
   5
267
 100
AcDbEntity
   8
0
 370
30
   6
CONTINUOUS
  62
7
 100
AcDbCircle
  10
 121.01709659163
  20
 138.51448839676
  30
0.0
  40
 1.0000000000000
 100
AcDbArc
  50
 179.99999999997
  51
 263.57817847820
   0
ARC
   5
268
 100
AcDbEntity
   8
0
 370
30
   6
CONTINUOUS
  62
7
 100
AcDbCircle
  10
 120.51709659163
  20
 139.32076300344
  30
0.0
  40
 0.50000000000000
 100
AcDbArc
  50
 90.000000000028
  51
 179.99999999986
   0
ARC
   5
269
 100
AcDbEntity
   8
0
 370
30
   6
CONTINUOUS
  62
7
 100
AcDbCircle
  10
 123.11709659163
  20
 138.77076300344
  30
0.0
  40
 0.30000000000000
 100
AcDbArc
  50
 189.59406822722
  51
 350.40593177280
   0
LINE
   5
26A
 100
AcDbEntity
   8
0
 370
30
 100
AcDbLine
   6
CONTINUOUS
  62
7
  10
 124.11709659163
  20
 138.72076300344
  30
0.0
  11
 123.41290058079
  21
 138.72076300344
  31
0.0
   0
ARC
   5
26B
 100
AcDbEntity
   8
0
 370
30
   6
CONTINUOUS
  62
7
 100
AcDbCircle
  10
 124.31709659163
  20
 138.72076300344
  30
0.0
  40
 0.20000000000000
 100
AcDbArc
  50
 30.000000000673
  51
 179.99999999998
   0
LINE
   5
26C
 100
AcDbEntity
   8
0
 370
30
 100
AcDbLine
   6
CONTINUOUS
  62
7
  10
 125.11709659163
  20
 138.82076300344
  30
0.0
  11
 124.49030167239
  21
 138.82076300344
  31
0.0
   0
ARC
   5
26D
 100
AcDbEntity
   8
0
 370
30
   6
CONTINUOUS
  62
7
 100
AcDbCircle
  10
 125.11709659163
  20
 139.82076300344
  30
0.0
  40
 1.0000000000000
 100
AcDbArc
  50
 270.00000000000
  51
0.0
   0
POINT
   5
26E
 100
AcDbEntity
   8
0
 100
AcDbPoint
  62
7
  10
 126.11709659163
  20
 138.82076300344
  30
0.0
   0
LINE
   5
26F
 100
AcDbEntity
   8
0
 370
30
 100
AcDbLine
   6
CONTINUOUS
  62
7
  10
 125.81709659163
  20
 142.17076300344
  30
0.0
  11
 126.11709659163
  21
 142.47076300344
  31
0.0
   0
LINE
   5
270
 100
AcDbEntity
   8
0
 370
30
 100
AcDbLine
   6
CONTINUOUS
  62
7
  10
 126.11709659163
  20
 142.47076300344
  30
0.0
  11
 126.11709659163
  21
 144.42076300344
  31
0.0
   0
LINE
   5
271
 100
AcDbEntity
   8
0
 370
30
 100
AcDbLine
   6
CONTINUOUS
  62
7
  10
 126.11709659163
  20
 141.87076300344
  30
0.0
  11
 125.81709659163
  21
 142.17076300344
  31
0.0
   0
LINE
   5
272
 100
AcDbEntity
   8
0
 370
30
 100
AcDbLine
   6
CONTINUOUS
  62
7
  10
 126.11709659163
  20
 139.82076300344
  30
0.0
  11
 126.11709659163
  21
 141.87076300344
  31
0.0
   0
LINE
   5
273
 100
AcDbEntity
   8
0
 370
30
 100
AcDbLine
   6
CONTINUOUS
  62
7
  10
 125.01709659163
  20
 144.72076300344
  30
0.0
  11
 125.01709659163
  21
 139.82076300344
  31
0.0
   0
LINE
   5
274
 100
AcDbEntity
   8
0
 370
30
 100
AcDbLine
   6
CONTINUOUS
  62
7
  10
 121.11709659163
  20
 137.72076300344
  30
0.0
  11
 121.11709659163
  21
 138.72076300344
  31
0.0
   0
LINE
   5
275
 100
AcDbEntity
   8
0
 370
30
 100
AcDbLine
   6
CONTINUOUS
  62
7
  10
 122.82129260248
  20
 138.72076300344
  30
0.0
  11
 121.11709659163
  21
 138.72076300344
  31
0.0
   0
LINE
   5
276
 100
AcDbEntity
   8
0
 370
30
 100
AcDbLine
   6
CONTINUOUS
  62
7
  10
 121.11709659163
  20
 151.72076300344
  30
0.0
  11
 121.11709659163
  21
 150.72076300344
  31
0.0
   0
LINE
   5
277
 100
AcDbEntity
   8
0
 370
30
 100
AcDbLine
   6
CONTINUOUS
  62
7
  10
 122.82129260248
  20
 150.72076300344
  30
0.0
  11
 121.11709659163
  21
 150.72076300344
  31
0.0
   0
LWPOLYLINE
   5
278
 100
AcDbEntity
   8
0
 370
40
   6
CONTINUOUS
  62
3
 100
AcDbPolyline
  90
6
  70
0
  10
 121.11709659163
  20
 175.22684786655
  10
 121.11709659163
  20
 150.72076300344
  10
 126.11709659163
  20
 150.72076300344
  10
 126.11709659163
  20
 138.72076300344
  10
 121.11709659163
  20
 138.72076300344
  10
 121.11709659163
  20
 114.21467814033
   0
DIMENSION
   5
279
 100
AcDbEntity
   8
0
 370
15
   6
CONTINUOUS
  62
8
 100
AcDbDimension
   2
*D11
  10
 116.59323206428
  20
 137.52076300344
  30
0.0
  11
 116.59323206428
  21
 144.72076300344
  31
0.0
  70
0
   3
GMM001
 100
AcDbAlignedDimension
  13
 120.90524918365
  23
 151.92076300344
  33
0.0
  14
 120.90524918365
  24
 137.52076300344
  34
0.0
  50
 270.00000000000
 100
AcDbRotatedDimension
   0
DIMENSION
   5
27A
 100
AcDbEntity
   8
0
 370
15
   6
CONTINUOUS
  62
8
 100
AcDbDimension
   2
*D12
  10
 121.11709659163
  20
 133.09900614910
  30
0.0
  11
 118.54159319476
  21
 133.09900614910
  31
0.0
  70
128
   3
GMM004
 100
AcDbAlignedDimension
  13
 120.01709659163
  23
 138.51448839676
  33
0.0
  14
 121.11709659163
  24
 133.09900614910
  34
0.0
 100
AcDbRotatedDimension
   0
LWPOLYLINE
   5
27B
 100
AcDbEntity
   8
0
 370
40
   6
CONTINUOUS
  62
3
 100
AcDbPolyline
  90
6
  70
0
  10
 146.11709659163
  20
 175.22684786655
  10
 146.11709659163
  20
 150.72076300344
  10
 141.11709659163
  20
 150.72076300344
  10
 141.11709659163
  20
 138.72076300344
  10
 146.11709659163
  20
 138.72076300344
  10
 146.11709659163
  20
 114.21467814033
   0
DIMENSION
   5
27C
 100
AcDbEntity
   8
0
 370
15
   6
CONTINUOUS
  62
8
 100
AcDbDimension
   2
*D13
  10
 152.66001746535
  20
 150.72076300344
  30
0.0
  11
 152.66001746535
  21
 144.72076300344
  31
0.0
  70
0
   3
GMM001
 100
AcDbAlignedDimension
  13
 146.11709659163
  23
 138.72076300344
  33
0.0
  14
 146.11709659163
  24
 150.72076300344
  34
0.0
  50
 90.000000000000
 100
AcDbRotatedDimension
   0
DIMENSION
   5
27D
 100
AcDbEntity
   8
0
 370
15
   6
CONTINUOUS
  62
8
 100
AcDbDimension
   2
*D14
  10
 146.11709659163
  20
 133.09900614910
  30
0.0
  11
 143.61709659163
  21
 133.09900614910
  31
0.0
  70
0
   3
GMM001
 100
AcDbAlignedDimension
  13
 141.11709659163
  23
 138.72076300344
  33
0.0
  14
 146.11709659163
  24
 133.09900614910
  34
0.0
 100
AcDbRotatedDimension
   0
DIMENSION
   5
27E
 100
AcDbEntity
   8
0
 370
15
   6
CONTINUOUS
  62
8
 100
AcDbDimension
   2
*D15
  10
 146.11709659163
  20
 121.91422574028
  30
0.0
  11
 133.61709659163
  21
 121.91422574028
  31
0.0
  70
0
   1
\A1;扉厚25mm以上
   3
GMM005
 100
AcDbAlignedDimension
  13
 121.11709659163
  23
 121.91422574028
  33
0.0
  14
 146.11709659163
  24
 121.91422574028
  34
0.0
 100
AcDbRotatedDimension
   0
LEADER
   5
27F
 100
AcDbEntity
   8
0
 370
15
   6
CONTINUOUS
  62
8
 100
AcDbLeader
   3
GMM006
  73
0
  74
0
  75
0
  40
 3.0000000000000
  41
 13.000000000000
  76
2
  10
 124.38356970274
  20
 149.70840505621
  30
0.0
  10
 128.41009064991
  20
 156.92258841990
  30
0.0
  77
8
 340
280
 213
0.0
 223
-1.0000000000000
 233
0.0
   0
MTEXT
   5
280
 102
{ACAD_REACTORS
 330
27F
 102
}
 100
AcDbEntity
   8
0
 370
15
  62
8
 100
AcDbMText
  10
 128.41009064991
  20
 157.92258841990
  30
0.0
  40
 3.0000000000000
  41
0.0
  71
7
  72
1
   1
\A1;ＡＬＨ１２
   7
GMM002
   0
LINE
   5
281
 100
AcDbEntity
   8
0
 370
15
 100
AcDbLine
   6
DASHDOT
  62
8
  10
 133.61709659163
  20
 179.57176874777
  30
0.0
  11
 133.61709659163
  21
 162.79459813453
  31
0.0
   0
LINE
   5
282
 100
AcDbEntity
   8
0
 370
15
 100
AcDbLine
   6
DASHDOT
  62
8
  10
 133.61709659163
  20
 154.57378453405
  30
0.0
  11
 133.61709659163
  21
 128.23362667126
  31
0.0
   0
LINE
   5
283
 100
AcDbEntity
   8
0
 370
15
 100
AcDbLine
   6
DASHDOT
  62
8
  10
 133.61709659163
  20
 119.17395454012
  30
0.0
  11
 133.61709659163
  21
 108.60433705378
  31
0.0
   0
MTEXT
   5
285
 100
AcDbEntity
   8
LEVEL001
 370
15
  62
8
 100
AcDbMText
  10
 334.49999999995
  20
 244.50000000000
  30
0.0
  40
 4.5000000000000
  41
0.0
  71
7
  72
1
   1
\T1.000000;　アルミロング引手③
   7
GMM004
  44
 0.79999984000003
   0
MTEXT
   5
287
 100
AcDbEntity
   8
LEVEL001
 370
15
  62
8
 100
AcDbMText
  10
 354.49999999995
  20
 226.75000000000
  30
0.0
  40
 4.0000000000000
  41
0.0
  71
5
  72
1
   1
\T1.000000;ＡＬＨ１２シリーズ
   7
GMM002
  44
 0.79999984000003
   0
ENDSEC
  0
SECTION
  2
OBJECTS
  0
DICTIONARY
  5
C
100
AcDbDictionary
  3
ACAD_GROUP
350
D
  3
ACAD_MLINESTYLE
350
1B
  3
DWGPROPS
350
1C
  0
DICTIONARY
  5
D
102
{ACAD_REACTORS
330
C
102
}
100
AcDbDictionary
  0
DICTIONARY
  5
1B
102
{ACAD_REACTORS
330
C
102
}
100
AcDbDictionary
  3
STANDARD
350
1D
  0
MLINESTYLE
  5
1D
102
{ACAD_REACTORS
330
1B
102
}
100
AcDbMlineStyle
  2
STANDARD
 70
     0
  3

 62
   256
 51
90.0
 52
90.0
 71
     2
 49
0.5
 62
   256
  6
BYLAYER
 49
-0.5
 62
   256
  6
BYLAYER
   0
XRECORD
   5
1C
 102
{ACAD_REACTORS
 330
C
 102
}
 330
C
 100
AcDbXrecord
 280
1
   1
DWGPROPS COOKIE
   2
 
   3
 
   4
ﾊﾙﾅ
   6
 
   7
ALH12
   8
ﾊﾙﾅ
   9

 300
 = 
 301
 = 
 302
 = 
 303
 = 
 304
 = 
 305
 = 
 306
 = 
 307
 = 
 308
 = 
 309
 = 
  40
0.0
  41
 2459512.5000000
  42
 2460114.5000000
   1

  90
10
   0
ENDSEC
   0
EOF
