   0
SECTION
   2
HEADER
   9
$ACADVER
   1
AC1015
   9
$DWGCODEPAGE
   3
ANSI_932
   9
$LIMMIN
  10
0.0
  20
0.0
   9
$LIMMAX
  10
 840.00000000000
  20
 594.00000000000
   9
$EXTMIN
  10
0.0
  20
0.0
  30
0.0
   9
$EXTMAX
  10
 840.00000000000
  20
 594.00000000000
  30
0.0
   9
$LTSCALE
  40
 16.800000000000
   9
$HANDSEED
   5
535
   0
ENDSEC
   0
SECTION
   2
TABLES
  0
TABLE
  2
VPORT
  5
8
100
AcDbSymbolTable
 70
     1
  0
VPORT
  5
534
100
AcDbSymbolTableRecord
100
AcDbViewportTableRecord
  2
*ACTIVE
 70
     0
 10
0.0
 20
0.0
 11
1.0
 21
1.0
  12
 420.00000000000
  22
 297.00000000000
 13
0.0
 23
0.0
 14
1.0
 24
1.0
 15
0.0
 25
0.0
 16
0.0
 26
0.0
 36
1.0
 17
0.0
 27
0.0
 37
0.0
  40
 840.00000000000
  41
 1.4787878787879
 42
50.0
 43
0.0
 44
0.0
 50
0.0
 51
0.0
 71
     0
 72
   100
 73
     1
 74
     1
 75
     0
 76
     0
 77
     0
 78
     0
  0
ENDTAB
  0
TABLE
  2
LTYPE
  5
5
100
AcDbSymbolTable
 70
    25
  0
LTYPE
  5
12
100
AcDbSymbolTableRecord
100
AcDbLinetypeTableRecord
  2
BYBLOCK
 70
     0
  3

 72
    65
 73
     0
 40
0.0
  0
LTYPE
  5
13
100
AcDbSymbolTableRecord
100
AcDbLinetypeTableRecord
  2
BYLAYER
 70
     0
  3

 72
    65
 73
     0
 40
0.0
  0
LTYPE
  5
14
100
AcDbSymbolTableRecord
100
AcDbLinetypeTableRecord
  2
CONTINUOUS
 70
     0
  3
Solid line
 72
    65
 73
     0
 40
0.0
  0
LTYPE
  5
20
100
AcDbSymbolTableRecord
100
AcDbLinetypeTableRecord
  2
BORDER
 70
     0
  3
__ __ . __ __ . __ __ . __ __ . __ __ . __ __ .
 72
    65
 73
     6
 40
1.75
 49
0.5
 74
     0
 49
-0.25
 74
     0
 49
0.5
 74
     0
 49
-0.25
 74
     0
 49
0.0
 74
     0
 49
-0.25
 74
     0
  0
LTYPE
  5
21
100
AcDbSymbolTableRecord
100
AcDbLinetypeTableRecord
  2
BORDER2
 70
     0
  3
__.__.__.__.__.__.__.__.__.__.__.__.__.__.__.__
 72
    65
 73
     6
 40
0.875
 49
0.25
 74
     0
 49
-0.125
 74
     0
 49
0.25
 74
     0
 49
-0.125
 74
     0
 49
0.0
 74
     0
 49
-0.125
 74
     0
  0
LTYPE
  5
22
100
AcDbSymbolTableRecord
100
AcDbLinetypeTableRecord
  2
BORDERX2
 70
     0
  3
____  ____  .  ____  ____  .  ____  ____  .  __
 72
    65
 73
     6
 40
3.5
 49
1.0
 74
     0
 49
-0.5
 74
     0
 49
1.0
 74
     0
 49
-0.5
 74
     0
 49
0.0
 74
     0
 49
-0.5
 74
     0
  0
LTYPE
  5
23
100
AcDbSymbolTableRecord
100
AcDbLinetypeTableRecord
  2
CENTER
 70
     0
  3
____ _ ____ _ ____ _ ____ _ ____ _ ____ _ ____ 
 72
    65
 73
     4
 40
2.0
 49
1.25
 74
     0
 49
-0.25
 74
     0
 49
0.25
 74
     0
 49
-0.25
 74
     0
  0
LTYPE
  5
24
100
AcDbSymbolTableRecord
100
AcDbLinetypeTableRecord
  2
CENTER2
 70
     0
  3
___ _ ___ _ ___ _ ___ _ ___ _ ___ _ ___ _ ___ _
 72
    65
 73
     4
 40
1.125
 49
0.75
 74
     0
 49
-0.125
 74
     0
 49
0.125
 74
     0
 49
-0.125
 74
     0
  0
LTYPE
  5
25
100
AcDbSymbolTableRecord
100
AcDbLinetypeTableRecord
  2
CENTERX2
 70
     0
  3
________  __  ________  __  ________  __  _____
 72
    65
 73
     4
 40
4.0
 49
2.5
 74
     0
 49
-0.5
 74
     0
 49
0.5
 74
     0
 49
-0.5
 74
     0
  0
LTYPE
  5
26
100
AcDbSymbolTableRecord
100
AcDbLinetypeTableRecord
  2
DASHDOT
 70
     0
  3
__ . __ . __ . __ . __ . __ . __ . __ . __ . __
 72
    65
 73
     4
 40
1.0
 49
0.5
 74
     0
 49
-0.25
 74
     0
 49
0.0
 74
     0
 49
-0.25
 74
     0
  0
LTYPE
  5
27
100
AcDbSymbolTableRecord
100
AcDbLinetypeTableRecord
  2
DASHDOT2
 70
     0
  3
_._._._._._._._._._._._._._._._._._._._._._._._
 72
    65
 73
     4
 40
0.5
 49
0.25
 74
     0
 49
-0.125
 74
     0
 49
0.0
 74
     0
 49
-0.125
 74
     0
  0
LTYPE
  5
28
100
AcDbSymbolTableRecord
100
AcDbLinetypeTableRecord
  2
DASHDOTX2
 70
     0
  3
____  .  ____  .  ____  .  ____  .  ____  .  __
 72
    65
 73
     4
 40
2.0
 49
1.0
 74
     0
 49
-0.5
 74
     0
 49
0.0
 74
     0
 49
-0.5
 74
     0
  0
LTYPE
  5
29
100
AcDbSymbolTableRecord
100
AcDbLinetypeTableRecord
  2
DASHED
 70
     0
  3
__ __ __ __ __ __ __ __ __ __ __ __ __ __ __ __
 72
    65
 73
     2
 40
0.75
 49
0.5
 74
     0
 49
-0.25
 74
     0
  0
LTYPE
  5
2A
100
AcDbSymbolTableRecord
100
AcDbLinetypeTableRecord
  2
DASHED2
 70
     0
  3
_ _ _ _ _ _ _ _ _ _ _ _ _ _ _ _ _ _ _ _ _ _ _ _
 72
    65
 73
     2
 40
0.375
 49
0.25
 74
     0
 49
-0.125
 74
     0
  0
LTYPE
  5
2B
100
AcDbSymbolTableRecord
100
AcDbLinetypeTableRecord
  2
DASHEDX2
 70
     0
  3
____  ____  ____  ____  ____  ____  ____  ____ 
 72
    65
 73
     2
 40
1.5
 49
1.0
 74
     0
 49
-0.5
 74
     0
  0
LTYPE
  5
2C
100
AcDbSymbolTableRecord
100
AcDbLinetypeTableRecord
  2
DIVIDE
 70
     0
  3
____ . . ____ . . ____ . . ____ . . ____ . . __
 72
    65
 73
     6
 40
1.25
 49
0.5
 74
     0
 49
-0.25
 74
     0
 49
0.0
 74
     0
 49
-0.25
 74
     0
 49
0.0
 74
     0
 49
-0.25
 74
     0
  0
LTYPE
  5
2D
100
AcDbSymbolTableRecord
100
AcDbLinetypeTableRecord
  2
DIVIDE2
 70
     0
  3
__..__..__..__..__..__..__..__..__..__..__..__.
 72
    65
 73
     6
 40
0.625
 49
0.25
 74
     0
 49
-0.125
 74
     0
 49
0.0
 74
     0
 49
-0.125
 74
     0
 49
0.0
 74
     0
 49
-0.125
 74
     0
  0
LTYPE
  5
2E
100
AcDbSymbolTableRecord
100
AcDbLinetypeTableRecord
  2
DIVIDEX2
 70
     0
  3
________  .  .  ________  .  .  ________  .  . 
 72
    65
 73
     6
 40
2.5
 49
1.0
 74
     0
 49
-0.5
 74
     0
 49
0.0
 74
     0
 49
-0.5
 74
     0
 49
0.0
 74
     0
 49
-0.5
 74
     0
  0
LTYPE
  5
2F
100
AcDbSymbolTableRecord
100
AcDbLinetypeTableRecord
  2
DOT
 70
     0
  3
. . . . . . . . . . . . . . . . . . . . . . . .
 72
    65
 73
     2
 40
0.25
 49
0.0
 74
     0
 49
-0.25
 74
     0
  0
LTYPE
  5
30
100
AcDbSymbolTableRecord
100
AcDbLinetypeTableRecord
  2
DOT2
 70
     0
  3
...............................................
 72
    65
 73
     2
 40
0.125
 49
0.0
 74
     0
 49
-0.125
 74
     0
  0
LTYPE
  5
31
100
AcDbSymbolTableRecord
100
AcDbLinetypeTableRecord
  2
DOTX2
 70
     0
  3
.  .  .  .  .  .  .  .  .  .  .  .  .  .  .  . 
 72
    65
 73
     2
 40
0.5
 49
0.0
 74
     0
 49
-0.5
 74
     0
  0
LTYPE
  5
32
100
AcDbSymbolTableRecord
100
AcDbLinetypeTableRecord
  2
HIDDEN
 70
     0
  3
__ __ __ __ __ __ __ __ __ __ __ __ __ __ __ __
 72
    65
 73
     2
 40
0.375
 49
0.25
 74
     0
 49
-0.125
 74
     0
  0
LTYPE
  5
33
100
AcDbSymbolTableRecord
100
AcDbLinetypeTableRecord
  2
HIDDEN2
 70
     0
  3
_ _ _ _ _ _ _ _ _ _ _ _ _ _ _ _ _ _ _ _ _ _ _ _
 72
    65
 73
     2
 40
0.1875
 49
0.125
 74
     0
 49
-0.0625
 74
     0
  0
LTYPE
  5
34
100
AcDbSymbolTableRecord
100
AcDbLinetypeTableRecord
  2
HIDDENX2
 70
     0
  3
____ ____ ____ ____ ____ ____ ____ ____ ____ __
 72
    65
 73
     2
 40
0.75
 49
0.5
 74
     0
 49
-0.25
 74
     0
  0
LTYPE
  5
35
100
AcDbSymbolTableRecord
100
AcDbLinetypeTableRecord
  2
PHANTOM
 70
     0
  3
______  __  __  ______  __  __  ______  __  __ 
 72
    65
 73
     6
 40
2.5
 49
1.25
 74
     0
 49
-0.25
 74
     0
 49
0.25
 74
     0
 49
-0.25
 74
     0
 49
0.25
 74
     0
 49
-0.25
 74
     0
  0
LTYPE
  5
36
100
AcDbSymbolTableRecord
100
AcDbLinetypeTableRecord
  2
PHANTOM2
 70
     0
  3
___ _ _ ___ _ _ ___ _ _ ___ _ _ ___ _ _ ___ _ _
 72
    65
 73
     6
 40
1.25
 49
0.625
 74
     0
 49
-0.125
 74
     0
 49
0.125
 74
     0
 49
-0.125
 74
     0
 49
0.125
 74
     0
 49
-0.125
 74
     0
  0
LTYPE
  5
37
100
AcDbSymbolTableRecord
100
AcDbLinetypeTableRecord
  2
PHANTOMX2
 70
     0
  3
____________    ____    ____    ____________   
 72
    65
 73
     6
 40
5.0
 49
2.5
 74
     0
 49
-0.5
 74
     0
 49
0.5
 74
     0
 49
-0.5
 74
     0
 49
0.5
 74
     0
 49
-0.5
 74
     0
  0
ENDTAB
   0
TABLE
   2
LAYER
   5
2
 100
AcDbSymbolTable
  70
3
   0
LAYER
   5
E
 100
AcDbSymbolTableRecord
 100
AcDbLayerTableRecord
   2
0
  70
0
  62
7
   6
CONTINUOUS
 390
30
   0
LAYER
   5
39
 100
AcDbSymbolTableRecord
 100
AcDbLayerTableRecord
   2
LEVEL001
  70
0
  62
7
   6
CONTINUOUS
 390
30
   0
LAYER
   5
3A
 100
AcDbSymbolTableRecord
 100
AcDbLayerTableRecord
   2
LEVEL002
  70
0
  62
7
   6
CONTINUOUS
 390
30
   0
ENDTAB
  0
TABLE
  2
STYLE
  5
3
100
AcDbSymbolTable
  70
5
  0
STYLE
  5
F
100
AcDbSymbolTableRecord
100
AcDbTextStyleTableRecord
  2
STANDARD
 70
     0
 40
0.0
 41
1.0
 50
0.0
 71
     0
 42
0.2
  3
TXT
  4
BIGFONT
  0
STYLE
  5
38
100
AcDbSymbolTableRecord
100
AcDbTextStyleTableRecord
  2
STANDARD1
 70
     4
 40
0.0
 41
1.0
 50
0.0
 71
     0
 42
0.2
  3
TXT
  4
BIGFONT
   0
STYLE
   5
3B
 100
AcDbSymbolTableRecord
 100
AcDbTextStyleTableRecord
   2
GMM001
  70
0
  40
0.0
  41
 1.0000000000000
  50
0.0
  71
     0
  42
1.0
   3
txt.shx
   4
bigfont.shx
   0
STYLE
   5
3C
 100
AcDbSymbolTableRecord
 100
AcDbTextStyleTableRecord
   2
GMM002
  70
0
  40
0.0
  41
 1.0714285714286
  50
0.0
  71
     0
  42
1.0
   3
txt.shx
   4
bigfont.shx
   0
STYLE
   5
3D
 100
AcDbSymbolTableRecord
 100
AcDbTextStyleTableRecord
   2
GMM003
  70
0
  40
0.0
  41
 0.80000000000000
  50
0.0
  71
     0
  42
1.0
   3
txt.shx
   4
bigfont.shx
   0
ENDTAB
  0
TABLE
  2
VIEW
  5
6
100
AcDbSymbolTable
 70
     0
  0
ENDTAB
  0
TABLE
  2
UCS
  5
7
100
AcDbSymbolTable
 70
     0
  0
ENDTAB
  0
TABLE
  2
APPID
  5
9
100
AcDbSymbolTable
 70
     1
  0
APPID
  5
10
100
AcDbSymbolTableRecord
100
AcDbRegAppTableRecord
  2
ACAD
 70
     0
  0
ENDTAB
   0
TABLE
   2
DIMSTYLE
   5
A
 100
AcDbSymbolTable
  70
9
 100
AcDbDimStyleTable
  0
DIMSTYLE
105
1D
100
AcDbSymbolTableRecord
100
AcDbDimStyleTableRecord
  2
STANDARD
 70
     0
  3

  4

  5

  6

  7

 40
1.0
 41
0.18
 42
0.0625
 43
0.38
 44
0.18
 45
0.0
 46
0.0
 47
0.0
 48
0.0
140
0.18
141
0.09
142
0.0
143
25.4
144
1.0
145
0.0
146
1.0
147
0.09
 71
     0
 72
     0
 73
     1
 74
     1
 75
     0
 76
     0
 77
     0
 78
     0
170
     0
171
     2
172
     0
173
     0
174
     0
175
     0
176
     0
177
     0
178
     0
270
     2
271
     4
272
     4
273
     2
274
     2
340
F
275
     0
280
     0
281
     0
282
     0
283
     1
284
     0
285
     0
286
     0
287
     3
288
     0
   0
DIMSTYLE
 105
3E
 100
AcDbSymbolTableRecord
 100
AcDbDimStyleTableRecord
   2
GMM001
  70
0
   3

   4

   5

   6

   7

  40
 1.0000000000000
  41
 3.0000000000000
  42
 2.0000000000000
  43
 16.000000000000
  44
 2.0000000000000
  45
0.0
  46
0.0
  47
0.0
  48
0.0
 140
 4.0000000000000
 141
 2.0000000000000
 142
0.0
 143
 0.39400000000000E-1
 144
 1.0000000000000
 145
0.0
 146
 1.2500000000000
 147
 1.0000000000000
  71
0
  72
0
  73
0
  74
0
  75
0
  76
0
  77
3
  78
8
 170
0
 171
2
 172
1
 173
1
 174
0
 175
0
 176
8
 177
8
 178
8
 270
2
 271
6
 272
0
 273
2
 274
2
 340
3B
 275
1
 280
0
 281
0
 282
0
 283
1
 284
0
 285
0
 286
0
 287
3
 288
0
   0
DIMSTYLE
 105
3F
 100
AcDbSymbolTableRecord
 100
AcDbDimStyleTableRecord
   2
GMM002
  70
0
   3

   4

   5

   6

   7

  40
 1.0000000000000
  41
 3.0000000000000
  42
 2.0000000000000
  43
 16.000000000000
  44
 2.0000000000000
  45
0.0
  46
0.0
  47
0.0
  48
0.0
 140
 4.0000000000000
 141
 2.0000000000000
 142
0.0
 143
 0.39400000000000E-1
 144
 1.0000000000000
 145
0.0
 146
 1.2500000000000
 147
0.0
  71
0
  72
0
  73
0
  74
0
  75
0
  76
0
  77
1
  78
8
 170
0
 171
2
 172
1
 173
1
 174
0
 175
0
 176
8
 177
8
 178
8
 270
2
 271
6
 272
0
 273
2
 274
2
 340
3B
 275
1
 280
0
 281
0
 282
0
 283
1
 284
0
 285
0
 286
0
 287
3
 288
0
   0
DIMSTYLE
 105
40
 100
AcDbSymbolTableRecord
 100
AcDbDimStyleTableRecord
   2
GMM003
  70
0
   3

   4

   5

   6

   7

  40
 1.0000000000000
  41
 3.0000000000000
  42
 2.0000000000000
  43
 16.000000000000
  44
 2.0000000000000
  45
0.0
  46
0.0
  47
0.0
  48
0.0
 140
 4.0000000000000
 141
 2.0000000000000
 142
0.0
 143
 0.39400000000000E-1
 144
 1.0000000000000
 145
0.0
 146
 1.2500000000000
 147
 1.0442941806948
  71
0
  72
0
  73
0
  74
0
  75
0
  76
0
  77
3
  78
8
 170
0
 171
2
 172
1
 173
1
 174
0
 175
0
 176
8
 177
8
 178
8
 270
2
 271
6
 272
0
 273
2
 274
2
 340
3B
 275
1
 280
0
 281
0
 282
0
 283
1
 284
0
 285
0
 286
0
 287
3
 288
1
   0
DIMSTYLE
 105
41
 100
AcDbSymbolTableRecord
 100
AcDbDimStyleTableRecord
   2
GMM004
  70
0
   3

   4

   5

   6

   7

  40
 1.0000000000000
  41
 3.0000000000000
  42
 2.0000000000000
  43
 16.000000000000
  44
 2.0000000000000
  45
0.0
  46
0.0
  47
0.0
  48
0.0
 140
 4.0000000000000
 141
 2.0000000000000
 142
0.0
 143
 0.39400000000000E-1
 144
 1.0000000000000
 145
0.0
 146
 1.2500000000000
 147
 0.97205977908766
  71
0
  72
0
  73
0
  74
0
  75
0
  76
0
  77
3
  78
8
 170
0
 171
2
 172
1
 173
1
 174
0
 175
0
 176
8
 177
8
 178
8
 270
2
 271
6
 272
0
 273
2
 274
2
 340
3B
 275
1
 280
0
 281
0
 282
0
 283
1
 284
0
 285
0
 286
0
 287
3
 288
1
   0
DIMSTYLE
 105
42
 100
AcDbSymbolTableRecord
 100
AcDbDimStyleTableRecord
   2
GMM005
  70
0
   3

   4

   5

   6

   7

  40
 1.0000000000000
  41
 3.0000000000000
  42
 2.0000000000000
  43
 16.000000000000
  44
 2.0000000000000
  45
0.0
  46
0.0
  47
0.0
  48
0.0
 140
 4.0000000000000
 141
 2.0000000000000
 142
0.0
 143
 0.39400000000000E-1
 144
 1.0000000000000
 145
0.0
 146
 1.2500000000000
 147
 0.97707657353271
  71
0
  72
0
  73
0
  74
0
  75
0
  76
0
  77
3
  78
8
 170
0
 171
2
 172
1
 173
1
 174
0
 175
0
 176
8
 177
8
 178
8
 270
2
 271
6
 272
0
 273
2
 274
2
 340
3B
 275
1
 280
0
 281
0
 282
0
 283
1
 284
0
 285
0
 286
0
 287
3
 288
1
   0
DIMSTYLE
 105
43
 100
AcDbSymbolTableRecord
 100
AcDbDimStyleTableRecord
   2
GMM006
  70
0
   3

   4

   5

   6

   7

  40
 1.0000000000000
  41
 3.0000000000000
  42
 2.0000000000000
  43
 16.000000000000
  44
 2.0000000000000
  45
0.0
  46
0.0
  47
0.0
  48
0.0
 140
 4.0000000000000
 141
 2.0000000000000
 142
0.0
 143
 0.39400000000000E-1
 144
 1.0000000000000
 145
0.0
 146
 1.2500000000000
 147
 1.2848534163811
  71
0
  72
0
  73
0
  74
0
  75
0
  76
0
  77
3
  78
8
 170
0
 171
2
 172
1
 173
1
 174
0
 175
0
 176
8
 177
8
 178
8
 270
2
 271
6
 272
0
 273
2
 274
2
 340
3B
 275
1
 280
0
 281
0
 282
0
 283
1
 284
0
 285
0
 286
0
 287
3
 288
1
   0
DIMSTYLE
 105
44
 100
AcDbSymbolTableRecord
 100
AcDbDimStyleTableRecord
   2
GMM007
  70
0
   3

   4

   5

   6

   7

  40
 1.0000000000000
  41
 3.0000000000000
  42
 2.0000000000000
  43
 16.000000000000
  44
 2.0000000000000
  45
0.0
  46
0.0
  47
0.0
  48
0.0
 140
 4.0000000000000
 141
 2.0000000000000
 142
0.0
 143
 0.39400000000000E-1
 144
 1.0000000000000
 145
0.0
 146
 1.2500000000000
 147
 1.0456442801401
  71
0
  72
0
  73
0
  74
0
  75
0
  76
0
  77
3
  78
8
 170
0
 171
2
 172
1
 173
1
 174
0
 175
0
 176
8
 177
8
 178
8
 270
2
 271
6
 272
0
 273
2
 274
2
 340
3B
 275
1
 280
0
 281
0
 282
0
 283
1
 284
0
 285
0
 286
0
 287
3
 288
1
   0
ENDTAB
  0
TABLE
  2
BLOCK_RECORD
  5
1
100
AcDbSymbolTable
 70
     0
  0
BLOCK_RECORD
  5
18
100
AcDbSymbolTableRecord
100
AcDbBlockTableRecord
  2
*MODEL_SPACE
  0
BLOCK_RECORD
  5
15
100
AcDbSymbolTableRecord
100
AcDbBlockTableRecord
  2
*PAPER_SPACE
   0
BLOCK_RECORD
   5
45
 100
AcDbSymbolTableRecord
 100
AcDbBlockTableRecord
   2
*D1
   0
BLOCK_RECORD
   5
46
 100
AcDbSymbolTableRecord
 100
AcDbBlockTableRecord
   2
*D3
   0
BLOCK_RECORD
   5
47
 100
AcDbSymbolTableRecord
 100
AcDbBlockTableRecord
   2
*D4
   0
BLOCK_RECORD
   5
48
 100
AcDbSymbolTableRecord
 100
AcDbBlockTableRecord
   2
*D5
   0
BLOCK_RECORD
   5
49
 100
AcDbSymbolTableRecord
 100
AcDbBlockTableRecord
   2
*D6
   0
BLOCK_RECORD
   5
4A
 100
AcDbSymbolTableRecord
 100
AcDbBlockTableRecord
   2
*D7
   0
BLOCK_RECORD
   5
4B
 100
AcDbSymbolTableRecord
 100
AcDbBlockTableRecord
   2
*D9
   0
BLOCK_RECORD
   5
4C
 100
AcDbSymbolTableRecord
 100
AcDbBlockTableRecord
   2
*D10
   0
BLOCK_RECORD
   5
4D
 100
AcDbSymbolTableRecord
 100
AcDbBlockTableRecord
   2
*D11
   0
BLOCK_RECORD
   5
4E
 100
AcDbSymbolTableRecord
 100
AcDbBlockTableRecord
   2
*D12
   0
BLOCK_RECORD
   5
4F
 100
AcDbSymbolTableRecord
 100
AcDbBlockTableRecord
   2
*D14
   0
BLOCK_RECORD
   5
50
 100
AcDbSymbolTableRecord
 100
AcDbBlockTableRecord
   2
*D15
   0
BLOCK_RECORD
   5
51
 100
AcDbSymbolTableRecord
 100
AcDbBlockTableRecord
   2
*D16
   0
BLOCK_RECORD
   5
52
 100
AcDbSymbolTableRecord
 100
AcDbBlockTableRecord
   2
*D17
   0
BLOCK_RECORD
   5
53
 100
AcDbSymbolTableRecord
 100
AcDbBlockTableRecord
   2
*D18
   0
BLOCK_RECORD
   5
54
 100
AcDbSymbolTableRecord
 100
AcDbBlockTableRecord
   2
*D19
   0
BLOCK_RECORD
   5
55
 100
AcDbSymbolTableRecord
 100
AcDbBlockTableRecord
   2
*D21
   0
BLOCK_RECORD
   5
56
 100
AcDbSymbolTableRecord
 100
AcDbBlockTableRecord
   2
*D22
   0
BLOCK_RECORD
   5
57
 100
AcDbSymbolTableRecord
 100
AcDbBlockTableRecord
   2
*D23
   0
BLOCK_RECORD
   5
58
 100
AcDbSymbolTableRecord
 100
AcDbBlockTableRecord
   2
*D24
   0
BLOCK_RECORD
   5
59
 100
AcDbSymbolTableRecord
 100
AcDbBlockTableRecord
   2
*D25
   0
BLOCK_RECORD
   5
5A
 100
AcDbSymbolTableRecord
 100
AcDbBlockTableRecord
   2
*D26
   0
BLOCK_RECORD
   5
5B
 100
AcDbSymbolTableRecord
 100
AcDbBlockTableRecord
   2
*D28
   0
BLOCK_RECORD
   5
5C
 100
AcDbSymbolTableRecord
 100
AcDbBlockTableRecord
   2
*D29
   0
BLOCK_RECORD
   5
5D
 100
AcDbSymbolTableRecord
 100
AcDbBlockTableRecord
   2
*D30
   0
BLOCK_RECORD
   5
5E
 100
AcDbSymbolTableRecord
 100
AcDbBlockTableRecord
   2
*D31
   0
BLOCK_RECORD
   5
5F
 100
AcDbSymbolTableRecord
 100
AcDbBlockTableRecord
   2
*D32
   0
BLOCK_RECORD
   5
60
 100
AcDbSymbolTableRecord
 100
AcDbBlockTableRecord
   2
*D33
   0
BLOCK_RECORD
   5
61
 100
AcDbSymbolTableRecord
 100
AcDbBlockTableRecord
   2
*D35
   0
BLOCK_RECORD
   5
62
 100
AcDbSymbolTableRecord
 100
AcDbBlockTableRecord
   2
*D36
   0
BLOCK_RECORD
   5
63
 100
AcDbSymbolTableRecord
 100
AcDbBlockTableRecord
   2
*D37
   0
BLOCK_RECORD
   5
64
 100
AcDbSymbolTableRecord
 100
AcDbBlockTableRecord
   2
*D39
   0
BLOCK_RECORD
   5
65
 100
AcDbSymbolTableRecord
 100
AcDbBlockTableRecord
   2
*D40
   0
BLOCK_RECORD
   5
66
 100
AcDbSymbolTableRecord
 100
AcDbBlockTableRecord
   2
*D42
   0
BLOCK_RECORD
   5
67
 100
AcDbSymbolTableRecord
 100
AcDbBlockTableRecord
   2
*D43
   0
BLOCK_RECORD
   5
68
 100
AcDbSymbolTableRecord
 100
AcDbBlockTableRecord
   2
*D44
   0
BLOCK_RECORD
   5
69
 100
AcDbSymbolTableRecord
 100
AcDbBlockTableRecord
   2
*D45
   0
BLOCK_RECORD
   5
6A
 100
AcDbSymbolTableRecord
 100
AcDbBlockTableRecord
   2
*D46
   0
BLOCK_RECORD
   5
6B
 100
AcDbSymbolTableRecord
 100
AcDbBlockTableRecord
   2
*D47
   0
BLOCK_RECORD
   5
6C
 100
AcDbSymbolTableRecord
 100
AcDbBlockTableRecord
   2
*D48
   0
BLOCK_RECORD
   5
6D
 100
AcDbSymbolTableRecord
 100
AcDbBlockTableRecord
   2
*D49
   0
BLOCK_RECORD
   5
6E
 100
AcDbSymbolTableRecord
 100
AcDbBlockTableRecord
   2
*D50
   0
BLOCK_RECORD
   5
6F
 100
AcDbSymbolTableRecord
 100
AcDbBlockTableRecord
   2
*D51
   0
BLOCK_RECORD
   5
70
 100
AcDbSymbolTableRecord
 100
AcDbBlockTableRecord
   2
*D52
   0
BLOCK_RECORD
   5
71
 100
AcDbSymbolTableRecord
 100
AcDbBlockTableRecord
   2
*D53
   0
BLOCK_RECORD
   5
72
 100
AcDbSymbolTableRecord
 100
AcDbBlockTableRecord
   2
_ARCHTICK
   0
BLOCK_RECORD
   5
73
 100
AcDbSymbolTableRecord
 100
AcDbBlockTableRecord
   2
_BOXBLANK
   0
BLOCK_RECORD
   5
74
 100
AcDbSymbolTableRecord
 100
AcDbBlockTableRecord
   2
_BOXFILLED
   0
BLOCK_RECORD
   5
75
 100
AcDbSymbolTableRecord
 100
AcDbBlockTableRecord
   2
_CLOSED
   0
BLOCK_RECORD
   5
76
 100
AcDbSymbolTableRecord
 100
AcDbBlockTableRecord
   2
_CLOSEDBLANK
   0
BLOCK_RECORD
   5
77
 100
AcDbSymbolTableRecord
 100
AcDbBlockTableRecord
   2
_DATUMBLANK
   0
BLOCK_RECORD
   5
78
 100
AcDbSymbolTableRecord
 100
AcDbBlockTableRecord
   2
_DATUMFILLED
   0
BLOCK_RECORD
   5
79
 100
AcDbSymbolTableRecord
 100
AcDbBlockTableRecord
   2
_DOT
   0
BLOCK_RECORD
   5
7A
 100
AcDbSymbolTableRecord
 100
AcDbBlockTableRecord
   2
_DOTBLANK
   0
BLOCK_RECORD
   5
7B
 100
AcDbSymbolTableRecord
 100
AcDbBlockTableRecord
   2
_DOTSMALL
   0
BLOCK_RECORD
   5
7C
 100
AcDbSymbolTableRecord
 100
AcDbBlockTableRecord
   2
_INTEGRAL
   0
BLOCK_RECORD
   5
7D
 100
AcDbSymbolTableRecord
 100
AcDbBlockTableRecord
   2
_NONE
   0
BLOCK_RECORD
   5
7E
 100
AcDbSymbolTableRecord
 100
AcDbBlockTableRecord
   2
_OBLIQUE
   0
BLOCK_RECORD
   5
7F
 100
AcDbSymbolTableRecord
 100
AcDbBlockTableRecord
   2
_OPEN
   0
BLOCK_RECORD
   5
80
 100
AcDbSymbolTableRecord
 100
AcDbBlockTableRecord
   2
_OPEN30
   0
BLOCK_RECORD
   5
81
 100
AcDbSymbolTableRecord
 100
AcDbBlockTableRecord
   2
_OPEN90
   0
BLOCK_RECORD
   5
82
 100
AcDbSymbolTableRecord
 100
AcDbBlockTableRecord
   2
_ORIGIN
   0
ENDTAB
   0
ENDSEC
  0
SECTION
  2
BLOCKS
  0
BLOCK
  5
19
100
AcDbEntity
  8
0
100
AcDbBlockBegin
  2
*MODEL_SPACE
 70
     0
 10
0.0
 20
0.0
 30
0.0
  3
*MODEL_SPACE
  1

  0
ENDBLK
  5
1A
100
AcDbEntity
  8
0
100
AcDbBlockEnd
  0
BLOCK
  5
16
100
AcDbEntity
 67
     1
  8
0
100
AcDbBlockBegin
  2
*PAPER_SPACE
 70
     0
 10
0.0
 20
0.0
 30
0.0
  3
*PAPER_SPACE
  1

  0
ENDBLK
  5
17
100
AcDbEntity
 67
     1
  8
0
100
AcDbBlockEnd
   0
BLOCK
   5
83
 100
AcDbEntity
   8
0
 100
AcDbBlockBegin
   2
_ARCHTICK
  70
0
  10
0.0
  20
0.0
  30
0.0
   3
_ARCHTICK
   0
POLYLINE
   5
84
 100
AcDbEntity
   8
0
 370
-2
   6
BYBLOCK
  62
0
 100
AcDb2dPolyline
  66
1
  10
0.0
  20
0.0
  30
0.0
  70
1
  40
 0.15000000000000
  41
 0.15000000000000
   0
VERTEX
   5
85
 100
AcDbEntity
   8
0
   6
BYBLOCK
  62
0
 100
AcDbVertex
 100
AcDb2dVertex
  10
-0.50000000000000
  20
-0.50000000000000
  30
0.0
  40
 0.15000000000000
  41
 0.15000000000000
   0
VERTEX
   5
86
 100
AcDbEntity
   8
0
   6
BYBLOCK
  62
0
 100
AcDbVertex
 100
AcDb2dVertex
  10
 0.50000000000000
  20
 0.50000000000000
  30
0.0
  40
 0.15000000000000
  41
 0.15000000000000
   0
SEQEND
   5
87
 100
AcDbEntity
   8
0
   6
BYBLOCK
  62
0
   0
ENDBLK
   5
88
 100
AcDbEntity
   8
0
 100
AcDbBlockEnd
   0
BLOCK
   5
89
 100
AcDbEntity
   8
0
 100
AcDbBlockBegin
   2
_OBLIQUE
  70
0
  10
0.0
  20
0.0
  30
0.0
   3
_OBLIQUE
   0
LINE
   5
8A
 100
AcDbEntity
   8
0
 370
-2
 100
AcDbLine
   6
BYBLOCK
  62
0
  10
-0.50000000000000
  20
-0.50000000000000
  30
0.0
  11
 0.50000000000000
  21
 0.50000000000000
  31
0.0
   0
ENDBLK
   5
8B
 100
AcDbEntity
   8
0
 100
AcDbBlockEnd
   0
BLOCK
   5
8C
 100
AcDbEntity
   8
0
 100
AcDbBlockBegin
   2
_BOXBLANK
  70
0
  10
0.0
  20
0.0
  30
0.0
   3
_BOXBLANK
   0
LINE
   5
8D
 100
AcDbEntity
   8
0
 370
-2
 100
AcDbLine
   6
BYBLOCK
  62
0
  10
-0.50000000000000
  20
-0.50000000000000
  30
0.0
  11
 0.50000000000000
  21
-0.50000000000000
  31
0.0
   0
LINE
   5
8E
 100
AcDbEntity
   8
0
 370
-2
 100
AcDbLine
   6
BYBLOCK
  62
0
  10
 0.50000000000000
  20
-0.50000000000000
  30
0.0
  11
 0.50000000000000
  21
 0.50000000000000
  31
0.0
   0
LINE
   5
8F
 100
AcDbEntity
   8
0
 370
-2
 100
AcDbLine
   6
BYBLOCK
  62
0
  10
 0.50000000000000
  20
 0.50000000000000
  30
0.0
  11
-0.50000000000000
  21
 0.50000000000000
  31
0.0
   0
LINE
   5
90
 100
AcDbEntity
   8
0
 370
-2
 100
AcDbLine
   6
BYBLOCK
  62
0
  10
-0.50000000000000
  20
 0.50000000000000
  30
0.0
  11
-0.50000000000000
  21
-0.50000000000000
  31
0.0
   0
LINE
   5
91
 100
AcDbEntity
   8
0
 370
-2
 100
AcDbLine
   6
BYBLOCK
  62
0
  10
-0.50000000000000
  20
0.0
  30
0.0
  11
-1.0000000000000
  21
0.0
  31
0.0
   0
ENDBLK
   5
92
 100
AcDbEntity
   8
0
 100
AcDbBlockEnd
   0
BLOCK
   5
93
 100
AcDbEntity
   8
0
 100
AcDbBlockBegin
   2
_BOXFILLED
  70
0
  10
0.0
  20
0.0
  30
0.0
   3
_BOXFILLED
   0
SOLID
   5
94
 100
AcDbEntity
   8
0
 100
AcDbTrace
   6
BYBLOCK
  62
0
  10
-0.50000000000000
  20
 0.50000000000000
  30
0.0
  11
 0.50000000000000
  21
 0.50000000000000
  31
0.0
  12
-0.50000000000000
  22
-0.50000000000000
  32
0.0
  13
 0.50000000000000
  23
-0.50000000000000
  33
0.0
   0
LINE
   5
95
 100
AcDbEntity
   8
0
 370
-2
 100
AcDbLine
   6
BYBLOCK
  62
0
  10
-0.50000000000000
  20
0.0
  30
0.0
  11
-1.0000000000000
  21
0.0
  31
0.0
   0
ENDBLK
   5
96
 100
AcDbEntity
   8
0
 100
AcDbBlockEnd
   0
BLOCK
   5
97
 100
AcDbEntity
   8
0
 100
AcDbBlockBegin
   2
_CLOSED
  70
0
  10
0.0
  20
0.0
  30
0.0
   3
_CLOSED
   0
LINE
   5
98
 100
AcDbEntity
   8
0
 370
-2
 100
AcDbLine
   6
BYBLOCK
  62
0
  10
-1.0000000000000
  20
 0.16666666666667
  30
0.0
  11
0.0
  21
0.0
  31
0.0
   0
LINE
   5
99
 100
AcDbEntity
   8
0
 370
-2
 100
AcDbLine
   6
BYBLOCK
  62
0
  10
0.0
  20
0.0
  30
0.0
  11
-1.0000000000000
  21
-0.16666666666667
  31
0.0
   0
LINE
   5
9A
 100
AcDbEntity
   8
0
 370
-2
 100
AcDbLine
   6
BYBLOCK
  62
0
  10
-1.0000000000000
  20
 0.16666666666667
  30
0.0
  11
-1.0000000000000
  21
-0.16666666666667
  31
0.0
   0
LINE
   5
9B
 100
AcDbEntity
   8
0
 370
-2
 100
AcDbLine
   6
BYBLOCK
  62
0
  10
0.0
  20
0.0
  30
0.0
  11
-1.0000000000000
  21
0.0
  31
0.0
   0
ENDBLK
   5
9C
 100
AcDbEntity
   8
0
 100
AcDbBlockEnd
   0
BLOCK
   5
9D
 100
AcDbEntity
   8
0
 100
AcDbBlockBegin
   2
_OPEN
  70
0
  10
0.0
  20
0.0
  30
0.0
   3
_OPEN
   0
LINE
   5
9E
 100
AcDbEntity
   8
0
 370
-2
 100
AcDbLine
   6
BYBLOCK
  62
0
  10
-1.0000000000000
  20
 0.16666666666667
  30
0.0
  11
0.0
  21
0.0
  31
0.0
   0
LINE
   5
9F
 100
AcDbEntity
   8
0
 370
-2
 100
AcDbLine
   6
BYBLOCK
  62
0
  10
0.0
  20
0.0
  30
0.0
  11
-1.0000000000000
  21
-0.16666666666667
  31
0.0
   0
LINE
   5
A0
 100
AcDbEntity
   8
0
 370
-2
 100
AcDbLine
   6
BYBLOCK
  62
0
  10
0.0
  20
0.0
  30
0.0
  11
-1.0000000000000
  21
0.0
  31
0.0
   0
ENDBLK
   5
A1
 100
AcDbEntity
   8
0
 100
AcDbBlockEnd
   0
BLOCK
   5
A2
 100
AcDbEntity
   8
0
 100
AcDbBlockBegin
   2
_OPEN30
  70
0
  10
0.0
  20
0.0
  30
0.0
   3
_OPEN30
   0
LINE
   5
A3
 100
AcDbEntity
   8
0
 370
-2
 100
AcDbLine
   6
BYBLOCK
  62
0
  10
-1.0000000000000
  20
 0.26794919243110
  30
0.0
  11
0.0
  21
0.0
  31
0.0
   0
LINE
   5
A4
 100
AcDbEntity
   8
0
 370
-2
 100
AcDbLine
   6
BYBLOCK
  62
0
  10
0.0
  20
0.0
  30
0.0
  11
-1.0000000000000
  21
-0.26794919243110
  31
0.0
   0
LINE
   5
A5
 100
AcDbEntity
   8
0
 370
-2
 100
AcDbLine
   6
BYBLOCK
  62
0
  10
0.0
  20
0.0
  30
0.0
  11
-1.0000000000000
  21
0.0
  31
0.0
   0
ENDBLK
   5
A6
 100
AcDbEntity
   8
0
 100
AcDbBlockEnd
   0
BLOCK
   5
A7
 100
AcDbEntity
   8
0
 100
AcDbBlockBegin
   2
_OPEN90
  70
0
  10
0.0
  20
0.0
  30
0.0
   3
_OPEN90
   0
LINE
   5
A8
 100
AcDbEntity
   8
0
 370
-2
 100
AcDbLine
   6
BYBLOCK
  62
0
  10
-0.50000000000000
  20
 0.50000000000000
  30
0.0
  11
0.0
  21
0.0
  31
0.0
   0
LINE
   5
A9
 100
AcDbEntity
   8
0
 370
-2
 100
AcDbLine
   6
BYBLOCK
  62
0
  10
0.0
  20
0.0
  30
0.0
  11
-0.50000000000000
  21
-0.50000000000000
  31
0.0
   0
LINE
   5
AA
 100
AcDbEntity
   8
0
 370
-2
 100
AcDbLine
   6
BYBLOCK
  62
0
  10
0.0
  20
0.0
  30
0.0
  11
-1.0000000000000
  21
0.0
  31
0.0
   0
ENDBLK
   5
AB
 100
AcDbEntity
   8
0
 100
AcDbBlockEnd
   0
BLOCK
   5
AC
 100
AcDbEntity
   8
0
 100
AcDbBlockBegin
   2
_CLOSEDBLANK
  70
0
  10
0.0
  20
0.0
  30
0.0
   3
_CLOSEDBLANK
   0
LINE
   5
AD
 100
AcDbEntity
   8
0
 370
-2
 100
AcDbLine
   6
BYBLOCK
  62
0
  10
-1.0000000000000
  20
 0.16666666666667
  30
0.0
  11
0.0
  21
0.0
  31
0.0
   0
LINE
   5
AE
 100
AcDbEntity
   8
0
 370
-2
 100
AcDbLine
   6
BYBLOCK
  62
0
  10
0.0
  20
0.0
  30
0.0
  11
-1.0000000000000
  21
-0.16666666666667
  31
0.0
   0
LINE
   5
AF
 100
AcDbEntity
   8
0
 370
-2
 100
AcDbLine
   6
BYBLOCK
  62
0
  10
-1.0000000000000
  20
 0.16666666666667
  30
0.0
  11
-1.0000000000000
  21
-0.16666666666667
  31
0.0
   0
ENDBLK
   5
B0
 100
AcDbEntity
   8
0
 100
AcDbBlockEnd
   0
BLOCK
   5
B1
 100
AcDbEntity
   8
0
 100
AcDbBlockBegin
   2
_DOT
  70
0
  10
0.0
  20
0.0
  30
0.0
   3
_DOT
   0
POLYLINE
   5
B2
 100
AcDbEntity
   8
0
 370
-2
   6
BYBLOCK
  62
0
 100
AcDb2dPolyline
  66
1
  10
0.0
  20
0.0
  30
0.0
  70
1
  40
 0.50000000000000
  41
 0.50000000000000
   0
VERTEX
   5
B3
 100
AcDbEntity
   8
0
   6
BYBLOCK
  62
0
 100
AcDbVertex
 100
AcDb2dVertex
  10
-0.25000000000000
  20
0.0
  30
0.0
  42
 1.0000000000000
  40
 0.50000000000000
  41
 0.50000000000000
   0
VERTEX
   5
B4
 100
AcDbEntity
   8
0
   6
BYBLOCK
  62
0
 100
AcDbVertex
 100
AcDb2dVertex
  10
 0.25000000000000
  20
0.0
  30
0.0
  42
 1.0000000000000
  40
 0.50000000000000
  41
 0.50000000000000
   0
SEQEND
   5
B5
 100
AcDbEntity
   8
0
   6
BYBLOCK
  62
0
   0
LINE
   5
B6
 100
AcDbEntity
   8
0
 370
-2
 100
AcDbLine
   6
BYBLOCK
  62
0
  10
-0.50000000000000
  20
0.0
  30
0.0
  11
-1.0000000000000
  21
0.0
  31
0.0
   0
ENDBLK
   5
B7
 100
AcDbEntity
   8
0
 100
AcDbBlockEnd
   0
BLOCK
   5
B8
 100
AcDbEntity
   8
0
 100
AcDbBlockBegin
   2
_DOTSMALL
  70
0
  10
0.0
  20
0.0
  30
0.0
   3
_DOTSMALL
   0
POLYLINE
   5
B9
 100
AcDbEntity
   8
0
 370
-2
   6
BYBLOCK
  62
0
 100
AcDb2dPolyline
  66
1
  10
0.0
  20
0.0
  30
0.0
  70
1
  40
 0.50000000000000
  41
 0.50000000000000
   0
VERTEX
   5
BA
 100
AcDbEntity
   8
0
   6
BYBLOCK
  62
0
 100
AcDbVertex
 100
AcDb2dVertex
  10
-0.62500000000000E-1
  20
0.0
  30
0.0
  42
 1.0000000000000
  40
 0.50000000000000
  41
 0.50000000000000
   0
VERTEX
   5
BB
 100
AcDbEntity
   8
0
   6
BYBLOCK
  62
0
 100
AcDbVertex
 100
AcDb2dVertex
  10
 0.62500000000000E-1
  20
0.0
  30
0.0
  42
 1.0000000000000
  40
 0.50000000000000
  41
 0.50000000000000
   0
SEQEND
   5
BC
 100
AcDbEntity
   8
0
   6
BYBLOCK
  62
0
   0
ENDBLK
   5
BD
 100
AcDbEntity
   8
0
 100
AcDbBlockEnd
   0
BLOCK
   5
BE
 100
AcDbEntity
   8
0
 100
AcDbBlockBegin
   2
_DATUMBLANK
  70
0
  10
0.0
  20
0.0
  30
0.0
   3
_DATUMBLANK
   0
LINE
   5
BF
 100
AcDbEntity
   8
0
 370
-2
 100
AcDbLine
   6
BYBLOCK
  62
0
  10
0.0
  20
 0.57735027000000
  30
0.0
  11
-1.0000000000000
  21
0.0
  31
0.0
   0
LINE
   5
C0
 100
AcDbEntity
   8
0
 370
-2
 100
AcDbLine
   6
BYBLOCK
  62
0
  10
-1.0000000000000
  20
0.0
  30
0.0
  11
0.0
  21
-0.57735027000000
  31
0.0
   0
LINE
   5
C1
 100
AcDbEntity
   8
0
 370
-2
 100
AcDbLine
   6
BYBLOCK
  62
0
  10
0.0
  20
-0.57735027000000
  30
0.0
  11
0.0
  21
 0.57735027000000
  31
0.0
   0
ENDBLK
   5
C2
 100
AcDbEntity
   8
0
 100
AcDbBlockEnd
   0
BLOCK
   5
C3
 100
AcDbEntity
   8
0
 100
AcDbBlockBegin
   2
_DATUMFILLED
  70
0
  10
0.0
  20
0.0
  30
0.0
   3
_DATUMFILLED
   0
SOLID
   5
C4
 100
AcDbEntity
   8
0
 100
AcDbTrace
   6
BYBLOCK
  62
0
  10
0.0
  20
 0.57735027000000
  30
0.0
  11
-1.0000000000000
  21
0.0
  31
0.0
  12
0.0
  22
-0.57735027000000
  32
0.0
  13
0.0
  23
-0.57735027000000
  33
0.0
   0
ENDBLK
   5
C5
 100
AcDbEntity
   8
0
 100
AcDbBlockEnd
   0
BLOCK
   5
C6
 100
AcDbEntity
   8
0
 100
AcDbBlockBegin
   2
_ORIGIN
  70
0
  10
0.0
  20
0.0
  30
0.0
   3
_ORIGIN
   0
CIRCLE
   5
C7
 100
AcDbEntity
   8
0
 370
-2
 100
AcDbCircle
   6
BYBLOCK
  62
0
  10
0.0
  20
0.0
  30
0.0
  40
 0.50000000000000
   0
LINE
   5
C8
 100
AcDbEntity
   8
0
 370
-2
 100
AcDbLine
   6
BYBLOCK
  62
0
  10
0.0
  20
0.0
  30
0.0
  11
-1.0000000000000
  21
0.0
  31
0.0
   0
ENDBLK
   5
C9
 100
AcDbEntity
   8
0
 100
AcDbBlockEnd
   0
BLOCK
   5
CA
 100
AcDbEntity
   8
0
 100
AcDbBlockBegin
   2
_NONE
  70
0
  10
0.0
  20
0.0
  30
0.0
   3
_NONE
   0
CIRCLE
   5
CB
 100
AcDbEntity
   8
0
 370
-2
 100
AcDbCircle
   6
BYBLOCK
  62
0
  10
0.0
  20
0.0
  30
0.0
  40
 0.25000000000000
   0
ENDBLK
   5
CC
 100
AcDbEntity
   8
0
 100
AcDbBlockEnd
   0
BLOCK
   5
CD
 100
AcDbEntity
   8
0
 100
AcDbBlockBegin
   2
_DOTBLANK
  70
0
  10
0.0
  20
0.0
  30
0.0
   3
_DOTBLANK
   0
CIRCLE
   5
CE
 100
AcDbEntity
   8
0
 370
-2
 100
AcDbCircle
   6
BYBLOCK
  62
0
  10
0.0
  20
0.0
  30
0.0
  40
 0.50000000000000
   0
LINE
   5
CF
 100
AcDbEntity
   8
0
 370
-2
 100
AcDbLine
   6
BYBLOCK
  62
0
  10
-0.50000000000000
  20
0.0
  30
0.0
  11
-1.0000000000000
  21
0.0
  31
0.0
   0
ENDBLK
   5
D0
 100
AcDbEntity
   8
0
 100
AcDbBlockEnd
   0
BLOCK
   5
D1
 100
AcDbEntity
   8
0
 100
AcDbBlockBegin
   2
_INTEGRAL
  70
0
  10
0.0
  20
0.0
  30
0.0
   3
_INTEGRAL
   0
ARC
   5
D2
 100
AcDbEntity
   8
0
 370
-2
   6
BYBLOCK
  62
0
 100
AcDbCircle
  10
 0.44488800000000
  20
-0.91335000000000E-1
  30
0.0
  40
 0.45416700000000
 100
AcDbArc
  50
 102.00000000000
  51
 168.00000000000
   0
ARC
   5
D3
 100
AcDbEntity
   8
0
 370
-2
   6
BYBLOCK
  62
0
 100
AcDbCircle
  10
-0.44488800000000
  20
 0.91335000000000E-1
  30
0.0
  40
 0.45416700000000
 100
AcDbArc
  50
 282.00000000000
  51
 348.00000000000
   0
ENDBLK
   5
D4
 100
AcDbEntity
   8
0
 100
AcDbBlockEnd
   0
BLOCK
   5
D5
 100
AcDbEntity
   8
0
 100
AcDbBlockBegin
   2
*D1
  70
65
  10
0.0
  20
0.0
  30
0.0
   3
*D1
   0
LINE
   5
D6
 100
AcDbEntity
   8
LEVEL001
 370
15
 100
AcDbLine
   6
CONTINUOUS
  62
8
  10
 76.249999999899
  20
 457.83356191404
  30
0.0
  11
 66.249999999900
  21
 457.83356191404
  31
0.0
   0
LINE
   5
D7
 100
AcDbEntity
   8
LEVEL001
 370
15
 100
AcDbLine
   6
CONTINUOUS
  62
8
  10
 76.249999999900
  20
 477.83356191404
  30
0.0
  11
 66.249999999900
  21
 477.83356191404
  31
0.0
   0
LINE
   5
D8
 100
AcDbEntity
   8
LEVEL001
 370
15
 100
AcDbLine
   6
CONTINUOUS
  62
8
  10
 68.249999999900
  20
 457.83356191404
  30
0.0
  11
 68.249999999900
  21
 467.83356191404
  31
0.0
   0
LINE
   5
D9
 100
AcDbEntity
   8
LEVEL001
 370
15
 100
AcDbLine
   6
CONTINUOUS
  62
8
  10
 68.249999999900
  20
 477.83356191404
  30
0.0
  11
 68.249999999900
  21
 467.83356191404
  31
0.0
   0
SOLID
   5
DA
 100
AcDbEntity
   8
LEVEL001
 100
AcDbTrace
   6
CONTINUOUS
  62
8
  10
 68.249999999900
  20
 457.83356191404
  30
0.0
  11
 68.778980942025
  21
 460.83356191404
  31
0.0
  12
 67.721019057774
  22
 460.83356191404
  32
0.0
  13
 67.721019057774
  23
 460.83356191404
  33
0.0
   0
SOLID
   5
DB
 100
AcDbEntity
   8
LEVEL001
 100
AcDbTrace
   6
CONTINUOUS
  62
8
  10
 68.249999999900
  20
 477.83356191404
  30
0.0
  11
 67.721019057774
  21
 474.83356191404
  31
0.0
  12
 68.778980942025
  22
 474.83356191404
  32
0.0
  13
 68.778980942025
  23
 474.83356191404
  33
0.0
   0
MTEXT
   5
DC
 100
AcDbEntity
   8
LEVEL001
 370
15
  62
8
 100
AcDbMText
  10
 67.249999999900
  20
 467.83356191404
  30
0.0
  40
 4.0000000000000
  41
0.0
  71
8
  72
1
   1
\A1;20
   7
GMM001
  11
0.0
  21
 1.0000000000000
  31
0.0
   0
ENDBLK
   5
DD
 100
AcDbEntity
   8
0
 100
AcDbBlockEnd
   0
BLOCK
   5
DE
 100
AcDbEntity
   8
0
 100
AcDbBlockBegin
   2
*D3
  70
65
  10
0.0
  20
0.0
  30
0.0
   3
*D3
   0
LINE
   5
DF
 100
AcDbEntity
   8
LEVEL001
 370
15
 100
AcDbLine
   6
CONTINUOUS
  62
8
  10
 78.249999999900
  20
 477.83356191404
  30
0.0
  11
 78.249999999900
  21
 489.83356191404
  31
0.0
   0
LINE
   5
E0
 100
AcDbEntity
   8
LEVEL001
 370
15
 100
AcDbLine
   6
CONTINUOUS
  62
8
  10
 78.249999999900
  20
 487.83356191404
  30
0.0
  11
 90.749999999900
  21
 487.83356191404
  31
0.0
   0
LINE
   5
E1
 100
AcDbEntity
   8
LEVEL001
 370
15
 100
AcDbLine
   6
CONTINUOUS
  62
8
  10
 103.24999999990
  20
 487.83356191404
  30
0.0
  11
 90.749999999900
  21
 487.83356191404
  31
0.0
   0
SOLID
   5
E2
 100
AcDbEntity
   8
LEVEL001
 100
AcDbTrace
   6
CONTINUOUS
  62
8
  10
 78.249999999900
  20
 487.83356191404
  30
0.0
  11
 81.249999999900
  21
 487.30458097192
  31
0.0
  12
 81.249999999900
  22
 488.36254285617
  32
0.0
  13
 81.249999999900
  23
 488.36254285617
  33
0.0
   0
SOLID
   5
E3
 100
AcDbEntity
   8
LEVEL001
 100
AcDbTrace
   6
CONTINUOUS
  62
8
  10
 103.24999999990
  20
 487.83356191404
  30
0.0
  11
 100.24999999990
  21
 488.36254285617
  31
0.0
  12
 100.24999999990
  22
 487.30458097192
  32
0.0
  13
 100.24999999990
  23
 487.30458097192
  33
0.0
   0
MTEXT
   5
E4
 100
AcDbEntity
   8
LEVEL001
 370
15
  62
8
 100
AcDbMText
  10
 90.749999999900
  20
 488.83356191404
  30
0.0
  40
 4.0000000000000
  41
0.0
  71
8
  72
1
   1
\A1;25
   7
GMM001
   0
ENDBLK
   5
E5
 100
AcDbEntity
   8
0
 100
AcDbBlockEnd
   0
BLOCK
   5
E6
 100
AcDbEntity
   8
0
 100
AcDbBlockBegin
   2
*D4
  70
65
  10
0.0
  20
0.0
  30
0.0
   3
*D4
   0
LINE
   5
E7
 100
AcDbEntity
   8
LEVEL001
 370
15
 100
AcDbLine
   6
CONTINUOUS
  62
8
  10
 103.24999999990
  20
 483.97689874659
  30
0.0
  11
 103.24999999990
  21
 489.83356191404
  31
0.0
   0
LINE
   5
E8
 100
AcDbEntity
   8
LEVEL001
 370
15
 100
AcDbLine
   6
CONTINUOUS
  62
8
  10
 128.24999999990
  20
 477.83356191404
  30
0.0
  11
 128.24999999990
  21
 489.83356191404
  31
0.0
   0
LINE
   5
E9
 100
AcDbEntity
   8
LEVEL001
 370
15
 100
AcDbLine
   6
CONTINUOUS
  62
8
  10
 103.24999999990
  20
 487.83356191404
  30
0.0
  11
 115.74999999990
  21
 487.83356191404
  31
0.0
   0
LINE
   5
EA
 100
AcDbEntity
   8
LEVEL001
 370
15
 100
AcDbLine
   6
CONTINUOUS
  62
8
  10
 128.24999999990
  20
 487.83356191404
  30
0.0
  11
 115.74999999990
  21
 487.83356191404
  31
0.0
   0
SOLID
   5
EB
 100
AcDbEntity
   8
LEVEL001
 100
AcDbTrace
   6
CONTINUOUS
  62
8
  10
 103.24999999990
  20
 487.83356191404
  30
0.0
  11
 106.24999999990
  21
 487.30458097192
  31
0.0
  12
 106.24999999990
  22
 488.36254285617
  32
0.0
  13
 106.24999999990
  23
 488.36254285617
  33
0.0
   0
SOLID
   5
EC
 100
AcDbEntity
   8
LEVEL001
 100
AcDbTrace
   6
CONTINUOUS
  62
8
  10
 128.24999999990
  20
 487.83356191404
  30
0.0
  11
 125.24999999990
  21
 488.36254285617
  31
0.0
  12
 125.24999999990
  22
 487.30458097192
  32
0.0
  13
 125.24999999990
  23
 487.30458097192
  33
0.0
   0
MTEXT
   5
ED
 100
AcDbEntity
   8
LEVEL001
 370
15
  62
8
 100
AcDbMText
  10
 115.74999999990
  20
 488.83356191404
  30
0.0
  40
 4.0000000000000
  41
0.0
  71
8
  72
1
   1
\A1;25
   7
GMM001
   0
ENDBLK
   5
EE
 100
AcDbEntity
   8
0
 100
AcDbBlockEnd
   0
BLOCK
   5
EF
 100
AcDbEntity
   8
0
 100
AcDbBlockBegin
   2
*D5
  70
65
  10
0.0
  20
0.0
  30
0.0
   3
*D5
   0
LINE
   5
F0
 100
AcDbEntity
   8
LEVEL001
 370
15
 100
AcDbLine
   6
CONTINUOUS
  62
8
  10
 78.249999999900
  20
 489.83356191404
  30
0.0
  11
 78.249999999900
  21
 499.83356191404
  31
0.0
   0
LINE
   5
F1
 100
AcDbEntity
   8
LEVEL001
 370
15
 100
AcDbLine
   6
CONTINUOUS
  62
8
  10
 128.24999999990
  20
 489.83356191404
  30
0.0
  11
 128.24999999990
  21
 499.83356191404
  31
0.0
   0
LINE
   5
F2
 100
AcDbEntity
   8
LEVEL001
 370
15
 100
AcDbLine
   6
CONTINUOUS
  62
8
  10
 78.249999999900
  20
 497.83356191404
  30
0.0
  11
 103.24999999990
  21
 497.83356191404
  31
0.0
   0
LINE
   5
F3
 100
AcDbEntity
   8
LEVEL001
 370
15
 100
AcDbLine
   6
CONTINUOUS
  62
8
  10
 128.24999999990
  20
 497.83356191404
  30
0.0
  11
 103.24999999990
  21
 497.83356191404
  31
0.0
   0
SOLID
   5
F4
 100
AcDbEntity
   8
LEVEL001
 100
AcDbTrace
   6
CONTINUOUS
  62
8
  10
 78.249999999900
  20
 497.83356191404
  30
0.0
  11
 81.249999999900
  21
 497.30458097192
  31
0.0
  12
 81.249999999900
  22
 498.36254285617
  32
0.0
  13
 81.249999999900
  23
 498.36254285617
  33
0.0
   0
SOLID
   5
F5
 100
AcDbEntity
   8
LEVEL001
 100
AcDbTrace
   6
CONTINUOUS
  62
8
  10
 128.24999999990
  20
 497.83356191404
  30
0.0
  11
 125.24999999990
  21
 498.36254285617
  31
0.0
  12
 125.24999999990
  22
 497.30458097192
  32
0.0
  13
 125.24999999990
  23
 497.30458097192
  33
0.0
   0
MTEXT
   5
F6
 100
AcDbEntity
   8
LEVEL001
 370
15
  62
8
 100
AcDbMText
  10
 103.24999999990
  20
 498.83356191404
  30
0.0
  40
 4.0000000000000
  41
0.0
  71
8
  72
1
   1
\A1;50
   7
GMM001
   0
ENDBLK
   5
F7
 100
AcDbEntity
   8
0
 100
AcDbBlockEnd
   0
BLOCK
   5
F8
 100
AcDbEntity
   8
0
 100
AcDbBlockBegin
   2
*D6
  70
65
  10
0.0
  20
0.0
  30
0.0
   3
*D6
   0
LINE
   5
F9
 100
AcDbEntity
   8
LEVEL001
 370
15
 100
AcDbLine
   6
CONTINUOUS
  62
8
  10
 109.42157287515
  20
 472.83356191404
  30
0.0
  11
 140.24999999990
  21
 472.83356191404
  31
0.0
   0
LINE
   5
FA
 100
AcDbEntity
   8
LEVEL001
 370
15
 100
AcDbLine
   6
CONTINUOUS
  62
8
  10
 128.24999999990
  20
 477.83356191404
  30
0.0
  11
 140.24999999990
  21
 477.83356191404
  31
0.0
   0
LINE
   5
FB
 100
AcDbEntity
   8
LEVEL001
 370
15
 100
AcDbLine
   6
CONTINUOUS
  62
8
  10
 138.24999999990
  20
 469.08356191404
  30
0.0
  11
 138.24999999990
  21
 475.33356191404
  31
0.0
   0
LINE
   5
FC
 100
AcDbEntity
   8
LEVEL001
 370
15
 100
AcDbLine
   6
CONTINUOUS
  62
8
  10
 138.24999999990
  20
 484.69446968757
  30
0.0
  11
 138.24999999990
  21
 475.33356191404
  31
0.0
   0
SOLID
   5
FD
 100
AcDbEntity
   8
LEVEL001
 100
AcDbTrace
   6
CONTINUOUS
  62
8
  10
 138.24999999990
  20
 472.83356191404
  30
0.0
  11
 137.72101905777
  21
 469.83356191404
  31
0.0
  12
 138.77898094202
  22
 469.83356191404
  32
0.0
  13
 138.77898094202
  23
 469.83356191404
  33
0.0
   0
SOLID
   5
FE
 100
AcDbEntity
   8
LEVEL001
 100
AcDbTrace
   6
CONTINUOUS
  62
8
  10
 138.24999999990
  20
 477.83356191404
  30
0.0
  11
 138.77898094202
  21
 480.83356191404
  31
0.0
  12
 137.72101905777
  22
 480.83356191404
  32
0.0
  13
 137.72101905777
  23
 480.83356191404
  33
0.0
   0
MTEXT
   5
FF
 100
AcDbEntity
   8
LEVEL001
 370
15
  62
8
 100
AcDbMText
  10
 137.20570581920
  20
 480.69446968757
  30
0.0
  40
 4.0000000000000
  41
0.0
  71
7
  72
1
   1
\A1;5
   7
GMM001
  11
0.0
  21
 1.0000000000000
  31
0.0
   0
ENDBLK
   5
100
 100
AcDbEntity
   8
0
 100
AcDbBlockEnd
   0
BLOCK
   5
101
 100
AcDbEntity
   8
0
 100
AcDbBlockBegin
   2
*D7
  70
65
  10
0.0
  20
0.0
  30
0.0
   3
*D7
   0
LINE
   5
102
 100
AcDbEntity
   8
LEVEL001
 370
15
 100
AcDbLine
   6
CONTINUOUS
  62
8
  10
 199.22238893135
  20
 457.83356191404
  30
0.0
  11
 189.22238893135
  21
 457.83356191404
  31
0.0
   0
LINE
   5
103
 100
AcDbEntity
   8
LEVEL001
 370
15
 100
AcDbLine
   6
CONTINUOUS
  62
8
  10
 199.22238893135
  20
 477.83356191404
  30
0.0
  11
 189.22238893135
  21
 477.83356191404
  31
0.0
   0
LINE
   5
104
 100
AcDbEntity
   8
LEVEL001
 370
15
 100
AcDbLine
   6
CONTINUOUS
  62
8
  10
 191.22238893135
  20
 457.83356191404
  30
0.0
  11
 191.22238893135
  21
 467.83356191404
  31
0.0
   0
LINE
   5
105
 100
AcDbEntity
   8
LEVEL001
 370
15
 100
AcDbLine
   6
CONTINUOUS
  62
8
  10
 191.22238893135
  20
 477.83356191404
  30
0.0
  11
 191.22238893135
  21
 467.83356191404
  31
0.0
   0
SOLID
   5
106
 100
AcDbEntity
   8
LEVEL001
 100
AcDbTrace
   6
CONTINUOUS
  62
8
  10
 191.22238893135
  20
 457.83356191404
  30
0.0
  11
 191.75136987348
  21
 460.83356191404
  31
0.0
  12
 190.69340798923
  22
 460.83356191404
  32
0.0
  13
 190.69340798923
  23
 460.83356191404
  33
0.0
   0
SOLID
   5
107
 100
AcDbEntity
   8
LEVEL001
 100
AcDbTrace
   6
CONTINUOUS
  62
8
  10
 191.22238893135
  20
 477.83356191404
  30
0.0
  11
 190.69340798923
  21
 474.83356191404
  31
0.0
  12
 191.75136987348
  22
 474.83356191404
  32
0.0
  13
 191.75136987348
  23
 474.83356191404
  33
0.0
   0
MTEXT
   5
108
 100
AcDbEntity
   8
LEVEL001
 370
15
  62
8
 100
AcDbMText
  10
 190.22238893135
  20
 467.83356191404
  30
0.0
  40
 4.0000000000000
  41
0.0
  71
8
  72
1
   1
\A1;20
   7
GMM001
  11
0.0
  21
 1.0000000000000
  31
0.0
   0
ENDBLK
   5
109
 100
AcDbEntity
   8
0
 100
AcDbBlockEnd
   0
BLOCK
   5
10A
 100
AcDbEntity
   8
0
 100
AcDbBlockBegin
   2
*D9
  70
65
  10
0.0
  20
0.0
  30
0.0
   3
*D9
   0
LINE
   5
10B
 100
AcDbEntity
   8
LEVEL001
 370
15
 100
AcDbLine
   6
CONTINUOUS
  62
8
  10
 201.22238893135
  20
 477.83356191404
  30
0.0
  11
 201.22238893135
  21
 489.83356191404
  31
0.0
   0
LINE
   5
10C
 100
AcDbEntity
   8
LEVEL001
 370
15
 100
AcDbLine
   6
CONTINUOUS
  62
8
  10
 229.72238893135
  20
 479.99417762086
  30
0.0
  11
 229.72238893135
  21
 489.83356191404
  31
0.0
   0
LINE
   5
10D
 100
AcDbEntity
   8
LEVEL001
 370
15
 100
AcDbLine
   6
CONTINUOUS
  62
8
  10
 201.22238893135
  20
 487.83356191404
  30
0.0
  11
 215.47238893135
  21
 487.83356191404
  31
0.0
   0
LINE
   5
10E
 100
AcDbEntity
   8
LEVEL001
 370
15
 100
AcDbLine
   6
CONTINUOUS
  62
8
  10
 229.72238893135
  20
 487.83356191404
  30
0.0
  11
 215.47238893135
  21
 487.83356191404
  31
0.0
   0
SOLID
   5
10F
 100
AcDbEntity
   8
LEVEL001
 100
AcDbTrace
   6
CONTINUOUS
  62
8
  10
 201.22238893135
  20
 487.83356191404
  30
0.0
  11
 204.22238893135
  21
 487.30458097192
  31
0.0
  12
 204.22238893135
  22
 488.36254285617
  32
0.0
  13
 204.22238893135
  23
 488.36254285617
  33
0.0
   0
SOLID
   5
110
 100
AcDbEntity
   8
LEVEL001
 100
AcDbTrace
   6
CONTINUOUS
  62
8
  10
 229.72238893135
  20
 487.83356191404
  30
0.0
  11
 226.72238893135
  21
 488.36254285617
  31
0.0
  12
 226.72238893135
  22
 487.30458097192
  32
0.0
  13
 226.72238893135
  23
 487.30458097192
  33
0.0
   0
MTEXT
   5
111
 100
AcDbEntity
   8
LEVEL001
 370
15
  62
8
 100
AcDbMText
  10
 215.47238893135
  20
 488.83356191404
  30
0.0
  40
 4.0000000000000
  41
0.0
  71
8
  72
1
   1
\A1;28.5
   7
GMM001
   0
ENDBLK
   5
112
 100
AcDbEntity
   8
0
 100
AcDbBlockEnd
   0
BLOCK
   5
113
 100
AcDbEntity
   8
0
 100
AcDbBlockBegin
   2
*D10
  70
65
  10
0.0
  20
0.0
  30
0.0
   3
*D10
   0
LINE
   5
114
 100
AcDbEntity
   8
LEVEL001
 370
15
 100
AcDbLine
   6
CONTINUOUS
  62
8
  10
 201.22238893135
  20
 489.83356191404
  30
0.0
  11
 201.22238893135
  21
 499.83356191404
  31
0.0
   0
LINE
   5
115
 100
AcDbEntity
   8
LEVEL001
 370
15
 100
AcDbLine
   6
CONTINUOUS
  62
8
  10
 301.22238893135
  20
 477.12707898853
  30
0.0
  11
 301.22238893135
  21
 499.83356191404
  31
0.0
   0
LINE
   5
116
 100
AcDbEntity
   8
LEVEL001
 370
15
 100
AcDbLine
   6
CONTINUOUS
  62
8
  10
 201.22238893135
  20
 497.83356191404
  30
0.0
  11
 251.22238893135
  21
 497.83356191404
  31
0.0
   0
LINE
   5
117
 100
AcDbEntity
   8
LEVEL001
 370
15
 100
AcDbLine
   6
CONTINUOUS
  62
8
  10
 301.22238893135
  20
 497.83356191404
  30
0.0
  11
 251.22238893135
  21
 497.83356191404
  31
0.0
   0
SOLID
   5
118
 100
AcDbEntity
   8
LEVEL001
 100
AcDbTrace
   6
CONTINUOUS
  62
8
  10
 201.22238893135
  20
 497.83356191404
  30
0.0
  11
 204.22238893135
  21
 497.30458097192
  31
0.0
  12
 204.22238893135
  22
 498.36254285617
  32
0.0
  13
 204.22238893135
  23
 498.36254285617
  33
0.0
   0
SOLID
   5
119
 100
AcDbEntity
   8
LEVEL001
 100
AcDbTrace
   6
CONTINUOUS
  62
8
  10
 301.22238893135
  20
 497.83356191404
  30
0.0
  11
 298.22238893135
  21
 498.36254285617
  31
0.0
  12
 298.22238893135
  22
 497.30458097192
  32
0.0
  13
 298.22238893135
  23
 497.30458097192
  33
0.0
   0
MTEXT
   5
11A
 100
AcDbEntity
   8
LEVEL001
 370
15
  62
8
 100
AcDbMText
  10
 251.22238893135
  20
 498.83356191404
  30
0.0
  40
 4.0000000000000
  41
0.0
  71
8
  72
1
   1
\A1;100
   7
GMM001
   0
ENDBLK
   5
11B
 100
AcDbEntity
   8
0
 100
AcDbBlockEnd
   0
BLOCK
   5
11C
 100
AcDbEntity
   8
0
 100
AcDbBlockBegin
   2
*D11
  70
65
  10
0.0
  20
0.0
  30
0.0
   3
*D11
   0
LINE
   5
11D
 100
AcDbEntity
   8
LEVEL001
 370
15
 100
AcDbLine
   6
CONTINUOUS
  62
8
  10
 235.89396180660
  20
 472.83356191404
  30
0.0
  11
 249.74999999990
  21
 472.83356191404
  31
0.0
   0
LINE
   5
11E
 100
AcDbEntity
   8
LEVEL001
 370
15
 100
AcDbLine
   6
CONTINUOUS
  62
8
  10
 247.74999999990
  20
 469.08356191404
  30
0.0
  11
 247.74999999990
  21
 475.33356191404
  31
0.0
   0
LINE
   5
11F
 100
AcDbEntity
   8
LEVEL001
 370
15
 100
AcDbLine
   6
CONTINUOUS
  62
8
  10
 247.74999999990
  20
 484.05732126094
  30
0.0
  11
 247.74999999990
  21
 475.33356191404
  31
0.0
   0
SOLID
   5
120
 100
AcDbEntity
   8
LEVEL001
 100
AcDbTrace
   6
CONTINUOUS
  62
8
  10
 247.74999999990
  20
 472.83356191404
  30
0.0
  11
 247.22101905777
  21
 469.83356191404
  31
0.0
  12
 248.27898094203
  22
 469.83356191404
  32
0.0
  13
 248.27898094203
  23
 469.83356191404
  33
0.0
   0
SOLID
   5
121
 100
AcDbEntity
   8
LEVEL001
 100
AcDbTrace
   6
CONTINUOUS
  62
8
  10
 247.74999999990
  20
 477.83356191404
  30
0.0
  11
 248.27898094203
  21
 480.83356191404
  31
0.0
  12
 247.22101905777
  22
 480.83356191404
  32
0.0
  13
 247.22101905777
  23
 480.83356191404
  33
0.0
   0
MTEXT
   5
122
 100
AcDbEntity
   8
LEVEL001
 370
15
  62
8
 100
AcDbMText
  10
 246.77794022081
  20
 480.05732126094
  30
0.0
  40
 4.0000000000000
  41
0.0
  71
7
  72
1
   1
\A1;5
   7
GMM001
  11
0.0
  21
 1.0000000000000
  31
0.0
   0
ENDBLK
   5
123
 100
AcDbEntity
   8
0
 100
AcDbBlockEnd
   0
BLOCK
   5
124
 100
AcDbEntity
   8
0
 100
AcDbBlockBegin
   2
*D12
  70
65
  10
0.0
  20
0.0
  30
0.0
   3
*D12
   0
LINE
   5
125
 100
AcDbEntity
   8
LEVEL001
 370
15
 100
AcDbLine
   6
CONTINUOUS
  62
8
  10
 484.74999999990
  20
 321.33356191406
  30
0.0
  11
 474.74999999990
  21
 321.33356191406
  31
0.0
   0
LINE
   5
126
 100
AcDbEntity
   8
LEVEL001
 370
15
 100
AcDbLine
   6
CONTINUOUS
  62
8
  10
 484.74999999990
  20
 341.33356191406
  30
0.0
  11
 474.74999999990
  21
 341.33356191406
  31
0.0
   0
LINE
   5
127
 100
AcDbEntity
   8
LEVEL001
 370
15
 100
AcDbLine
   6
CONTINUOUS
  62
8
  10
 476.74999999990
  20
 321.33356191406
  30
0.0
  11
 476.74999999990
  21
 331.33356191406
  31
0.0
   0
LINE
   5
128
 100
AcDbEntity
   8
LEVEL001
 370
15
 100
AcDbLine
   6
CONTINUOUS
  62
8
  10
 476.74999999990
  20
 341.33356191406
  30
0.0
  11
 476.74999999990
  21
 331.33356191406
  31
0.0
   0
SOLID
   5
129
 100
AcDbEntity
   8
LEVEL001
 100
AcDbTrace
   6
CONTINUOUS
  62
8
  10
 476.74999999990
  20
 321.33356191406
  30
0.0
  11
 477.27898094203
  21
 324.33356191406
  31
0.0
  12
 476.22101905777
  22
 324.33356191406
  32
0.0
  13
 476.22101905777
  23
 324.33356191406
  33
0.0
   0
SOLID
   5
12A
 100
AcDbEntity
   8
LEVEL001
 100
AcDbTrace
   6
CONTINUOUS
  62
8
  10
 476.74999999990
  20
 341.33356191406
  30
0.0
  11
 476.22101905777
  21
 338.33356191406
  31
0.0
  12
 477.27898094203
  22
 338.33356191406
  32
0.0
  13
 477.27898094203
  23
 338.33356191406
  33
0.0
   0
MTEXT
   5
12B
 100
AcDbEntity
   8
LEVEL001
 370
15
  62
8
 100
AcDbMText
  10
 475.74999999990
  20
 331.33356191406
  30
0.0
  40
 4.0000000000000
  41
0.0
  71
8
  72
1
   1
\A1;20
   7
GMM001
  11
0.0
  21
 1.0000000000000
  31
0.0
   0
ENDBLK
   5
12C
 100
AcDbEntity
   8
0
 100
AcDbBlockEnd
   0
BLOCK
   5
12D
 100
AcDbEntity
   8
0
 100
AcDbBlockBegin
   2
*D14
  70
65
  10
0.0
  20
0.0
  30
0.0
   3
*D14
   0
LINE
   5
12E
 100
AcDbEntity
   8
LEVEL001
 370
15
 100
AcDbLine
   6
CONTINUOUS
  62
8
  10
 486.74999999990
  20
 341.33356191406
  30
0.0
  11
 486.74999999990
  21
 353.33356191406
  31
0.0
   0
LINE
   5
12F
 100
AcDbEntity
   8
LEVEL001
 370
15
 100
AcDbLine
   6
CONTINUOUS
  62
8
  10
 486.74999999990
  20
 351.33356191406
  30
0.0
  11
 500.99999999990
  21
 351.33356191406
  31
0.0
   0
LINE
   5
130
 100
AcDbEntity
   8
LEVEL001
 370
15
 100
AcDbLine
   6
CONTINUOUS
  62
8
  10
 515.24999999990
  20
 351.33356191406
  30
0.0
  11
 500.99999999990
  21
 351.33356191406
  31
0.0
   0
SOLID
   5
131
 100
AcDbEntity
   8
LEVEL001
 100
AcDbTrace
   6
CONTINUOUS
  62
8
  10
 486.74999999990
  20
 351.33356191406
  30
0.0
  11
 489.74999999990
  21
 350.80458097194
  31
0.0
  12
 489.74999999990
  22
 351.86254285619
  32
0.0
  13
 489.74999999990
  23
 351.86254285619
  33
0.0
   0
SOLID
   5
132
 100
AcDbEntity
   8
LEVEL001
 100
AcDbTrace
   6
CONTINUOUS
  62
8
  10
 515.24999999990
  20
 351.33356191406
  30
0.0
  11
 512.24999999990
  21
 351.86254285619
  31
0.0
  12
 512.24999999990
  22
 350.80458097194
  32
0.0
  13
 512.24999999990
  23
 350.80458097194
  33
0.0
   0
MTEXT
   5
133
 100
AcDbEntity
   8
LEVEL001
 370
15
  62
8
 100
AcDbMText
  10
 500.99999999990
  20
 352.33356191406
  30
0.0
  40
 4.0000000000000
  41
0.0
  71
8
  72
1
   1
\A1;28.5
   7
GMM001
   0
ENDBLK
   5
134
 100
AcDbEntity
   8
0
 100
AcDbBlockEnd
   0
BLOCK
   5
135
 100
AcDbEntity
   8
0
 100
AcDbBlockBegin
   2
*D15
  70
65
  10
0.0
  20
0.0
  30
0.0
   3
*D15
   0
LINE
   5
136
 100
AcDbEntity
   8
LEVEL001
 370
15
 100
AcDbLine
   6
CONTINUOUS
  62
8
  10
 515.24999999990
  20
 345.60173427293
  30
0.0
  11
 515.24999999990
  21
 353.33356191406
  31
0.0
   0
LINE
   5
137
 100
AcDbEntity
   8
LEVEL001
 370
15
 100
AcDbLine
   6
CONTINUOUS
  62
8
  10
 515.24999999990
  20
 351.33356191406
  30
0.0
  11
 536.74999999990
  21
 351.33356191406
  31
0.0
   0
LINE
   5
138
 100
AcDbEntity
   8
LEVEL001
 370
15
 100
AcDbLine
   6
CONTINUOUS
  62
8
  10
 558.24999999990
  20
 351.33356191406
  30
0.0
  11
 536.74999999990
  21
 351.33356191406
  31
0.0
   0
SOLID
   5
139
 100
AcDbEntity
   8
LEVEL001
 100
AcDbTrace
   6
CONTINUOUS
  62
8
  10
 515.24999999990
  20
 351.33356191406
  30
0.0
  11
 518.24999999990
  21
 350.80458097194
  31
0.0
  12
 518.24999999990
  22
 351.86254285619
  32
0.0
  13
 518.24999999990
  23
 351.86254285619
  33
0.0
   0
SOLID
   5
13A
 100
AcDbEntity
   8
LEVEL001
 100
AcDbTrace
   6
CONTINUOUS
  62
8
  10
 558.24999999990
  20
 351.33356191406
  30
0.0
  11
 555.24999999990
  21
 351.86254285619
  31
0.0
  12
 555.24999999990
  22
 350.80458097194
  32
0.0
  13
 555.24999999990
  23
 350.80458097194
  33
0.0
   0
MTEXT
   5
13B
 100
AcDbEntity
   8
LEVEL001
 370
15
  62
8
 100
AcDbMText
  10
 536.74999999990
  20
 352.33356191406
  30
0.0
  40
 4.0000000000000
  41
0.0
  71
8
  72
1
   1
\A1;43
   7
GMM001
   0
ENDBLK
   5
13C
 100
AcDbEntity
   8
0
 100
AcDbBlockEnd
   0
BLOCK
   5
13D
 100
AcDbEntity
   8
0
 100
AcDbBlockBegin
   2
*D16
  70
65
  10
0.0
  20
0.0
  30
0.0
   3
*D16
   0
LINE
   5
13E
 100
AcDbEntity
   8
LEVEL001
 370
15
 100
AcDbLine
   6
CONTINUOUS
  62
8
  10
 558.24999999990
  20
 345.60173427293
  30
0.0
  11
 558.24999999990
  21
 353.33356191406
  31
0.0
   0
LINE
   5
13F
 100
AcDbEntity
   8
LEVEL001
 370
15
 100
AcDbLine
   6
CONTINUOUS
  62
8
  10
 586.74999999990
  20
 341.33356191406
  30
0.0
  11
 586.74999999990
  21
 353.33356191406
  31
0.0
   0
LINE
   5
140
 100
AcDbEntity
   8
LEVEL001
 370
15
 100
AcDbLine
   6
CONTINUOUS
  62
8
  10
 558.24999999990
  20
 351.33356191406
  30
0.0
  11
 572.49999999990
  21
 351.33356191406
  31
0.0
   0
LINE
   5
141
 100
AcDbEntity
   8
LEVEL001
 370
15
 100
AcDbLine
   6
CONTINUOUS
  62
8
  10
 586.74999999990
  20
 351.33356191406
  30
0.0
  11
 572.49999999990
  21
 351.33356191406
  31
0.0
   0
SOLID
   5
142
 100
AcDbEntity
   8
LEVEL001
 100
AcDbTrace
   6
CONTINUOUS
  62
8
  10
 558.24999999990
  20
 351.33356191406
  30
0.0
  11
 561.24999999990
  21
 350.80458097194
  31
0.0
  12
 561.24999999990
  22
 351.86254285619
  32
0.0
  13
 561.24999999990
  23
 351.86254285619
  33
0.0
   0
SOLID
   5
143
 100
AcDbEntity
   8
LEVEL001
 100
AcDbTrace
   6
CONTINUOUS
  62
8
  10
 586.74999999990
  20
 351.33356191406
  30
0.0
  11
 583.74999999990
  21
 351.86254285619
  31
0.0
  12
 583.74999999990
  22
 350.80458097194
  32
0.0
  13
 583.74999999990
  23
 350.80458097194
  33
0.0
   0
MTEXT
   5
144
 100
AcDbEntity
   8
LEVEL001
 370
15
  62
8
 100
AcDbMText
  10
 572.49999999990
  20
 352.33356191406
  30
0.0
  40
 4.0000000000000
  41
0.0
  71
8
  72
1
   1
\A1;28.5
   7
GMM001
   0
ENDBLK
   5
145
 100
AcDbEntity
   8
0
 100
AcDbBlockEnd
   0
BLOCK
   5
146
 100
AcDbEntity
   8
0
 100
AcDbBlockBegin
   2
*D17
  70
65
  10
0.0
  20
0.0
  30
0.0
   3
*D17
   0
LINE
   5
147
 100
AcDbEntity
   8
LEVEL001
 370
15
 100
AcDbLine
   6
CONTINUOUS
  62
8
  10
 486.74999999990
  20
 353.33356191406
  30
0.0
  11
 486.74999999990
  21
 363.33356191406
  31
0.0
   0
LINE
   5
148
 100
AcDbEntity
   8
LEVEL001
 370
15
 100
AcDbLine
   6
CONTINUOUS
  62
8
  10
 586.74999999990
  20
 353.33356191406
  30
0.0
  11
 586.74999999990
  21
 363.33356191406
  31
0.0
   0
LINE
   5
149
 100
AcDbEntity
   8
LEVEL001
 370
15
 100
AcDbLine
   6
CONTINUOUS
  62
8
  10
 486.74999999990
  20
 361.33356191406
  30
0.0
  11
 536.74999999990
  21
 361.33356191406
  31
0.0
   0
LINE
   5
14A
 100
AcDbEntity
   8
LEVEL001
 370
15
 100
AcDbLine
   6
CONTINUOUS
  62
8
  10
 586.74999999990
  20
 361.33356191406
  30
0.0
  11
 536.74999999990
  21
 361.33356191406
  31
0.0
   0
SOLID
   5
14B
 100
AcDbEntity
   8
LEVEL001
 100
AcDbTrace
   6
CONTINUOUS
  62
8
  10
 486.74999999990
  20
 361.33356191406
  30
0.0
  11
 489.74999999990
  21
 360.80458097194
  31
0.0
  12
 489.74999999990
  22
 361.86254285619
  32
0.0
  13
 489.74999999990
  23
 361.86254285619
  33
0.0
   0
SOLID
   5
14C
 100
AcDbEntity
   8
LEVEL001
 100
AcDbTrace
   6
CONTINUOUS
  62
8
  10
 586.74999999990
  20
 361.33356191406
  30
0.0
  11
 583.74999999990
  21
 361.86254285619
  31
0.0
  12
 583.74999999990
  22
 360.80458097194
  32
0.0
  13
 583.74999999990
  23
 360.80458097194
  33
0.0
   0
MTEXT
   5
14D
 100
AcDbEntity
   8
LEVEL001
 370
15
  62
8
 100
AcDbMText
  10
 536.74999999990
  20
 362.33356191406
  30
0.0
  40
 4.0000000000000
  41
0.0
  71
8
  72
1
   1
\A1;100
   7
GMM001
   0
ENDBLK
   5
14E
 100
AcDbEntity
   8
0
 100
AcDbBlockEnd
   0
BLOCK
   5
14F
 100
AcDbEntity
   8
0
 100
AcDbBlockBegin
   2
*D18
  70
65
  10
0.0
  20
0.0
  30
0.0
   3
*D18
   0
LINE
   5
150
 100
AcDbEntity
   8
LEVEL001
 370
15
 100
AcDbLine
   6
CONTINUOUS
  62
8
  10
 564.42157287515
  20
 336.33356191406
  30
0.0
  11
 598.74999999990
  21
 336.33356191406
  31
0.0
   0
LINE
   5
151
 100
AcDbEntity
   8
LEVEL001
 370
15
 100
AcDbLine
   6
CONTINUOUS
  62
8
  10
 586.92157287516
  20
 341.33356191406
  30
0.0
  11
 598.74999999990
  21
 341.33356191406
  31
0.0
   0
LINE
   5
152
 100
AcDbEntity
   8
LEVEL001
 370
15
 100
AcDbLine
   6
CONTINUOUS
  62
8
  10
 596.74999999990
  20
 332.58356191406
  30
0.0
  11
 596.74999999990
  21
 338.83356191406
  31
0.0
   0
LINE
   5
153
 100
AcDbEntity
   8
LEVEL001
 370
15
 100
AcDbLine
   6
CONTINUOUS
  62
8
  10
 596.74999999990
  20
 348.34150393988
  30
0.0
  11
 596.74999999990
  21
 338.83356191406
  31
0.0
   0
SOLID
   5
154
 100
AcDbEntity
   8
LEVEL001
 100
AcDbTrace
   6
CONTINUOUS
  62
8
  10
 596.74999999990
  20
 336.33356191406
  30
0.0
  11
 596.22101905777
  21
 333.33356191406
  31
0.0
  12
 597.27898094203
  22
 333.33356191406
  32
0.0
  13
 597.27898094203
  23
 333.33356191406
  33
0.0
   0
SOLID
   5
155
 100
AcDbEntity
   8
LEVEL001
 100
AcDbTrace
   6
CONTINUOUS
  62
8
  10
 596.74999999990
  20
 341.33356191406
  30
0.0
  11
 597.27898094203
  21
 344.33356191406
  31
0.0
  12
 596.22101905777
  22
 344.33356191406
  32
0.0
  13
 596.22101905777
  23
 344.33356191406
  33
0.0
   0
MTEXT
   5
156
 100
AcDbEntity
   8
LEVEL001
 370
15
  62
8
 100
AcDbMText
  10
 595.77292342637
  20
 344.34150393988
  30
0.0
  40
 4.0000000000000
  41
0.0
  71
7
  72
1
   1
\A1;5
   7
GMM001
  11
0.0
  21
 1.0000000000000
  31
0.0
   0
ENDBLK
   5
157
 100
AcDbEntity
   8
0
 100
AcDbBlockEnd
   0
BLOCK
   5
158
 100
AcDbEntity
   8
0
 100
AcDbBlockBegin
   2
*D19
  70
65
  10
0.0
  20
0.0
  30
0.0
   3
*D19
   0
LINE
   5
159
 100
AcDbEntity
   8
LEVEL001
 370
15
 100
AcDbLine
   6
CONTINUOUS
  62
8
  10
 67.249999999900
  20
 184.83356191406
  30
0.0
  11
 57.249999999900
  21
 184.83356191406
  31
0.0
   0
LINE
   5
15A
 100
AcDbEntity
   8
LEVEL001
 370
15
 100
AcDbLine
   6
CONTINUOUS
  62
8
  10
 67.249999999900
  20
 204.83356191406
  30
0.0
  11
 57.249999999900
  21
 204.83356191406
  31
0.0
   0
LINE
   5
15B
 100
AcDbEntity
   8
LEVEL001
 370
15
 100
AcDbLine
   6
CONTINUOUS
  62
8
  10
 59.249999999900
  20
 184.83356191406
  30
0.0
  11
 59.249999999900
  21
 194.83356191406
  31
0.0
   0
LINE
   5
15C
 100
AcDbEntity
   8
LEVEL001
 370
15
 100
AcDbLine
   6
CONTINUOUS
  62
8
  10
 59.249999999900
  20
 204.83356191406
  30
0.0
  11
 59.249999999900
  21
 194.83356191406
  31
0.0
   0
SOLID
   5
15D
 100
AcDbEntity
   8
LEVEL001
 100
AcDbTrace
   6
CONTINUOUS
  62
8
  10
 59.249999999900
  20
 184.83356191406
  30
0.0
  11
 59.778980942025
  21
 187.83356191406
  31
0.0
  12
 58.721019057775
  22
 187.83356191406
  32
0.0
  13
 58.721019057775
  23
 187.83356191406
  33
0.0
   0
SOLID
   5
15E
 100
AcDbEntity
   8
LEVEL001
 100
AcDbTrace
   6
CONTINUOUS
  62
8
  10
 59.249999999900
  20
 204.83356191406
  30
0.0
  11
 58.721019057775
  21
 201.83356191406
  31
0.0
  12
 59.778980942025
  22
 201.83356191406
  32
0.0
  13
 59.778980942025
  23
 201.83356191406
  33
0.0
   0
MTEXT
   5
15F
 100
AcDbEntity
   8
LEVEL001
 370
15
  62
8
 100
AcDbMText
  10
 58.249999999900
  20
 194.83356191406
  30
0.0
  40
 4.0000000000000
  41
0.0
  71
8
  72
1
   1
\A1;20
   7
GMM001
  11
0.0
  21
 1.0000000000000
  31
0.0
   0
ENDBLK
   5
160
 100
AcDbEntity
   8
0
 100
AcDbBlockEnd
   0
BLOCK
   5
161
 100
AcDbEntity
   8
0
 100
AcDbBlockBegin
   2
*D21
  70
65
  10
0.0
  20
0.0
  30
0.0
   3
*D21
   0
LINE
   5
162
 100
AcDbEntity
   8
LEVEL001
 370
15
 100
AcDbLine
   6
CONTINUOUS
  62
8
  10
 69.249999999900
  20
 204.83356191406
  30
0.0
  11
 69.249999999900
  21
 216.83356191406
  31
0.0
   0
LINE
   5
163
 100
AcDbEntity
   8
LEVEL001
 370
15
 100
AcDbLine
   6
CONTINUOUS
  62
8
  10
 69.249999999900
  20
 214.83356191406
  30
0.0
  11
 77.749999999900
  21
 214.83356191406
  31
0.0
   0
LINE
   5
164
 100
AcDbEntity
   8
LEVEL001
 370
15
 100
AcDbLine
   6
CONTINUOUS
  62
8
  10
 86.249999999900
  20
 214.83356191406
  30
0.0
  11
 77.749999999900
  21
 214.83356191406
  31
0.0
   0
SOLID
   5
165
 100
AcDbEntity
   8
LEVEL001
 100
AcDbTrace
   6
CONTINUOUS
  62
8
  10
 69.249999999900
  20
 214.83356191406
  30
0.0
  11
 72.249999999900
  21
 214.30458097194
  31
0.0
  12
 72.249999999900
  22
 215.36254285619
  32
0.0
  13
 72.249999999900
  23
 215.36254285619
  33
0.0
   0
SOLID
   5
166
 100
AcDbEntity
   8
LEVEL001
 100
AcDbTrace
   6
CONTINUOUS
  62
8
  10
 86.249999999900
  20
 214.83356191406
  30
0.0
  11
 83.249999999900
  21
 215.36254285619
  31
0.0
  12
 83.249999999900
  22
 214.30458097194
  32
0.0
  13
 83.249999999900
  23
 214.30458097194
  33
0.0
   0
MTEXT
   5
167
 100
AcDbEntity
   8
LEVEL001
 370
15
  62
8
 100
AcDbMText
  10
 77.749999999900
  20
 215.83356191406
  30
0.0
  40
 4.0000000000000
  41
0.0
  71
8
  72
1
   1
\A1;17
   7
GMM001
   0
ENDBLK
   5
168
 100
AcDbEntity
   8
0
 100
AcDbBlockEnd
   0
BLOCK
   5
169
 100
AcDbEntity
   8
0
 100
AcDbBlockBegin
   2
*D22
  70
65
  10
0.0
  20
0.0
  30
0.0
   3
*D22
   0
LINE
   5
16A
 100
AcDbEntity
   8
LEVEL001
 370
15
 100
AcDbLine
   6
CONTINUOUS
  62
8
  10
 86.249999999900
  20
 209.10173427293
  30
0.0
  11
 86.249999999900
  21
 216.83356191406
  31
0.0
   0
LINE
   5
16B
 100
AcDbEntity
   8
LEVEL001
 370
15
 100
AcDbLine
   6
CONTINUOUS
  62
8
  10
 86.249999999900
  20
 214.83356191406
  30
0.0
  11
 103.24999999990
  21
 214.83356191406
  31
0.0
   0
LINE
   5
16C
 100
AcDbEntity
   8
LEVEL001
 370
15
 100
AcDbLine
   6
CONTINUOUS
  62
8
  10
 120.24999999990
  20
 214.83356191406
  30
0.0
  11
 103.24999999990
  21
 214.83356191406
  31
0.0
   0
SOLID
   5
16D
 100
AcDbEntity
   8
LEVEL001
 100
AcDbTrace
   6
CONTINUOUS
  62
8
  10
 86.249999999900
  20
 214.83356191406
  30
0.0
  11
 89.249999999900
  21
 214.30458097194
  31
0.0
  12
 89.249999999900
  22
 215.36254285619
  32
0.0
  13
 89.249999999900
  23
 215.36254285619
  33
0.0
   0
SOLID
   5
16E
 100
AcDbEntity
   8
LEVEL001
 100
AcDbTrace
   6
CONTINUOUS
  62
8
  10
 120.24999999990
  20
 214.83356191406
  30
0.0
  11
 117.24999999990
  21
 215.36254285619
  31
0.0
  12
 117.24999999990
  22
 214.30458097194
  32
0.0
  13
 117.24999999990
  23
 214.30458097194
  33
0.0
   0
MTEXT
   5
16F
 100
AcDbEntity
   8
LEVEL001
 370
15
  62
8
 100
AcDbMText
  10
 103.24999999990
  20
 215.83356191406
  30
0.0
  40
 4.0000000000000
  41
0.0
  71
8
  72
1
   1
\A1;34
   7
GMM001
   0
ENDBLK
   5
170
 100
AcDbEntity
   8
0
 100
AcDbBlockEnd
   0
BLOCK
   5
171
 100
AcDbEntity
   8
0
 100
AcDbBlockBegin
   2
*D23
  70
65
  10
0.0
  20
0.0
  30
0.0
   3
*D23
   0
LINE
   5
172
 100
AcDbEntity
   8
LEVEL001
 370
15
 100
AcDbLine
   6
CONTINUOUS
  62
8
  10
 120.24999999990
  20
 209.10173427293
  30
0.0
  11
 120.24999999990
  21
 216.83356191406
  31
0.0
   0
LINE
   5
173
 100
AcDbEntity
   8
LEVEL001
 370
15
 100
AcDbLine
   6
CONTINUOUS
  62
8
  10
 137.24999999990
  20
 204.83356191406
  30
0.0
  11
 137.24999999990
  21
 216.83356191406
  31
0.0
   0
LINE
   5
174
 100
AcDbEntity
   8
LEVEL001
 370
15
 100
AcDbLine
   6
CONTINUOUS
  62
8
  10
 120.24999999990
  20
 214.83356191406
  30
0.0
  11
 128.74999999990
  21
 214.83356191406
  31
0.0
   0
LINE
   5
175
 100
AcDbEntity
   8
LEVEL001
 370
15
 100
AcDbLine
   6
CONTINUOUS
  62
8
  10
 137.24999999990
  20
 214.83356191406
  30
0.0
  11
 128.74999999990
  21
 214.83356191406
  31
0.0
   0
SOLID
   5
176
 100
AcDbEntity
   8
LEVEL001
 100
AcDbTrace
   6
CONTINUOUS
  62
8
  10
 120.24999999990
  20
 214.83356191406
  30
0.0
  11
 123.24999999990
  21
 214.30458097194
  31
0.0
  12
 123.24999999990
  22
 215.36254285619
  32
0.0
  13
 123.24999999990
  23
 215.36254285619
  33
0.0
   0
SOLID
   5
177
 100
AcDbEntity
   8
LEVEL001
 100
AcDbTrace
   6
CONTINUOUS
  62
8
  10
 137.24999999990
  20
 214.83356191406
  30
0.0
  11
 134.24999999990
  21
 215.36254285619
  31
0.0
  12
 134.24999999990
  22
 214.30458097194
  32
0.0
  13
 134.24999999990
  23
 214.30458097194
  33
0.0
   0
MTEXT
   5
178
 100
AcDbEntity
   8
LEVEL001
 370
15
  62
8
 100
AcDbMText
  10
 128.74999999990
  20
 215.83356191406
  30
0.0
  40
 4.0000000000000
  41
0.0
  71
8
  72
1
   1
\A1;17
   7
GMM001
   0
ENDBLK
   5
179
 100
AcDbEntity
   8
0
 100
AcDbBlockEnd
   0
BLOCK
   5
17A
 100
AcDbEntity
   8
0
 100
AcDbBlockBegin
   2
*D24
  70
65
  10
0.0
  20
0.0
  30
0.0
   3
*D24
   0
LINE
   5
17B
 100
AcDbEntity
   8
LEVEL001
 370
15
 100
AcDbLine
   6
CONTINUOUS
  62
8
  10
 69.249999999900
  20
 216.83356191406
  30
0.0
  11
 69.249999999900
  21
 226.83356191406
  31
0.0
   0
LINE
   5
17C
 100
AcDbEntity
   8
LEVEL001
 370
15
 100
AcDbLine
   6
CONTINUOUS
  62
8
  10
 137.24999999990
  20
 216.83356191406
  30
0.0
  11
 137.24999999990
  21
 226.83356191406
  31
0.0
   0
LINE
   5
17D
 100
AcDbEntity
   8
LEVEL001
 370
15
 100
AcDbLine
   6
CONTINUOUS
  62
8
  10
 69.249999999900
  20
 224.83356191406
  30
0.0
  11
 103.24999999990
  21
 224.83356191406
  31
0.0
   0
LINE
   5
17E
 100
AcDbEntity
   8
LEVEL001
 370
15
 100
AcDbLine
   6
CONTINUOUS
  62
8
  10
 137.24999999990
  20
 224.83356191406
  30
0.0
  11
 103.24999999990
  21
 224.83356191406
  31
0.0
   0
SOLID
   5
17F
 100
AcDbEntity
   8
LEVEL001
 100
AcDbTrace
   6
CONTINUOUS
  62
8
  10
 69.249999999900
  20
 224.83356191406
  30
0.0
  11
 72.249999999900
  21
 224.30458097194
  31
0.0
  12
 72.249999999900
  22
 225.36254285619
  32
0.0
  13
 72.249999999900
  23
 225.36254285619
  33
0.0
   0
SOLID
   5
180
 100
AcDbEntity
   8
LEVEL001
 100
AcDbTrace
   6
CONTINUOUS
  62
8
  10
 137.24999999990
  20
 224.83356191406
  30
0.0
  11
 134.24999999990
  21
 225.36254285619
  31
0.0
  12
 134.24999999990
  22
 224.30458097194
  32
0.0
  13
 134.24999999990
  23
 224.30458097194
  33
0.0
   0
MTEXT
   5
181
 100
AcDbEntity
   8
LEVEL001
 370
15
  62
8
 100
AcDbMText
  10
 103.24999999990
  20
 225.83356191406
  30
0.0
  40
 4.0000000000000
  41
0.0
  71
8
  72
1
   1
\A1;68
   7
GMM001
   0
ENDBLK
   5
182
 100
AcDbEntity
   8
0
 100
AcDbBlockEnd
   0
BLOCK
   5
183
 100
AcDbEntity
   8
0
 100
AcDbBlockBegin
   2
*D25
  70
65
  10
0.0
  20
0.0
  30
0.0
   3
*D25
   0
LINE
   5
184
 100
AcDbEntity
   8
LEVEL001
 370
15
 100
AcDbLine
   6
CONTINUOUS
  62
8
  10
 137.24999999990
  20
 204.83356191406
  30
0.0
  11
 149.24999999990
  21
 204.83356191406
  31
0.0
   0
LINE
   5
185
 100
AcDbEntity
   8
LEVEL001
 370
15
 100
AcDbLine
   6
CONTINUOUS
  62
8
  10
 126.42157287515
  20
 199.83356191406
  30
0.0
  11
 149.24999999990
  21
 199.83356191406
  31
0.0
   0
LINE
   5
186
 100
AcDbEntity
   8
LEVEL001
 370
15
 100
AcDbLine
   6
CONTINUOUS
  62
8
  10
 147.24999999990
  20
 212.13557244448
  30
0.0
  11
 147.24999999990
  21
 202.33356191406
  31
0.0
   0
LINE
   5
187
 100
AcDbEntity
   8
LEVEL001
 370
15
 100
AcDbLine
   6
CONTINUOUS
  62
8
  10
 147.24999999990
  20
 196.08356191406
  30
0.0
  11
 147.24999999990
  21
 202.33356191406
  31
0.0
   0
SOLID
   5
188
 100
AcDbEntity
   8
LEVEL001
 100
AcDbTrace
   6
CONTINUOUS
  62
8
  10
 147.24999999990
  20
 204.83356191406
  30
0.0
  11
 147.77898094203
  21
 207.83356191406
  31
0.0
  12
 146.72101905777
  22
 207.83356191406
  32
0.0
  13
 146.72101905777
  23
 207.83356191406
  33
0.0
   0
SOLID
   5
189
 100
AcDbEntity
   8
LEVEL001
 100
AcDbTrace
   6
CONTINUOUS
  62
8
  10
 147.24999999990
  20
 199.83356191406
  30
0.0
  11
 146.72101905777
  21
 196.83356191406
  31
0.0
  12
 147.77898094203
  22
 196.83356191406
  32
0.0
  13
 147.77898094203
  23
 196.83356191406
  33
0.0
   0
MTEXT
   5
18A
 100
AcDbEntity
   8
LEVEL001
 370
15
  62
8
 100
AcDbMText
  10
 145.96514658352
  20
 208.13557244448
  30
0.0
  40
 4.0000000000000
  41
0.0
  71
7
  72
1
   1
\A1;5
   7
GMM001
  11
0.0
  21
 1.0000000000000
  31
0.0
   0
ENDBLK
   5
18B
 100
AcDbEntity
   8
0
 100
AcDbBlockEnd
   0
BLOCK
   5
18C
 100
AcDbEntity
   8
0
 100
AcDbBlockBegin
   2
*D26
  70
65
  10
0.0
  20
0.0
  30
0.0
   3
*D26
   0
LINE
   5
18D
 100
AcDbEntity
   8
LEVEL001
 370
15
 100
AcDbLine
   6
CONTINUOUS
  62
8
  10
 210.74999999990
  20
 184.83356191406
  30
0.0
  11
 200.74999999990
  21
 184.83356191406
  31
0.0
   0
LINE
   5
18E
 100
AcDbEntity
   8
LEVEL001
 370
15
 100
AcDbLine
   6
CONTINUOUS
  62
8
  10
 210.74999999990
  20
 204.83356191406
  30
0.0
  11
 200.74999999990
  21
 204.83356191406
  31
0.0
   0
LINE
   5
18F
 100
AcDbEntity
   8
LEVEL001
 370
15
 100
AcDbLine
   6
CONTINUOUS
  62
8
  10
 202.74999999990
  20
 184.83356191406
  30
0.0
  11
 202.74999999990
  21
 194.83356191406
  31
0.0
   0
LINE
   5
190
 100
AcDbEntity
   8
LEVEL001
 370
15
 100
AcDbLine
   6
CONTINUOUS
  62
8
  10
 202.74999999990
  20
 204.83356191406
  30
0.0
  11
 202.74999999990
  21
 194.83356191406
  31
0.0
   0
SOLID
   5
191
 100
AcDbEntity
   8
LEVEL001
 100
AcDbTrace
   6
CONTINUOUS
  62
8
  10
 202.74999999990
  20
 184.83356191406
  30
0.0
  11
 203.27898094203
  21
 187.83356191406
  31
0.0
  12
 202.22101905777
  22
 187.83356191406
  32
0.0
  13
 202.22101905777
  23
 187.83356191406
  33
0.0
   0
SOLID
   5
192
 100
AcDbEntity
   8
LEVEL001
 100
AcDbTrace
   6
CONTINUOUS
  62
8
  10
 202.74999999990
  20
 204.83356191406
  30
0.0
  11
 202.22101905777
  21
 201.83356191406
  31
0.0
  12
 203.27898094203
  22
 201.83356191406
  32
0.0
  13
 203.27898094203
  23
 201.83356191406
  33
0.0
   0
MTEXT
   5
193
 100
AcDbEntity
   8
LEVEL001
 370
15
  62
8
 100
AcDbMText
  10
 201.74999999990
  20
 194.83356191406
  30
0.0
  40
 4.0000000000000
  41
0.0
  71
8
  72
1
   1
\A1;20
   7
GMM001
  11
0.0
  21
 1.0000000000000
  31
0.0
   0
ENDBLK
   5
194
 100
AcDbEntity
   8
0
 100
AcDbBlockEnd
   0
BLOCK
   5
195
 100
AcDbEntity
   8
0
 100
AcDbBlockBegin
   2
*D28
  70
65
  10
0.0
  20
0.0
  30
0.0
   3
*D28
   0
LINE
   5
196
 100
AcDbEntity
   8
LEVEL001
 370
15
 100
AcDbLine
   6
CONTINUOUS
  62
8
  10
 212.74999999990
  20
 204.83356191406
  30
0.0
  11
 212.74999999990
  21
 216.83356191406
  31
0.0
   0
LINE
   5
197
 100
AcDbEntity
   8
LEVEL001
 370
15
 100
AcDbLine
   6
CONTINUOUS
  62
8
  10
 212.74999999990
  20
 214.83356191406
  30
0.0
  11
 221.49999999990
  21
 214.83356191406
  31
0.0
   0
LINE
   5
198
 100
AcDbEntity
   8
LEVEL001
 370
15
 100
AcDbLine
   6
CONTINUOUS
  62
8
  10
 230.24999999990
  20
 214.83356191406
  30
0.0
  11
 221.49999999990
  21
 214.83356191406
  31
0.0
   0
SOLID
   5
199
 100
AcDbEntity
   8
LEVEL001
 100
AcDbTrace
   6
CONTINUOUS
  62
8
  10
 212.74999999990
  20
 214.83356191406
  30
0.0
  11
 215.74999999990
  21
 214.30458097194
  31
0.0
  12
 215.74999999990
  22
 215.36254285619
  32
0.0
  13
 215.74999999990
  23
 215.36254285619
  33
0.0
   0
SOLID
   5
19A
 100
AcDbEntity
   8
LEVEL001
 100
AcDbTrace
   6
CONTINUOUS
  62
8
  10
 230.24999999990
  20
 214.83356191406
  30
0.0
  11
 227.24999999990
  21
 215.36254285619
  31
0.0
  12
 227.24999999990
  22
 214.30458097194
  32
0.0
  13
 227.24999999990
  23
 214.30458097194
  33
0.0
   0
MTEXT
   5
19B
 100
AcDbEntity
   8
LEVEL001
 370
15
  62
8
 100
AcDbMText
  10
 221.49999999990
  20
 215.83356191406
  30
0.0
  40
 4.0000000000000
  41
0.0
  71
8
  72
1
   1
\A1;17.5
   7
GMM001
   0
ENDBLK
   5
19C
 100
AcDbEntity
   8
0
 100
AcDbBlockEnd
   0
BLOCK
   5
19D
 100
AcDbEntity
   8
0
 100
AcDbBlockBegin
   2
*D29
  70
65
  10
0.0
  20
0.0
  30
0.0
   3
*D29
   0
LINE
   5
19E
 100
AcDbEntity
   8
LEVEL001
 370
15
 100
AcDbLine
   6
CONTINUOUS
  62
8
  10
 230.24999999990
  20
 209.10173427293
  30
0.0
  11
 230.24999999990
  21
 216.83356191406
  31
0.0
   0
LINE
   5
19F
 100
AcDbEntity
   8
LEVEL001
 370
15
 100
AcDbLine
   6
CONTINUOUS
  62
8
  10
 230.24999999990
  20
 214.83356191406
  30
0.0
  11
 247.74999999990
  21
 214.83356191406
  31
0.0
   0
LINE
   5
1A0
 100
AcDbEntity
   8
LEVEL001
 370
15
 100
AcDbLine
   6
CONTINUOUS
  62
8
  10
 265.24999999990
  20
 214.83356191406
  30
0.0
  11
 247.74999999990
  21
 214.83356191406
  31
0.0
   0
SOLID
   5
1A1
 100
AcDbEntity
   8
LEVEL001
 100
AcDbTrace
   6
CONTINUOUS
  62
8
  10
 230.24999999990
  20
 214.83356191406
  30
0.0
  11
 233.24999999990
  21
 214.30458097194
  31
0.0
  12
 233.24999999990
  22
 215.36254285619
  32
0.0
  13
 233.24999999990
  23
 215.36254285619
  33
0.0
   0
SOLID
   5
1A2
 100
AcDbEntity
   8
LEVEL001
 100
AcDbTrace
   6
CONTINUOUS
  62
8
  10
 265.24999999990
  20
 214.83356191406
  30
0.0
  11
 262.24999999990
  21
 215.36254285619
  31
0.0
  12
 262.24999999990
  22
 214.30458097194
  32
0.0
  13
 262.24999999990
  23
 214.30458097194
  33
0.0
   0
MTEXT
   5
1A3
 100
AcDbEntity
   8
LEVEL001
 370
15
  62
8
 100
AcDbMText
  10
 247.74999999990
  20
 215.83356191406
  30
0.0
  40
 4.0000000000000
  41
0.0
  71
8
  72
1
   1
\A1;35
   7
GMM001
   0
ENDBLK
   5
1A4
 100
AcDbEntity
   8
0
 100
AcDbBlockEnd
   0
BLOCK
   5
1A5
 100
AcDbEntity
   8
0
 100
AcDbBlockBegin
   2
*D30
  70
65
  10
0.0
  20
0.0
  30
0.0
   3
*D30
   0
LINE
   5
1A6
 100
AcDbEntity
   8
LEVEL001
 370
15
 100
AcDbLine
   6
CONTINUOUS
  62
8
  10
 265.24999999990
  20
 209.10173427293
  30
0.0
  11
 265.24999999990
  21
 216.83356191406
  31
0.0
   0
LINE
   5
1A7
 100
AcDbEntity
   8
LEVEL001
 370
15
 100
AcDbLine
   6
CONTINUOUS
  62
8
  10
 282.74999999990
  20
 204.22510182342
  30
0.0
  11
 282.74999999990
  21
 216.83356191406
  31
0.0
   0
LINE
   5
1A8
 100
AcDbEntity
   8
LEVEL001
 370
15
 100
AcDbLine
   6
CONTINUOUS
  62
8
  10
 265.24999999990
  20
 214.83356191406
  30
0.0
  11
 273.99999999990
  21
 214.83356191406
  31
0.0
   0
LINE
   5
1A9
 100
AcDbEntity
   8
LEVEL001
 370
15
 100
AcDbLine
   6
CONTINUOUS
  62
8
  10
 282.74999999990
  20
 214.83356191406
  30
0.0
  11
 273.99999999990
  21
 214.83356191406
  31
0.0
   0
SOLID
   5
1AA
 100
AcDbEntity
   8
LEVEL001
 100
AcDbTrace
   6
CONTINUOUS
  62
8
  10
 265.24999999990
  20
 214.83356191406
  30
0.0
  11
 268.24999999990
  21
 214.30458097194
  31
0.0
  12
 268.24999999990
  22
 215.36254285619
  32
0.0
  13
 268.24999999990
  23
 215.36254285619
  33
0.0
   0
SOLID
   5
1AB
 100
AcDbEntity
   8
LEVEL001
 100
AcDbTrace
   6
CONTINUOUS
  62
8
  10
 282.74999999990
  20
 214.83356191406
  30
0.0
  11
 279.74999999990
  21
 215.36254285619
  31
0.0
  12
 279.74999999990
  22
 214.30458097194
  32
0.0
  13
 279.74999999990
  23
 214.30458097194
  33
0.0
   0
MTEXT
   5
1AC
 100
AcDbEntity
   8
LEVEL001
 370
15
  62
8
 100
AcDbMText
  10
 273.99999999990
  20
 215.83356191406
  30
0.0
  40
 4.0000000000000
  41
0.0
  71
8
  72
1
   1
\A1;17.5
   7
GMM001
   0
ENDBLK
   5
1AD
 100
AcDbEntity
   8
0
 100
AcDbBlockEnd
   0
BLOCK
   5
1AE
 100
AcDbEntity
   8
0
 100
AcDbBlockBegin
   2
*D31
  70
65
  10
0.0
  20
0.0
  30
0.0
   3
*D31
   0
LINE
   5
1AF
 100
AcDbEntity
   8
LEVEL001
 370
15
 100
AcDbLine
   6
CONTINUOUS
  62
8
  10
 212.74999999990
  20
 216.83356191406
  30
0.0
  11
 212.74999999990
  21
 226.83356191406
  31
0.0
   0
LINE
   5
1B0
 100
AcDbEntity
   8
LEVEL001
 370
15
 100
AcDbLine
   6
CONTINUOUS
  62
8
  10
 282.74999999990
  20
 216.83356191406
  30
0.0
  11
 282.74999999990
  21
 226.83356191406
  31
0.0
   0
LINE
   5
1B1
 100
AcDbEntity
   8
LEVEL001
 370
15
 100
AcDbLine
   6
CONTINUOUS
  62
8
  10
 212.74999999990
  20
 224.83356191406
  30
0.0
  11
 247.74999999990
  21
 224.83356191406
  31
0.0
   0
LINE
   5
1B2
 100
AcDbEntity
   8
LEVEL001
 370
15
 100
AcDbLine
   6
CONTINUOUS
  62
8
  10
 282.74999999990
  20
 224.83356191406
  30
0.0
  11
 247.74999999990
  21
 224.83356191406
  31
0.0
   0
SOLID
   5
1B3
 100
AcDbEntity
   8
LEVEL001
 100
AcDbTrace
   6
CONTINUOUS
  62
8
  10
 212.74999999990
  20
 224.83356191406
  30
0.0
  11
 215.74999999990
  21
 224.30458097194
  31
0.0
  12
 215.74999999990
  22
 225.36254285619
  32
0.0
  13
 215.74999999990
  23
 225.36254285619
  33
0.0
   0
SOLID
   5
1B4
 100
AcDbEntity
   8
LEVEL001
 100
AcDbTrace
   6
CONTINUOUS
  62
8
  10
 282.74999999990
  20
 224.83356191406
  30
0.0
  11
 279.74999999990
  21
 225.36254285619
  31
0.0
  12
 279.74999999990
  22
 224.30458097194
  32
0.0
  13
 279.74999999990
  23
 224.30458097194
  33
0.0
   0
MTEXT
   5
1B5
 100
AcDbEntity
   8
LEVEL001
 370
15
  62
8
 100
AcDbMText
  10
 247.74999999990
  20
 225.83356191406
  30
0.0
  40
 4.0000000000000
  41
0.0
  71
8
  72
1
   1
\A1;70
   7
GMM001
   0
ENDBLK
   5
1B6
 100
AcDbEntity
   8
0
 100
AcDbBlockEnd
   0
BLOCK
   5
1B7
 100
AcDbEntity
   8
0
 100
AcDbBlockBegin
   2
*D32
  70
65
  10
0.0
  20
0.0
  30
0.0
   3
*D32
   0
LINE
   5
1B8
 100
AcDbEntity
   8
LEVEL001
 370
15
 100
AcDbLine
   6
CONTINUOUS
  62
8
  10
 282.74999999990
  20
 204.83356191406
  30
0.0
  11
 294.74999999990
  21
 204.83356191406
  31
0.0
   0
LINE
   5
1B9
 100
AcDbEntity
   8
LEVEL001
 370
15
 100
AcDbLine
   6
CONTINUOUS
  62
8
  10
 271.42157287515
  20
 199.83356191406
  30
0.0
  11
 294.74999999990
  21
 199.83356191406
  31
0.0
   0
LINE
   5
1BA
 100
AcDbEntity
   8
LEVEL001
 370
15
 100
AcDbLine
   6
CONTINUOUS
  62
8
  10
 292.74999999990
  20
 212.42964094908
  30
0.0
  11
 292.74999999990
  21
 202.33356191406
  31
0.0
   0
LINE
   5
1BB
 100
AcDbEntity
   8
LEVEL001
 370
15
 100
AcDbLine
   6
CONTINUOUS
  62
8
  10
 292.74999999990
  20
 196.08356191406
  30
0.0
  11
 292.74999999990
  21
 202.33356191406
  31
0.0
   0
SOLID
   5
1BC
 100
AcDbEntity
   8
LEVEL001
 100
AcDbTrace
   6
CONTINUOUS
  62
8
  10
 292.74999999990
  20
 204.83356191406
  30
0.0
  11
 293.27898094203
  21
 207.83356191406
  31
0.0
  12
 292.22101905777
  22
 207.83356191406
  32
0.0
  13
 292.22101905777
  23
 207.83356191406
  33
0.0
   0
SOLID
   5
1BD
 100
AcDbEntity
   8
LEVEL001
 100
AcDbTrace
   6
CONTINUOUS
  62
8
  10
 292.74999999990
  20
 199.83356191406
  30
0.0
  11
 292.22101905777
  21
 196.83356191406
  31
0.0
  12
 293.27898094203
  22
 196.83356191406
  32
0.0
  13
 293.27898094203
  23
 196.83356191406
  33
0.0
   0
MTEXT
   5
1BE
 100
AcDbEntity
   8
LEVEL001
 370
15
  62
8
 100
AcDbMText
  10
 291.70435571976
  20
 208.42964094908
  30
0.0
  40
 4.0000000000000
  41
0.0
  71
7
  72
1
   1
\A1;5
   7
GMM001
  11
0.0
  21
 1.0000000000000
  31
0.0
   0
ENDBLK
   5
1BF
 100
AcDbEntity
   8
0
 100
AcDbBlockEnd
   0
BLOCK
   5
1C0
 100
AcDbEntity
   8
0
 100
AcDbBlockBegin
   2
*D33
  70
65
  10
0.0
  20
0.0
  30
0.0
   3
*D33
   0
LINE
   5
1C1
 100
AcDbEntity
   8
LEVEL001
 370
15
 100
AcDbLine
   6
CONTINUOUS
  62
8
  10
 340.24999999990
  20
 321.33356191406
  30
0.0
  11
 330.24999999990
  21
 321.33356191406
  31
0.0
   0
LINE
   5
1C2
 100
AcDbEntity
   8
LEVEL001
 370
15
 100
AcDbLine
   6
CONTINUOUS
  62
8
  10
 340.24999999990
  20
 341.33356191406
  30
0.0
  11
 330.24999999990
  21
 341.33356191406
  31
0.0
   0
LINE
   5
1C3
 100
AcDbEntity
   8
LEVEL001
 370
15
 100
AcDbLine
   6
CONTINUOUS
  62
8
  10
 332.24999999990
  20
 321.33356191406
  30
0.0
  11
 332.24999999990
  21
 331.33356191406
  31
0.0
   0
LINE
   5
1C4
 100
AcDbEntity
   8
LEVEL001
 370
15
 100
AcDbLine
   6
CONTINUOUS
  62
8
  10
 332.24999999990
  20
 341.33356191406
  30
0.0
  11
 332.24999999990
  21
 331.33356191406
  31
0.0
   0
SOLID
   5
1C5
 100
AcDbEntity
   8
LEVEL001
 100
AcDbTrace
   6
CONTINUOUS
  62
8
  10
 332.24999999990
  20
 321.33356191406
  30
0.0
  11
 332.77898094203
  21
 324.33356191406
  31
0.0
  12
 331.72101905777
  22
 324.33356191406
  32
0.0
  13
 331.72101905777
  23
 324.33356191406
  33
0.0
   0
SOLID
   5
1C6
 100
AcDbEntity
   8
LEVEL001
 100
AcDbTrace
   6
CONTINUOUS
  62
8
  10
 332.24999999990
  20
 341.33356191406
  30
0.0
  11
 331.72101905777
  21
 338.33356191406
  31
0.0
  12
 332.77898094203
  22
 338.33356191406
  32
0.0
  13
 332.77898094203
  23
 338.33356191406
  33
0.0
   0
MTEXT
   5
1C7
 100
AcDbEntity
   8
LEVEL001
 370
15
  62
8
 100
AcDbMText
  10
 331.24999999990
  20
 331.33356191406
  30
0.0
  40
 4.0000000000000
  41
0.0
  71
8
  72
1
   1
\A1;20
   7
GMM001
  11
0.0
  21
 1.0000000000000
  31
0.0
   0
ENDBLK
   5
1C8
 100
AcDbEntity
   8
0
 100
AcDbBlockEnd
   0
BLOCK
   5
1C9
 100
AcDbEntity
   8
0
 100
AcDbBlockBegin
   2
*D35
  70
65
  10
0.0
  20
0.0
  30
0.0
   3
*D35
   0
LINE
   5
1CA
 100
AcDbEntity
   8
LEVEL001
 370
15
 100
AcDbLine
   6
CONTINUOUS
  62
8
  10
 342.24999999990
  20
 353.33356191406
  30
0.0
  11
 342.24999999990
  21
 363.33356191406
  31
0.0
   0
LINE
   5
1CB
 100
AcDbEntity
   8
LEVEL001
 370
15
 100
AcDbLine
   6
CONTINUOUS
  62
8
  10
 442.24999999990
  20
 353.33356191406
  30
0.0
  11
 442.24999999990
  21
 363.33356191406
  31
0.0
   0
LINE
   5
1CC
 100
AcDbEntity
   8
LEVEL001
 370
15
 100
AcDbLine
   6
CONTINUOUS
  62
8
  10
 342.24999999990
  20
 361.33356191406
  30
0.0
  11
 392.24999999990
  21
 361.33356191406
  31
0.0
   0
LINE
   5
1CD
 100
AcDbEntity
   8
LEVEL001
 370
15
 100
AcDbLine
   6
CONTINUOUS
  62
8
  10
 442.24999999990
  20
 361.33356191406
  30
0.0
  11
 392.24999999990
  21
 361.33356191406
  31
0.0
   0
SOLID
   5
1CE
 100
AcDbEntity
   8
LEVEL001
 100
AcDbTrace
   6
CONTINUOUS
  62
8
  10
 342.24999999990
  20
 361.33356191406
  30
0.0
  11
 345.24999999990
  21
 360.80458097194
  31
0.0
  12
 345.24999999990
  22
 361.86254285619
  32
0.0
  13
 345.24999999990
  23
 361.86254285619
  33
0.0
   0
SOLID
   5
1CF
 100
AcDbEntity
   8
LEVEL001
 100
AcDbTrace
   6
CONTINUOUS
  62
8
  10
 442.24999999990
  20
 361.33356191406
  30
0.0
  11
 439.24999999990
  21
 361.86254285619
  31
0.0
  12
 439.24999999990
  22
 360.80458097194
  32
0.0
  13
 439.24999999990
  23
 360.80458097194
  33
0.0
   0
MTEXT
   5
1D0
 100
AcDbEntity
   8
LEVEL001
 370
15
  62
8
 100
AcDbMText
  10
 392.24999999990
  20
 362.33356191406
  30
0.0
  40
 4.0000000000000
  41
0.0
  71
8
  72
1
   1
\A1;100
   7
GMM001
   0
ENDBLK
   5
1D1
 100
AcDbEntity
   8
0
 100
AcDbBlockEnd
   0
BLOCK
   5
1D2
 100
AcDbEntity
   8
0
 100
AcDbBlockBegin
   2
*D36
  70
65
  10
0.0
  20
0.0
  30
0.0
   3
*D36
   0
LINE
   5
1D3
 100
AcDbEntity
   8
LEVEL001
 370
15
 100
AcDbLine
   6
CONTINUOUS
  62
8
  10
 419.92157287515
  20
 336.33356191406
  30
0.0
  11
 454.24999999990
  21
 336.33356191406
  31
0.0
   0
LINE
   5
1D4
 100
AcDbEntity
   8
LEVEL001
 370
15
 100
AcDbLine
   6
CONTINUOUS
  62
8
  10
 442.42157287516
  20
 341.33356191406
  30
0.0
  11
 454.24999999990
  21
 341.33356191406
  31
0.0
   0
LINE
   5
1D5
 100
AcDbEntity
   8
LEVEL001
 370
15
 100
AcDbLine
   6
CONTINUOUS
  62
8
  10
 452.24999999990
  20
 332.58356191406
  30
0.0
  11
 452.24999999990
  21
 338.83356191406
  31
0.0
   0
LINE
   5
1D6
 100
AcDbEntity
   8
LEVEL001
 370
15
 100
AcDbLine
   6
CONTINUOUS
  62
8
  10
 452.24999999990
  20
 348.34150393988
  30
0.0
  11
 452.24999999990
  21
 338.83356191406
  31
0.0
   0
SOLID
   5
1D7
 100
AcDbEntity
   8
LEVEL001
 100
AcDbTrace
   6
CONTINUOUS
  62
8
  10
 452.24999999990
  20
 336.33356191406
  30
0.0
  11
 451.72101905777
  21
 333.33356191406
  31
0.0
  12
 452.77898094203
  22
 333.33356191406
  32
0.0
  13
 452.77898094203
  23
 333.33356191406
  33
0.0
   0
SOLID
   5
1D8
 100
AcDbEntity
   8
LEVEL001
 100
AcDbTrace
   6
CONTINUOUS
  62
8
  10
 452.24999999990
  20
 341.33356191406
  30
0.0
  11
 452.77898094203
  21
 344.33356191406
  31
0.0
  12
 451.72101905777
  22
 344.33356191406
  32
0.0
  13
 451.72101905777
  23
 344.33356191406
  33
0.0
   0
MTEXT
   5
1D9
 100
AcDbEntity
   8
LEVEL001
 370
15
  62
8
 100
AcDbMText
  10
 451.27292342637
  20
 344.34150393988
  30
0.0
  40
 4.0000000000000
  41
0.0
  71
7
  72
1
   1
\A1;5
   7
GMM001
  11
0.0
  21
 1.0000000000000
  31
0.0
   0
ENDBLK
   5
1DA
 100
AcDbEntity
   8
0
 100
AcDbBlockEnd
   0
BLOCK
   5
1DB
 100
AcDbEntity
   8
0
 100
AcDbBlockBegin
   2
*D37
  70
65
  10
0.0
  20
0.0
  30
0.0
   3
*D37
   0
LINE
   5
1DC
 100
AcDbEntity
   8
LEVEL001
 370
15
 100
AcDbLine
   6
CONTINUOUS
  62
8
  10
 195.74999999990
  20
 321.33356191406
  30
0.0
  11
 185.74999999990
  21
 321.33356191406
  31
0.0
   0
LINE
   5
1DD
 100
AcDbEntity
   8
LEVEL001
 370
15
 100
AcDbLine
   6
CONTINUOUS
  62
8
  10
 195.74999999990
  20
 341.33356191406
  30
0.0
  11
 185.74999999990
  21
 341.33356191406
  31
0.0
   0
LINE
   5
1DE
 100
AcDbEntity
   8
LEVEL001
 370
15
 100
AcDbLine
   6
CONTINUOUS
  62
8
  10
 187.74999999990
  20
 321.33356191406
  30
0.0
  11
 187.74999999990
  21
 331.33356191406
  31
0.0
   0
LINE
   5
1DF
 100
AcDbEntity
   8
LEVEL001
 370
15
 100
AcDbLine
   6
CONTINUOUS
  62
8
  10
 187.74999999990
  20
 341.33356191406
  30
0.0
  11
 187.74999999990
  21
 331.33356191406
  31
0.0
   0
SOLID
   5
1E0
 100
AcDbEntity
   8
LEVEL001
 100
AcDbTrace
   6
CONTINUOUS
  62
8
  10
 187.74999999990
  20
 321.33356191406
  30
0.0
  11
 188.27898094203
  21
 324.33356191406
  31
0.0
  12
 187.22101905777
  22
 324.33356191406
  32
0.0
  13
 187.22101905777
  23
 324.33356191406
  33
0.0
   0
SOLID
   5
1E1
 100
AcDbEntity
   8
LEVEL001
 100
AcDbTrace
   6
CONTINUOUS
  62
8
  10
 187.74999999990
  20
 341.33356191406
  30
0.0
  11
 187.22101905777
  21
 338.33356191406
  31
0.0
  12
 188.27898094203
  22
 338.33356191406
  32
0.0
  13
 188.27898094203
  23
 338.33356191406
  33
0.0
   0
MTEXT
   5
1E2
 100
AcDbEntity
   8
LEVEL001
 370
15
  62
8
 100
AcDbMText
  10
 186.74999999990
  20
 331.33356191406
  30
0.0
  40
 4.0000000000000
  41
0.0
  71
8
  72
1
   1
\A1;20
   7
GMM001
  11
0.0
  21
 1.0000000000000
  31
0.0
   0
ENDBLK
   5
1E3
 100
AcDbEntity
   8
0
 100
AcDbBlockEnd
   0
BLOCK
   5
1E4
 100
AcDbEntity
   8
0
 100
AcDbBlockBegin
   2
*D39
  70
65
  10
0.0
  20
0.0
  30
0.0
   3
*D39
   0
LINE
   5
1E5
 100
AcDbEntity
   8
LEVEL001
 370
15
 100
AcDbLine
   6
CONTINUOUS
  62
8
  10
 197.74999999990
  20
 353.33356191406
  30
0.0
  11
 197.74999999990
  21
 363.33356191406
  31
0.0
   0
LINE
   5
1E6
 100
AcDbEntity
   8
LEVEL001
 370
15
 100
AcDbLine
   6
CONTINUOUS
  62
8
  10
 297.74999999990
  20
 353.33356191406
  30
0.0
  11
 297.74999999990
  21
 363.33356191406
  31
0.0
   0
LINE
   5
1E7
 100
AcDbEntity
   8
LEVEL001
 370
15
 100
AcDbLine
   6
CONTINUOUS
  62
8
  10
 197.74999999990
  20
 361.33356191406
  30
0.0
  11
 247.74999999990
  21
 361.33356191406
  31
0.0
   0
LINE
   5
1E8
 100
AcDbEntity
   8
LEVEL001
 370
15
 100
AcDbLine
   6
CONTINUOUS
  62
8
  10
 297.74999999990
  20
 361.33356191406
  30
0.0
  11
 247.74999999990
  21
 361.33356191406
  31
0.0
   0
SOLID
   5
1E9
 100
AcDbEntity
   8
LEVEL001
 100
AcDbTrace
   6
CONTINUOUS
  62
8
  10
 197.74999999990
  20
 361.33356191406
  30
0.0
  11
 200.74999999990
  21
 360.80458097194
  31
0.0
  12
 200.74999999990
  22
 361.86254285619
  32
0.0
  13
 200.74999999990
  23
 361.86254285619
  33
0.0
   0
SOLID
   5
1EA
 100
AcDbEntity
   8
LEVEL001
 100
AcDbTrace
   6
CONTINUOUS
  62
8
  10
 297.74999999990
  20
 361.33356191406
  30
0.0
  11
 294.74999999990
  21
 361.86254285619
  31
0.0
  12
 294.74999999990
  22
 360.80458097194
  32
0.0
  13
 294.74999999990
  23
 360.80458097194
  33
0.0
   0
MTEXT
   5
1EB
 100
AcDbEntity
   8
LEVEL001
 370
15
  62
8
 100
AcDbMText
  10
 247.74999999990
  20
 362.33356191406
  30
0.0
  40
 4.0000000000000
  41
0.0
  71
8
  72
1
   1
\A1;100
   7
GMM001
   0
ENDBLK
   5
1EC
 100
AcDbEntity
   8
0
 100
AcDbBlockEnd
   0
BLOCK
   5
1ED
 100
AcDbEntity
   8
0
 100
AcDbBlockBegin
   2
*D40
  70
65
  10
0.0
  20
0.0
  30
0.0
   3
*D40
   0
LINE
   5
1EE
 100
AcDbEntity
   8
LEVEL001
 370
15
 100
AcDbLine
   6
CONTINUOUS
  62
8
  10
 51.249999999899
  20
 321.33356191406
  30
0.0
  11
 41.249999999900
  21
 321.33356191406
  31
0.0
   0
LINE
   5
1EF
 100
AcDbEntity
   8
LEVEL001
 370
15
 100
AcDbLine
   6
CONTINUOUS
  62
8
  10
 51.249999999900
  20
 341.33356191406
  30
0.0
  11
 41.249999999900
  21
 341.33356191406
  31
0.0
   0
LINE
   5
1F0
 100
AcDbEntity
   8
LEVEL001
 370
15
 100
AcDbLine
   6
CONTINUOUS
  62
8
  10
 43.249999999900
  20
 321.33356191406
  30
0.0
  11
 43.249999999900
  21
 331.33356191406
  31
0.0
   0
LINE
   5
1F1
 100
AcDbEntity
   8
LEVEL001
 370
15
 100
AcDbLine
   6
CONTINUOUS
  62
8
  10
 43.249999999900
  20
 341.33356191406
  30
0.0
  11
 43.249999999900
  21
 331.33356191406
  31
0.0
   0
SOLID
   5
1F2
 100
AcDbEntity
   8
LEVEL001
 100
AcDbTrace
   6
CONTINUOUS
  62
8
  10
 43.249999999900
  20
 321.33356191406
  30
0.0
  11
 43.778980942025
  21
 324.33356191406
  31
0.0
  12
 42.721019057774
  22
 324.33356191406
  32
0.0
  13
 42.721019057774
  23
 324.33356191406
  33
0.0
   0
SOLID
   5
1F3
 100
AcDbEntity
   8
LEVEL001
 100
AcDbTrace
   6
CONTINUOUS
  62
8
  10
 43.249999999900
  20
 341.33356191406
  30
0.0
  11
 42.721019057774
  21
 338.33356191406
  31
0.0
  12
 43.778980942025
  22
 338.33356191406
  32
0.0
  13
 43.778980942025
  23
 338.33356191406
  33
0.0
   0
MTEXT
   5
1F4
 100
AcDbEntity
   8
LEVEL001
 370
15
  62
8
 100
AcDbMText
  10
 42.249999999900
  20
 331.33356191406
  30
0.0
  40
 4.0000000000000
  41
0.0
  71
8
  72
1
   1
\A1;20
   7
GMM001
  11
0.0
  21
 1.0000000000000
  31
0.0
   0
ENDBLK
   5
1F5
 100
AcDbEntity
   8
0
 100
AcDbBlockEnd
   0
BLOCK
   5
1F6
 100
AcDbEntity
   8
0
 100
AcDbBlockBegin
   2
*D42
  70
65
  10
0.0
  20
0.0
  30
0.0
   3
*D42
   0
LINE
   5
1F7
 100
AcDbEntity
   8
LEVEL001
 370
15
 100
AcDbLine
   6
CONTINUOUS
  62
8
  10
 53.249999999900
  20
 353.33356191406
  30
0.0
  11
 53.249999999900
  21
 363.33356191406
  31
0.0
   0
LINE
   5
1F8
 100
AcDbEntity
   8
LEVEL001
 370
15
 100
AcDbLine
   6
CONTINUOUS
  62
8
  10
 153.24999999990
  20
 353.33356191406
  30
0.0
  11
 153.24999999990
  21
 363.33356191406
  31
0.0
   0
LINE
   5
1F9
 100
AcDbEntity
   8
LEVEL001
 370
15
 100
AcDbLine
   6
CONTINUOUS
  62
8
  10
 53.249999999900
  20
 361.33356191406
  30
0.0
  11
 103.24999999990
  21
 361.33356191406
  31
0.0
   0
LINE
   5
1FA
 100
AcDbEntity
   8
LEVEL001
 370
15
 100
AcDbLine
   6
CONTINUOUS
  62
8
  10
 153.24999999990
  20
 361.33356191406
  30
0.0
  11
 103.24999999990
  21
 361.33356191406
  31
0.0
   0
SOLID
   5
1FB
 100
AcDbEntity
   8
LEVEL001
 100
AcDbTrace
   6
CONTINUOUS
  62
8
  10
 53.249999999900
  20
 361.33356191406
  30
0.0
  11
 56.249999999900
  21
 360.80458097194
  31
0.0
  12
 56.249999999900
  22
 361.86254285619
  32
0.0
  13
 56.249999999900
  23
 361.86254285619
  33
0.0
   0
SOLID
   5
1FC
 100
AcDbEntity
   8
LEVEL001
 100
AcDbTrace
   6
CONTINUOUS
  62
8
  10
 153.24999999990
  20
 361.33356191406
  30
0.0
  11
 150.24999999990
  21
 361.86254285619
  31
0.0
  12
 150.24999999990
  22
 360.80458097194
  32
0.0
  13
 150.24999999990
  23
 360.80458097194
  33
0.0
   0
MTEXT
   5
1FD
 100
AcDbEntity
   8
LEVEL001
 370
15
  62
8
 100
AcDbMText
  10
 103.24999999990
  20
 362.33356191406
  30
0.0
  40
 4.0000000000000
  41
0.0
  71
8
  72
1
   1
\A1;100
   7
GMM001
   0
ENDBLK
   5
1FE
 100
AcDbEntity
   8
0
 100
AcDbBlockEnd
   0
BLOCK
   5
1FF
 100
AcDbEntity
   8
0
 100
AcDbBlockBegin
   2
*D43
  70
65
  10
0.0
  20
0.0
  30
0.0
   3
*D43
   0
LINE
   5
200
 100
AcDbEntity
   8
LEVEL001
 370
15
 100
AcDbLine
   6
CONTINUOUS
  62
8
  10
 125.92157287515
  20
 336.33356191406
  30
0.0
  11
 165.24999999990
  21
 336.33356191406
  31
0.0
   0
LINE
   5
201
 100
AcDbEntity
   8
LEVEL001
 370
15
 100
AcDbLine
   6
CONTINUOUS
  62
8
  10
 153.42157287516
  20
 341.33356191406
  30
0.0
  11
 165.24999999990
  21
 341.33356191406
  31
0.0
   0
LINE
   5
202
 100
AcDbEntity
   8
LEVEL001
 370
15
 100
AcDbLine
   6
CONTINUOUS
  62
8
  10
 163.24999999990
  20
 332.58356191406
  30
0.0
  11
 163.24999999990
  21
 338.83356191406
  31
0.0
   0
LINE
   5
203
 100
AcDbEntity
   8
LEVEL001
 370
15
 100
AcDbLine
   6
CONTINUOUS
  62
8
  10
 163.24999999990
  20
 348.34150393988
  30
0.0
  11
 163.24999999990
  21
 338.83356191406
  31
0.0
   0
SOLID
   5
204
 100
AcDbEntity
   8
LEVEL001
 100
AcDbTrace
   6
CONTINUOUS
  62
8
  10
 163.24999999990
  20
 336.33356191406
  30
0.0
  11
 162.72101905777
  21
 333.33356191406
  31
0.0
  12
 163.77898094203
  22
 333.33356191406
  32
0.0
  13
 163.77898094203
  23
 333.33356191406
  33
0.0
   0
SOLID
   5
205
 100
AcDbEntity
   8
LEVEL001
 100
AcDbTrace
   6
CONTINUOUS
  62
8
  10
 163.24999999990
  20
 341.33356191406
  30
0.0
  11
 163.77898094203
  21
 344.33356191406
  31
0.0
  12
 162.72101905777
  22
 344.33356191406
  32
0.0
  13
 162.72101905777
  23
 344.33356191406
  33
0.0
   0
MTEXT
   5
206
 100
AcDbEntity
   8
LEVEL001
 370
15
  62
8
 100
AcDbMText
  10
 162.27292342637
  20
 344.34150393988
  30
0.0
  40
 4.0000000000000
  41
0.0
  71
7
  72
1
   1
\A1;5
   7
GMM001
  11
0.0
  21
 1.0000000000000
  31
0.0
   0
ENDBLK
   5
207
 100
AcDbEntity
   8
0
 100
AcDbBlockEnd
   0
BLOCK
   5
208
 100
AcDbEntity
   8
0
 100
AcDbBlockBegin
   2
*D44
  70
65
  10
0.0
  20
0.0
  30
0.0
   3
*D44
   0
LINE
   5
209
 100
AcDbEntity
   8
LEVEL001
 370
15
 100
AcDbLine
   6
CONTINUOUS
  62
8
  10
 53.249999999900
  20
 341.33356191406
  30
0.0
  11
 53.249999999900
  21
 353.33356191406
  31
0.0
   0
LINE
   5
20A
 100
AcDbEntity
   8
LEVEL001
 370
15
 100
AcDbLine
   6
CONTINUOUS
  62
8
  10
 53.249999999900
  20
 351.33356191406
  30
0.0
  11
 69.999999999900
  21
 351.33356191406
  31
0.0
   0
LINE
   5
20B
 100
AcDbEntity
   8
LEVEL001
 370
15
 100
AcDbLine
   6
CONTINUOUS
  62
8
  10
 86.749999999900
  20
 351.33356191406
  30
0.0
  11
 69.999999999900
  21
 351.33356191406
  31
0.0
   0
SOLID
   5
20C
 100
AcDbEntity
   8
LEVEL001
 100
AcDbTrace
   6
CONTINUOUS
  62
8
  10
 53.249999999900
  20
 351.33356191406
  30
0.0
  11
 56.249999999900
  21
 350.80458097194
  31
0.0
  12
 56.249999999900
  22
 351.86254285619
  32
0.0
  13
 56.249999999900
  23
 351.86254285619
  33
0.0
   0
SOLID
   5
20D
 100
AcDbEntity
   8
LEVEL001
 100
AcDbTrace
   6
CONTINUOUS
  62
8
  10
 86.749999999900
  20
 351.33356191406
  30
0.0
  11
 83.749999999900
  21
 351.86254285619
  31
0.0
  12
 83.749999999900
  22
 350.80458097194
  32
0.0
  13
 83.749999999900
  23
 350.80458097194
  33
0.0
   0
MTEXT
   5
20E
 100
AcDbEntity
   8
LEVEL001
 370
15
  62
8
 100
AcDbMText
  10
 69.999999999900
  20
 352.33356191406
  30
0.0
  40
 4.0000000000000
  41
0.0
  71
8
  72
1
   1
\A1;33.5
   7
GMM001
   0
ENDBLK
   5
20F
 100
AcDbEntity
   8
0
 100
AcDbBlockEnd
   0
BLOCK
   5
210
 100
AcDbEntity
   8
0
 100
AcDbBlockBegin
   2
*D45
  70
65
  10
0.0
  20
0.0
  30
0.0
   3
*D45
   0
LINE
   5
211
 100
AcDbEntity
   8
LEVEL001
 370
15
 100
AcDbLine
   6
CONTINUOUS
  62
8
  10
 86.749999999900
  20
 345.60173427293
  30
0.0
  11
 86.749999999900
  21
 353.33356191406
  31
0.0
   0
LINE
   5
212
 100
AcDbEntity
   8
LEVEL001
 370
15
 100
AcDbLine
   6
CONTINUOUS
  62
8
  10
 86.749999999900
  20
 351.33356191406
  30
0.0
  11
 103.24999999990
  21
 351.33356191406
  31
0.0
   0
LINE
   5
213
 100
AcDbEntity
   8
LEVEL001
 370
15
 100
AcDbLine
   6
CONTINUOUS
  62
8
  10
 119.74999999990
  20
 351.33356191406
  30
0.0
  11
 103.24999999990
  21
 351.33356191406
  31
0.0
   0
SOLID
   5
214
 100
AcDbEntity
   8
LEVEL001
 100
AcDbTrace
   6
CONTINUOUS
  62
8
  10
 86.749999999900
  20
 351.33356191406
  30
0.0
  11
 89.749999999900
  21
 350.80458097194
  31
0.0
  12
 89.749999999900
  22
 351.86254285619
  32
0.0
  13
 89.749999999900
  23
 351.86254285619
  33
0.0
   0
SOLID
   5
215
 100
AcDbEntity
   8
LEVEL001
 100
AcDbTrace
   6
CONTINUOUS
  62
8
  10
 119.74999999990
  20
 351.33356191406
  30
0.0
  11
 116.74999999990
  21
 351.86254285619
  31
0.0
  12
 116.74999999990
  22
 350.80458097194
  32
0.0
  13
 116.74999999990
  23
 350.80458097194
  33
0.0
   0
MTEXT
   5
216
 100
AcDbEntity
   8
LEVEL001
 370
15
  62
8
 100
AcDbMText
  10
 103.24999999990
  20
 352.33356191406
  30
0.0
  40
 4.0000000000000
  41
0.0
  71
8
  72
1
   1
\A1;33
   7
GMM001
   0
ENDBLK
   5
217
 100
AcDbEntity
   8
0
 100
AcDbBlockEnd
   0
BLOCK
   5
218
 100
AcDbEntity
   8
0
 100
AcDbBlockBegin
   2
*D46
  70
65
  10
0.0
  20
0.0
  30
0.0
   3
*D46
   0
LINE
   5
219
 100
AcDbEntity
   8
LEVEL001
 370
15
 100
AcDbLine
   6
CONTINUOUS
  62
8
  10
 119.74999999990
  20
 345.60173427293
  30
0.0
  11
 119.74999999990
  21
 353.33356191406
  31
0.0
   0
LINE
   5
21A
 100
AcDbEntity
   8
LEVEL001
 370
15
 100
AcDbLine
   6
CONTINUOUS
  62
8
  10
 153.24999999990
  20
 341.33356191406
  30
0.0
  11
 153.24999999990
  21
 353.33356191406
  31
0.0
   0
LINE
   5
21B
 100
AcDbEntity
   8
LEVEL001
 370
15
 100
AcDbLine
   6
CONTINUOUS
  62
8
  10
 119.74999999990
  20
 351.33356191406
  30
0.0
  11
 136.49999999990
  21
 351.33356191406
  31
0.0
   0
LINE
   5
21C
 100
AcDbEntity
   8
LEVEL001
 370
15
 100
AcDbLine
   6
CONTINUOUS
  62
8
  10
 153.24999999990
  20
 351.33356191406
  30
0.0
  11
 136.49999999990
  21
 351.33356191406
  31
0.0
   0
SOLID
   5
21D
 100
AcDbEntity
   8
LEVEL001
 100
AcDbTrace
   6
CONTINUOUS
  62
8
  10
 119.74999999990
  20
 351.33356191406
  30
0.0
  11
 122.74999999990
  21
 350.80458097194
  31
0.0
  12
 122.74999999990
  22
 351.86254285619
  32
0.0
  13
 122.74999999990
  23
 351.86254285619
  33
0.0
   0
SOLID
   5
21E
 100
AcDbEntity
   8
LEVEL001
 100
AcDbTrace
   6
CONTINUOUS
  62
8
  10
 153.24999999990
  20
 351.33356191406
  30
0.0
  11
 150.24999999990
  21
 351.86254285619
  31
0.0
  12
 150.24999999990
  22
 350.80458097194
  32
0.0
  13
 150.24999999990
  23
 350.80458097194
  33
0.0
   0
MTEXT
   5
21F
 100
AcDbEntity
   8
LEVEL001
 370
15
  62
8
 100
AcDbMText
  10
 136.49999999990
  20
 352.33356191406
  30
0.0
  40
 4.0000000000000
  41
0.0
  71
8
  72
1
   1
\A1;33.5
   7
GMM001
   0
ENDBLK
   5
220
 100
AcDbEntity
   8
0
 100
AcDbBlockEnd
   0
BLOCK
   5
221
 100
AcDbEntity
   8
0
 100
AcDbBlockBegin
   2
*D47
  70
65
  10
0.0
  20
0.0
  30
0.0
   3
*D47
   0
LINE
   5
222
 100
AcDbEntity
   8
LEVEL001
 370
15
 100
AcDbLine
   6
CONTINUOUS
  62
8
  10
 271.92157287515
  20
 336.33356191406
  30
0.0
  11
 309.74999999990
  21
 336.33356191406
  31
0.0
   0
LINE
   5
223
 100
AcDbEntity
   8
LEVEL001
 370
15
 100
AcDbLine
   6
CONTINUOUS
  62
8
  10
 297.92157287516
  20
 341.33356191406
  30
0.0
  11
 309.74999999990
  21
 341.33356191406
  31
0.0
   0
LINE
   5
224
 100
AcDbEntity
   8
LEVEL001
 370
15
 100
AcDbLine
   6
CONTINUOUS
  62
8
  10
 307.74999999990
  20
 332.58356191406
  30
0.0
  11
 307.74999999990
  21
 338.83356191406
  31
0.0
   0
LINE
   5
225
 100
AcDbEntity
   8
LEVEL001
 370
15
 100
AcDbLine
   6
CONTINUOUS
  62
8
  10
 307.74999999990
  20
 348.34150393988
  30
0.0
  11
 307.74999999990
  21
 338.83356191406
  31
0.0
   0
SOLID
   5
226
 100
AcDbEntity
   8
LEVEL001
 100
AcDbTrace
   6
CONTINUOUS
  62
8
  10
 307.74999999990
  20
 336.33356191406
  30
0.0
  11
 307.22101905777
  21
 333.33356191406
  31
0.0
  12
 308.27898094203
  22
 333.33356191406
  32
0.0
  13
 308.27898094203
  23
 333.33356191406
  33
0.0
   0
SOLID
   5
227
 100
AcDbEntity
   8
LEVEL001
 100
AcDbTrace
   6
CONTINUOUS
  62
8
  10
 307.74999999990
  20
 341.33356191406
  30
0.0
  11
 308.27898094203
  21
 344.33356191406
  31
0.0
  12
 307.22101905777
  22
 344.33356191406
  32
0.0
  13
 307.22101905777
  23
 344.33356191406
  33
0.0
   0
MTEXT
   5
228
 100
AcDbEntity
   8
LEVEL001
 370
15
  62
8
 100
AcDbMText
  10
 306.77292342637
  20
 344.34150393988
  30
0.0
  40
 4.0000000000000
  41
0.0
  71
7
  72
1
   1
\A1;5
   7
GMM001
  11
0.0
  21
 1.0000000000000
  31
0.0
   0
ENDBLK
   5
229
 100
AcDbEntity
   8
0
 100
AcDbBlockEnd
   0
BLOCK
   5
22A
 100
AcDbEntity
   8
0
 100
AcDbBlockBegin
   2
*D48
  70
65
  10
0.0
  20
0.0
  30
0.0
   3
*D48
   0
LINE
   5
22B
 100
AcDbEntity
   8
LEVEL001
 370
15
 100
AcDbLine
   6
CONTINUOUS
  62
8
  10
 197.74999999990
  20
 341.33356191406
  30
0.0
  11
 197.74999999990
  21
 353.33356191406
  31
0.0
   0
LINE
   5
22C
 100
AcDbEntity
   8
LEVEL001
 370
15
 100
AcDbLine
   6
CONTINUOUS
  62
8
  10
 197.74999999990
  20
 351.33356191406
  30
0.0
  11
 213.74999999990
  21
 351.33356191406
  31
0.0
   0
LINE
   5
22D
 100
AcDbEntity
   8
LEVEL001
 370
15
 100
AcDbLine
   6
CONTINUOUS
  62
8
  10
 229.74999999990
  20
 351.33356191406
  30
0.0
  11
 213.74999999990
  21
 351.33356191406
  31
0.0
   0
SOLID
   5
22E
 100
AcDbEntity
   8
LEVEL001
 100
AcDbTrace
   6
CONTINUOUS
  62
8
  10
 197.74999999990
  20
 351.33356191406
  30
0.0
  11
 200.74999999990
  21
 350.80458097194
  31
0.0
  12
 200.74999999990
  22
 351.86254285619
  32
0.0
  13
 200.74999999990
  23
 351.86254285619
  33
0.0
   0
SOLID
   5
22F
 100
AcDbEntity
   8
LEVEL001
 100
AcDbTrace
   6
CONTINUOUS
  62
8
  10
 229.74999999990
  20
 351.33356191406
  30
0.0
  11
 226.74999999990
  21
 351.86254285619
  31
0.0
  12
 226.74999999990
  22
 350.80458097194
  32
0.0
  13
 226.74999999990
  23
 350.80458097194
  33
0.0
   0
MTEXT
   5
230
 100
AcDbEntity
   8
LEVEL001
 370
15
  62
8
 100
AcDbMText
  10
 213.74999999990
  20
 352.33356191406
  30
0.0
  40
 4.0000000000000
  41
0.0
  71
8
  72
1
   1
\A1;32
   7
GMM001
   0
ENDBLK
   5
231
 100
AcDbEntity
   8
0
 100
AcDbBlockEnd
   0
BLOCK
   5
232
 100
AcDbEntity
   8
0
 100
AcDbBlockBegin
   2
*D49
  70
65
  10
0.0
  20
0.0
  30
0.0
   3
*D49
   0
LINE
   5
233
 100
AcDbEntity
   8
LEVEL001
 370
15
 100
AcDbLine
   6
CONTINUOUS
  62
8
  10
 229.74999999990
  20
 345.60173427293
  30
0.0
  11
 229.74999999990
  21
 353.33356191406
  31
0.0
   0
LINE
   5
234
 100
AcDbEntity
   8
LEVEL001
 370
15
 100
AcDbLine
   6
CONTINUOUS
  62
8
  10
 229.74999999990
  20
 351.33356191406
  30
0.0
  11
 247.74999999990
  21
 351.33356191406
  31
0.0
   0
LINE
   5
235
 100
AcDbEntity
   8
LEVEL001
 370
15
 100
AcDbLine
   6
CONTINUOUS
  62
8
  10
 265.74999999990
  20
 351.33356191406
  30
0.0
  11
 247.74999999990
  21
 351.33356191406
  31
0.0
   0
SOLID
   5
236
 100
AcDbEntity
   8
LEVEL001
 100
AcDbTrace
   6
CONTINUOUS
  62
8
  10
 229.74999999990
  20
 351.33356191406
  30
0.0
  11
 232.74999999990
  21
 350.80458097194
  31
0.0
  12
 232.74999999990
  22
 351.86254285619
  32
0.0
  13
 232.74999999990
  23
 351.86254285619
  33
0.0
   0
SOLID
   5
237
 100
AcDbEntity
   8
LEVEL001
 100
AcDbTrace
   6
CONTINUOUS
  62
8
  10
 265.74999999990
  20
 351.33356191406
  30
0.0
  11
 262.74999999990
  21
 351.86254285619
  31
0.0
  12
 262.74999999990
  22
 350.80458097194
  32
0.0
  13
 262.74999999990
  23
 350.80458097194
  33
0.0
   0
MTEXT
   5
238
 100
AcDbEntity
   8
LEVEL001
 370
15
  62
8
 100
AcDbMText
  10
 247.74999999990
  20
 352.33356191406
  30
0.0
  40
 4.0000000000000
  41
0.0
  71
8
  72
1
   1
\A1;36
   7
GMM001
   0
ENDBLK
   5
239
 100
AcDbEntity
   8
0
 100
AcDbBlockEnd
   0
BLOCK
   5
23A
 100
AcDbEntity
   8
0
 100
AcDbBlockBegin
   2
*D50
  70
65
  10
0.0
  20
0.0
  30
0.0
   3
*D50
   0
LINE
   5
23B
 100
AcDbEntity
   8
LEVEL001
 370
15
 100
AcDbLine
   6
CONTINUOUS
  62
8
  10
 265.74999999990
  20
 345.60173427293
  30
0.0
  11
 265.74999999990
  21
 353.33356191406
  31
0.0
   0
LINE
   5
23C
 100
AcDbEntity
   8
LEVEL001
 370
15
 100
AcDbLine
   6
CONTINUOUS
  62
8
  10
 297.74999999990
  20
 341.33356191406
  30
0.0
  11
 297.74999999990
  21
 353.33356191406
  31
0.0
   0
LINE
   5
23D
 100
AcDbEntity
   8
LEVEL001
 370
15
 100
AcDbLine
   6
CONTINUOUS
  62
8
  10
 265.74999999990
  20
 351.33356191406
  30
0.0
  11
 281.74999999990
  21
 351.33356191406
  31
0.0
   0
LINE
   5
23E
 100
AcDbEntity
   8
LEVEL001
 370
15
 100
AcDbLine
   6
CONTINUOUS
  62
8
  10
 297.74999999990
  20
 351.33356191406
  30
0.0
  11
 281.74999999990
  21
 351.33356191406
  31
0.0
   0
SOLID
   5
23F
 100
AcDbEntity
   8
LEVEL001
 100
AcDbTrace
   6
CONTINUOUS
  62
8
  10
 265.74999999990
  20
 351.33356191406
  30
0.0
  11
 268.74999999990
  21
 350.80458097194
  31
0.0
  12
 268.74999999990
  22
 351.86254285619
  32
0.0
  13
 268.74999999990
  23
 351.86254285619
  33
0.0
   0
SOLID
   5
240
 100
AcDbEntity
   8
LEVEL001
 100
AcDbTrace
   6
CONTINUOUS
  62
8
  10
 297.74999999990
  20
 351.33356191406
  30
0.0
  11
 294.74999999990
  21
 351.86254285619
  31
0.0
  12
 294.74999999990
  22
 350.80458097194
  32
0.0
  13
 294.74999999990
  23
 350.80458097194
  33
0.0
   0
MTEXT
   5
241
 100
AcDbEntity
   8
LEVEL001
 370
15
  62
8
 100
AcDbMText
  10
 281.74999999990
  20
 352.33356191406
  30
0.0
  40
 4.0000000000000
  41
0.0
  71
8
  72
1
   1
\A1;32
   7
GMM001
   0
ENDBLK
   5
242
 100
AcDbEntity
   8
0
 100
AcDbBlockEnd
   0
BLOCK
   5
243
 100
AcDbEntity
   8
0
 100
AcDbBlockBegin
   2
*D51
  70
65
  10
0.0
  20
0.0
  30
0.0
   3
*D51
   0
LINE
   5
244
 100
AcDbEntity
   8
LEVEL001
 370
15
 100
AcDbLine
   6
CONTINUOUS
  62
8
  10
 342.24999999990
  20
 341.33356191406
  30
0.0
  11
 342.24999999990
  21
 353.33356191406
  31
0.0
   0
LINE
   5
245
 100
AcDbEntity
   8
LEVEL001
 370
15
 100
AcDbLine
   6
CONTINUOUS
  62
8
  10
 342.24999999990
  20
 351.33356191406
  30
0.0
  11
 357.49999999990
  21
 351.33356191406
  31
0.0
   0
LINE
   5
246
 100
AcDbEntity
   8
LEVEL001
 370
15
 100
AcDbLine
   6
CONTINUOUS
  62
8
  10
 372.74999999990
  20
 351.33356191406
  30
0.0
  11
 357.49999999990
  21
 351.33356191406
  31
0.0
   0
SOLID
   5
247
 100
AcDbEntity
   8
LEVEL001
 100
AcDbTrace
   6
CONTINUOUS
  62
8
  10
 342.24999999990
  20
 351.33356191406
  30
0.0
  11
 345.24999999990
  21
 350.80458097194
  31
0.0
  12
 345.24999999990
  22
 351.86254285619
  32
0.0
  13
 345.24999999990
  23
 351.86254285619
  33
0.0
   0
SOLID
   5
248
 100
AcDbEntity
   8
LEVEL001
 100
AcDbTrace
   6
CONTINUOUS
  62
8
  10
 372.74999999990
  20
 351.33356191406
  30
0.0
  11
 369.74999999990
  21
 351.86254285619
  31
0.0
  12
 369.74999999990
  22
 350.80458097194
  32
0.0
  13
 369.74999999990
  23
 350.80458097194
  33
0.0
   0
MTEXT
   5
249
 100
AcDbEntity
   8
LEVEL001
 370
15
  62
8
 100
AcDbMText
  10
 357.49999999990
  20
 352.33356191406
  30
0.0
  40
 4.0000000000000
  41
0.0
  71
8
  72
1
   1
\A1;30.5
   7
GMM001
   0
ENDBLK
   5
24A
 100
AcDbEntity
   8
0
 100
AcDbBlockEnd
   0
BLOCK
   5
24B
 100
AcDbEntity
   8
0
 100
AcDbBlockBegin
   2
*D52
  70
65
  10
0.0
  20
0.0
  30
0.0
   3
*D52
   0
LINE
   5
24C
 100
AcDbEntity
   8
LEVEL001
 370
15
 100
AcDbLine
   6
CONTINUOUS
  62
8
  10
 372.74999999990
  20
 345.60173427293
  30
0.0
  11
 372.74999999990
  21
 353.33356191406
  31
0.0
   0
LINE
   5
24D
 100
AcDbEntity
   8
LEVEL001
 370
15
 100
AcDbLine
   6
CONTINUOUS
  62
8
  10
 372.74999999990
  20
 351.33356191406
  30
0.0
  11
 392.24999999990
  21
 351.33356191406
  31
0.0
   0
LINE
   5
24E
 100
AcDbEntity
   8
LEVEL001
 370
15
 100
AcDbLine
   6
CONTINUOUS
  62
8
  10
 411.74999999990
  20
 351.33356191406
  30
0.0
  11
 392.24999999990
  21
 351.33356191406
  31
0.0
   0
SOLID
   5
24F
 100
AcDbEntity
   8
LEVEL001
 100
AcDbTrace
   6
CONTINUOUS
  62
8
  10
 372.74999999990
  20
 351.33356191406
  30
0.0
  11
 375.74999999990
  21
 350.80458097194
  31
0.0
  12
 375.74999999990
  22
 351.86254285619
  32
0.0
  13
 375.74999999990
  23
 351.86254285619
  33
0.0
   0
SOLID
   5
250
 100
AcDbEntity
   8
LEVEL001
 100
AcDbTrace
   6
CONTINUOUS
  62
8
  10
 411.74999999990
  20
 351.33356191406
  30
0.0
  11
 408.74999999990
  21
 351.86254285619
  31
0.0
  12
 408.74999999990
  22
 350.80458097194
  32
0.0
  13
 408.74999999990
  23
 350.80458097194
  33
0.0
   0
MTEXT
   5
251
 100
AcDbEntity
   8
LEVEL001
 370
15
  62
8
 100
AcDbMText
  10
 392.24999999990
  20
 352.33356191406
  30
0.0
  40
 4.0000000000000
  41
0.0
  71
8
  72
1
   1
\A1;39
   7
GMM001
   0
ENDBLK
   5
252
 100
AcDbEntity
   8
0
 100
AcDbBlockEnd
   0
BLOCK
   5
253
 100
AcDbEntity
   8
0
 100
AcDbBlockBegin
   2
*D53
  70
65
  10
0.0
  20
0.0
  30
0.0
   3
*D53
   0
LINE
   5
254
 100
AcDbEntity
   8
LEVEL001
 370
15
 100
AcDbLine
   6
CONTINUOUS
  62
8
  10
 411.74999999990
  20
 345.60173427293
  30
0.0
  11
 411.74999999990
  21
 353.33356191406
  31
0.0
   0
LINE
   5
255
 100
AcDbEntity
   8
LEVEL001
 370
15
 100
AcDbLine
   6
CONTINUOUS
  62
8
  10
 442.24999999990
  20
 341.33356191406
  30
0.0
  11
 442.24999999990
  21
 353.33356191406
  31
0.0
   0
LINE
   5
256
 100
AcDbEntity
   8
LEVEL001
 370
15
 100
AcDbLine
   6
CONTINUOUS
  62
8
  10
 411.74999999990
  20
 351.33356191406
  30
0.0
  11
 426.99999999990
  21
 351.33356191406
  31
0.0
   0
LINE
   5
257
 100
AcDbEntity
   8
LEVEL001
 370
15
 100
AcDbLine
   6
CONTINUOUS
  62
8
  10
 442.24999999990
  20
 351.33356191406
  30
0.0
  11
 426.99999999990
  21
 351.33356191406
  31
0.0
   0
SOLID
   5
258
 100
AcDbEntity
   8
LEVEL001
 100
AcDbTrace
   6
CONTINUOUS
  62
8
  10
 411.74999999990
  20
 351.33356191406
  30
0.0
  11
 414.74999999990
  21
 350.80458097194
  31
0.0
  12
 414.74999999990
  22
 351.86254285619
  32
0.0
  13
 414.74999999990
  23
 351.86254285619
  33
0.0
   0
SOLID
   5
259
 100
AcDbEntity
   8
LEVEL001
 100
AcDbTrace
   6
CONTINUOUS
  62
8
  10
 442.24999999990
  20
 351.33356191406
  30
0.0
  11
 439.24999999990
  21
 351.86254285619
  31
0.0
  12
 439.24999999990
  22
 350.80458097194
  32
0.0
  13
 439.24999999990
  23
 350.80458097194
  33
0.0
   0
MTEXT
   5
25A
 100
AcDbEntity
   8
LEVEL001
 370
15
  62
8
 100
AcDbMText
  10
 426.99999999990
  20
 352.33356191406
  30
0.0
  40
 4.0000000000000
  41
0.0
  71
8
  72
1
   1
\A1;30.5
   7
GMM001
   0
ENDBLK
   5
25B
 100
AcDbEntity
   8
0
 100
AcDbBlockEnd
   0
ENDSEC
   0
SECTION
   2
ENTITIES
   0
LINE
   5
25C
 100
AcDbEntity
   8
LEVEL001
 370
30
 100
AcDbLine
   6
DOT
  62
7
  10
0.0
  20
0.0
  30
0.0
  11
 840.00000000000
  21
0.0
  31
0.0
   0
LINE
   5
25D
 100
AcDbEntity
   8
LEVEL001
 370
30
 100
AcDbLine
   6
DOT
  62
7
  10
 840.00000000000
  20
0.0
  30
0.0
  11
 840.00000000000
  21
 594.00000000000
  31
0.0
   0
LINE
   5
25E
 100
AcDbEntity
   8
LEVEL001
 370
30
 100
AcDbLine
   6
DOT
  62
7
  10
 840.00000000000
  20
 594.00000000000
  30
0.0
  11
0.0
  21
 594.00000000000
  31
0.0
   0
LINE
   5
25F
 100
AcDbEntity
   8
LEVEL001
 370
30
 100
AcDbLine
   6
DOT
  62
7
  10
0.0
  20
 594.00000000000
  30
0.0
  11
0.0
  21
0.0
  31
0.0
   0
LINE
   5
260
 100
AcDbEntity
   8
LEVEL002
 370
40
 100
AcDbLine
   6
CONTINUOUS
  62
3
  10
 30.999999999900
  20
 433.50000000000
  30
0.0
  11
 608.99999999990
  21
 433.50000000000
  31
0.0
   0
LINE
   5
261
 100
AcDbEntity
   8
LEVEL002
 370
40
 100
AcDbLine
   6
CONTINUOUS
  62
3
  10
 30.999999999900
  20
 550.00000000000
  30
0.0
  11
 608.99999999990
  21
 550.00000000000
  31
0.0
   0
LINE
   5
262
 100
AcDbEntity
   8
LEVEL002
 370
40
 100
AcDbLine
   6
CONTINUOUS
  62
3
  10
 30.999999999900
  20
 413.50000000000
  30
0.0
  11
 608.99999999990
  21
 413.50000000000
  31
0.0
   0
LINE
   5
263
 100
AcDbEntity
   8
LEVEL002
 370
40
 100
AcDbLine
   6
CONTINUOUS
  62
3
  10
 608.99999999990
  20
 513.50000000000
  30
0.0
  11
 808.99999999990
  21
 513.50000000000
  31
0.0
   0
LINE
   5
264
 100
AcDbEntity
   8
LEVEL002
 370
40
 100
AcDbLine
   6
CONTINUOUS
  62
3
  10
 608.99999999990
  20
 473.50000000000
  30
0.0
  11
 808.99999999990
  21
 473.50000000000
  31
0.0
   0
LINE
   5
265
 100
AcDbEntity
   8
LEVEL002
 370
40
 100
AcDbLine
   6
CONTINUOUS
  62
3
  10
 608.99999999990
  20
 433.50000000000
  30
0.0
  11
 808.99999999990
  21
 433.50000000000
  31
0.0
   0
LINE
   5
266
 100
AcDbEntity
   8
LEVEL002
 370
40
 100
AcDbLine
   6
CONTINUOUS
  62
3
  10
 464.49999999990
  20
 570.00000000000
  30
0.0
  11
 464.49999999990
  21
 24.000000000020
  31
0.0
   0
LINE
   5
267
 100
AcDbEntity
   8
LEVEL002
 370
40
 100
AcDbLine
   6
CONTINUOUS
  62
3
  10
 319.99999999990
  20
 570.00000000000
  30
0.0
  11
 319.99999999990
  21
 24.000000000020
  31
0.0
   0
LINE
   5
268
 100
AcDbEntity
   8
LEVEL002
 370
40
 100
AcDbLine
   6
CONTINUOUS
  62
3
  10
 175.49999999990
  20
 570.00000000000
  30
0.0
  11
 175.49999999990
  21
 24.000000000020
  31
0.0
   0
LINE
   5
269
 100
AcDbEntity
   8
LEVEL002
 370
40
 100
AcDbLine
   6
CONTINUOUS
  62
3
  10
 30.999999999900
  20
 297.00000000002
  30
0.0
  11
 608.99999999990
  21
 297.00000000002
  31
0.0
   0
LINE
   5
26A
 100
AcDbEntity
   8
LEVEL002
 370
40
 100
AcDbLine
   6
CONTINUOUS
  62
3
  10
 30.999999999900
  20
 277.00000000002
  30
0.0
  11
 608.99999999990
  21
 277.00000000002
  31
0.0
   0
LINE
   5
26B
 100
AcDbEntity
   8
LEVEL002
 370
40
 100
AcDbLine
   6
CONTINUOUS
  62
3
  10
 30.999999999900
  20
 160.50000000002
  30
0.0
  11
 608.99999999990
  21
 160.50000000002
  31
0.0
   0
LINE
   5
26C
 100
AcDbEntity
   8
LEVEL002
 370
40
 100
AcDbLine
   6
CONTINUOUS
  62
3
  10
 30.999999999900
  20
 140.50000000002
  30
0.0
  11
 608.99999999990
  21
 140.50000000002
  31
0.0
   0
LINE
   5
26D
 100
AcDbEntity
   8
LEVEL002
 370
40
 100
AcDbLine
   6
CONTINUOUS
  62
3
  10
 608.99999999990
  20
 144.00000000002
  30
0.0
  11
 808.99999999990
  21
 144.00000000002
  31
0.0
   0
LINE
   5
26E
 100
AcDbEntity
   8
LEVEL002
 370
40
 100
AcDbLine
   6
CONTINUOUS
  62
3
  10
 608.99999999990
  20
 104.00000000002
  30
0.0
  11
 808.99999999990
  21
 104.00000000002
  31
0.0
   0
LINE
   5
26F
 100
AcDbEntity
   8
LEVEL002
 370
40
 100
AcDbLine
   6
CONTINUOUS
  62
3
  10
 608.99999999990
  20
 64.000000000020
  30
0.0
  11
 808.99999999990
  21
 64.000000000020
  31
0.0
   0
LINE
   5
270
 100
AcDbEntity
   8
LEVEL002
 370
40
 100
AcDbLine
   6
CONTINUOUS
  62
3
  10
 708.99999999990
  20
 104.00000000002
  30
0.0
  11
 708.99999999990
  21
 24.000000000020
  31
0.0
   0
LINE
   5
271
 100
AcDbEntity
   8
LEVEL002
 370
40
 100
AcDbLine
   6
CONTINUOUS
  62
3
  10
 708.99999999990
  20
 77.333333333360
  30
0.0
  11
 808.99999999990
  21
 77.333333333360
  31
0.0
   0
LINE
   5
272
 100
AcDbEntity
   8
LEVEL002
 370
40
 100
AcDbLine
   6
CONTINUOUS
  62
3
  10
 708.99999999990
  20
 90.666666666690
  30
0.0
  11
 808.99999999990
  21
 90.666666666690
  31
0.0
   0
LINE
   5
273
 100
AcDbEntity
   8
LEVEL002
 370
50
 100
AcDbLine
   6
CONTINUOUS
  62
4
  10
 808.99999999990
  20
 570.00000000000
  30
0.0
  11
 30.999999999900
  21
 570.00000000000
  31
0.0
   0
LINE
   5
274
 100
AcDbEntity
   8
LEVEL002
 370
50
 100
AcDbLine
   6
CONTINUOUS
  62
4
  10
 608.99999999990
  20
 570.00000000000
  30
0.0
  11
 608.99999999990
  21
 24.000000000020
  31
0.0
   0
LINE
   5
275
 100
AcDbEntity
   8
LEVEL002
 370
50
 100
AcDbLine
   6
CONTINUOUS
  62
4
  10
 808.99999999990
  20
 24.000000000020
  30
0.0
  11
 808.99999999990
  21
 570.00000000000
  31
0.0
   0
LINE
   5
276
 100
AcDbEntity
   8
LEVEL002
 370
50
 100
AcDbLine
   6
CONTINUOUS
  62
4
  10
 30.999999999900
  20
 570.00000000000
  30
0.0
  11
 30.999999999900
  21
 24.000000000020
  31
0.0
   0
LINE
   5
277
 100
AcDbEntity
   8
LEVEL002
 370
50
 100
AcDbLine
   6
CONTINUOUS
  62
4
  10
 30.999999999900
  20
 24.000000000020
  30
0.0
  11
 808.99999999990
  21
 24.000000000020
  31
0.0
   0
MTEXT
   5
279
 100
AcDbEntity
   8
LEVEL002
 370
15
  62
8
 100
AcDbMText
  10
 35.999999999900
  20
 542.33333333340
  30
0.0
  40
 4.0000000000000
  41
0.0
  71
7
  72
1
   1
\T1.125000;※コンクリート用
   7
GMM001
  44
 0.79999984000003
   0
MTEXT
   5
27B
 100
AcDbEntity
   8
LEVEL002
 370
15
  62
8
 100
AcDbMText
  10
 180.49999999990
  20
 542.33333333340
  30
0.0
  40
 4.0000000000000
  41
0.0
  71
7
  72
1
   1
\T1.125000;※コンクリート用
   7
GMM001
  44
 0.79999984000003
   0
MTEXT
   5
27D
 100
AcDbEntity
   8
LEVEL002
 370
15
  62
8
 100
AcDbMText
  10
 35.999999999900
  20
 405.83333333340
  30
0.0
  40
 4.0000000000000
  41
0.0
  71
7
  72
1
   1
\T1.125000;※コンクリート用
   7
GMM001
  44
 0.79999984000003
   0
MTEXT
   5
27F
 100
AcDbEntity
   8
LEVEL002
 370
15
  62
8
 100
AcDbMText
  10
 180.49999999990
  20
 405.83333333340
  30
0.0
  40
 4.0000000000000
  41
0.0
  71
7
  72
1
   1
\T1.125000;※コンクリート用
   7
GMM001
  44
 0.79999984000003
   0
MTEXT
   5
281
 100
AcDbEntity
   8
LEVEL002
 370
15
  62
8
 100
AcDbMText
  10
 324.99999999990
  20
 405.83333333340
  30
0.0
  40
 4.0000000000000
  41
0.0
  71
7
  72
1
   1
\T1.125000;※コンクリート用
   7
GMM001
  44
 0.79999984000003
   0
MTEXT
   5
283
 100
AcDbEntity
   8
LEVEL002
 370
30
  62
7
 100
AcDbMText
  10
 176.09999999990
  20
 560.00000000000
  30
0.0
  40
 6.0000000000000
  41
0.0
  71
4
  72
1
   1
\T1.000000;　ＳＳ１００
   7
GMM001
  44
 0.79999984000003
   0
MTEXT
   5
285
 100
AcDbEntity
   8
LEVEL002
 370
15
  62
8
 100
AcDbMText
  10
 469.49999999990
  20
 405.83333333340
  30
0.0
  40
 4.0000000000000
  41
0.0
  71
7
  72
1
   1
\T1.125000;※コンクリート用
   7
GMM001
  44
 0.79999984000003
   0
MTEXT
   5
287
 100
AcDbEntity
   8
LEVEL002
 370
15
  62
8
 100
AcDbMText
  10
 621.59999999990
  20
 56.500000000020
  30
0.0
  40
 6.0000000000000
  41
0.0
  71
5
  72
1
   1
\T1.000000;サイズ：
   7
GMM001
  44
 0.79999984000003
   0
MTEXT
   5
289
 100
AcDbEntity
   8
LEVEL002
 370
15
  62
8
 100
AcDbMText
  10
 618.59999999990
  20
 96.500000000020
  30
0.0
  40
 6.0000000000000
  41
0.0
  71
5
  72
1
   1
\T1.000000;縮尺：
   7
GMM001
  44
 0.79999984000003
   0
MTEXT
   5
28B
 100
AcDbEntity
   8
LEVEL002
 370
15
  62
8
 100
AcDbMText
  10
 624.59999999990
  20
 136.50000000002
  30
0.0
  40
 6.0000000000000
  41
0.0
  71
5
  72
1
   1
\T1.000000;図面名称：
   7
GMM001
  44
 0.79999984000003
   0
MTEXT
   5
28D
 100
AcDbEntity
   8
LEVEL002
 370
15
  62
8
 100
AcDbMText
  10
 658.99999999990
  20
 76.500000000020
  30
0.0
  40
 7.5000000000000
  41
0.0
  71
5
  72
1
   1
\T1.000000;Ｓ＝１：２
   7
GMM001
  44
 0.79999984000003
   0
MTEXT
   5
28F
 100
AcDbEntity
   8
LEVEL002
 370
15
  62
8
 100
AcDbMText
  10
 658.99999999990
  20
 36.500000000020
  30
0.0
  40
 7.5000000000000
  41
0.0
  71
5
  72
1
   1
\T1.000000;Ａ３
   7
GMM001
  44
 0.79999984000003
   0
MTEXT
   5
291
 100
AcDbEntity
   8
LEVEL002
 370
15
  62
8
 100
AcDbMText
  10
 618.59999999990
  20
 466.00000000000
  30
0.0
  40
 6.0000000000000
  41
0.0
  71
5
  72
1
   1
\T1.000000;形式：
   7
GMM001
  44
 0.79999984000003
   0
MTEXT
   5
293
 100
AcDbEntity
   8
LEVEL002
 370
15
  62
8
 100
AcDbMText
  10
 621.59999999990
  20
 506.00000000000
  30
0.0
  40
 6.0000000000000
  41
0.0
  71
5
  72
1
   1
\T1.000000;商品名：
   7
GMM001
  44
 0.79999984000003
   0
MTEXT
   5
295
 100
AcDbEntity
   8
LEVEL002
 370
15
  62
8
 100
AcDbMText
  10
 708.99999999990
  20
 493.50000000000
  30
0.0
  40
 9.0000000000000
  41
0.0
  71
5
  72
1
   1
\T1.000000;パルステン敷居レール
   7
GMM001
  44
 0.79999984000003
   0
MTEXT
   5
297
 100
AcDbEntity
   8
LEVEL002
 370
15
  62
8
 100
AcDbMText
  10
 727.59999999990
  20
 56.500000000020
  30
0.0
  40
 6.0000000000000
  41
0.0
  71
5
  72
1
   1
\T1.000000;ファイル名：
   7
GMM001
  44
 0.79999984000003
   0
MTEXT
   5
299
 100
AcDbEntity
   8
LEVEL002
 370
15
  62
8
 100
AcDbMText
  10
 724.59999999990
  20
 97.333333333360
  30
0.0
  40
 5.6000000000000
  41
0.0
  71
5
  72
1
   1
\T1.000000;作成日付：
   7
GMM002
  44
 0.79999984000003
   0
MTEXT
   5
29B
 100
AcDbEntity
   8
LEVEL002
 370
15
  62
8
 100
AcDbMText
  10
 724.59999999990
  20
 84.000000000020
  30
0.0
  40
 5.6000000000000
  41
0.0
  71
5
  72
1
   1
\T1.000000;変更日付：
   7
GMM002
  44
 0.79999984000003
   0
MTEXT
   5
29D
 100
AcDbEntity
   8
LEVEL002
 370
15
  62
8
 100
AcDbMText
  10
 708.99999999990
  20
 116.50000000002
  30
0.0
  40
 7.5000000000000
  41
0.0
  71
5
  72
1
   1
\T1.000000;断面図
   7
GMM001
  44
 0.79999984000003
   0
MTEXT
   5
29F
 100
AcDbEntity
   8
LEVEL002
 370
15
  62
8
 100
AcDbMText
  10
 708.99999999990
  20
 453.50000000000
  30
0.0
  40
 8.0000000000000
  41
0.0
  71
5
  72
1
   1
\T1.000000;Ｓ型
   7
GMM001
  44
 0.79999984000003
   0
LINE
   5
2A0
 100
AcDbEntity
   8
LEVEL002
 370
25
 100
AcDbLine
   6
CONTINUOUS
  62
1
  10
 688.30000000000
  20
 544.15000000000
  30
0.0
  11
 673.90000000000
  21
 544.15000000000
  31
0.0
   0
LINE
   5
2A1
 100
AcDbEntity
   8
LEVEL002
 370
25
 100
AcDbLine
   6
CONTINUOUS
  62
1
  10
 673.90000000000
  20
 544.15000000000
  30
0.0
  11
 673.90000000000
  21
 522.55000000000
  31
0.0
   0
LINE
   5
2A2
 100
AcDbEntity
   8
LEVEL002
 370
25
 100
AcDbLine
   6
CONTINUOUS
  62
1
  10
 673.90000000000
  20
 522.55000000000
  30
0.0
  11
 681.10000000000
  21
 522.55000000000
  31
0.0
   0
LINE
   5
2A3
 100
AcDbEntity
   8
LEVEL002
 370
25
 100
AcDbLine
   6
CONTINUOUS
  62
1
  10
 681.10000000000
  20
 522.55000000000
  30
0.0
  11
 681.10000000000
  21
 526.15000000000
  31
0.0
   0
LINE
   5
2A4
 100
AcDbEntity
   8
LEVEL002
 370
25
 100
AcDbLine
   6
CONTINUOUS
  62
1
  10
 681.10000000000
  20
 526.15000000000
  30
0.0
  11
 688.30000000000
  21
 526.15000000000
  31
0.0
   0
ARC
   5
2A5
 100
AcDbEntity
   8
LEVEL002
 370
25
   6
CONTINUOUS
  62
1
 100
AcDbCircle
  10
 688.30000000000
  20
 535.15000000000
  30
0.0
  40
 9.0000000000000
 100
AcDbArc
  50
 270.00000000000
  51
 90.000000000000
   0
LINE
   5
2A6
 100
AcDbEntity
   8
LEVEL002
 370
25
 100
AcDbLine
   6
CONTINUOUS
  62
1
  10
 681.10000000000
  20
 533.35000000000
  30
0.0
  11
 688.30000000000
  21
 533.35000000000
  31
0.0
   0
ARC
   5
2A7
 100
AcDbEntity
   8
LEVEL002
 370
25
   6
CONTINUOUS
  62
1
 100
AcDbCircle
  10
 688.30000000000
  20
 535.15000000000
  30
0.0
  40
 1.8000000000000
 100
AcDbArc
  50
 270.00000000000
  51
 90.000000000000
   0
LINE
   5
2A8
 100
AcDbEntity
   8
LEVEL002
 370
25
 100
AcDbLine
   6
CONTINUOUS
  62
1
  10
 688.30000000000
  20
 536.95000000000
  30
0.0
  11
 681.10000000000
  21
 536.95000000000
  31
0.0
   0
LINE
   5
2A9
 100
AcDbEntity
   8
LEVEL002
 370
25
 100
AcDbLine
   6
CONTINUOUS
  62
1
  10
 681.10000000000
  20
 536.95000000000
  30
0.0
  11
 681.10000000000
  21
 533.35000000000
  31
0.0
   0
LINE
   5
2AA
 100
AcDbEntity
   8
LEVEL002
 370
25
 100
AcDbLine
   6
CONTINUOUS
  62
1
  10
 691.90000000000
  20
 522.55000000000
  30
0.0
  11
 706.30000000000
  21
 544.15000000000
  31
0.0
   0
LINE
   5
2AB
 100
AcDbEntity
   8
LEVEL002
 370
25
 100
AcDbLine
   6
CONTINUOUS
  62
1
  10
 706.30000000000
  20
 544.15000000000
  30
0.0
  11
 724.30000000000
  21
 544.15000000000
  31
0.0
   0
LINE
   5
2AC
 100
AcDbEntity
   8
LEVEL002
 370
25
 100
AcDbLine
   6
CONTINUOUS
  62
1
  10
 724.30000000000
  20
 544.15000000000
  30
0.0
  11
 724.30000000000
  21
 529.75000000000
  31
0.0
   0
LINE
   5
2AD
 100
AcDbEntity
   8
LEVEL002
 370
25
 100
AcDbLine
   6
CONTINUOUS
  62
1
  10
 724.30000000000
  20
 529.75000000000
  30
0.0
  11
 735.10000000000
  21
 529.75000000000
  31
0.0
   0
LINE
   5
2AE
 100
AcDbEntity
   8
LEVEL002
 370
25
 100
AcDbLine
   6
CONTINUOUS
  62
1
  10
 735.10000000000
  20
 529.75000000000
  30
0.0
  11
 735.10000000000
  21
 536.95000000000
  31
0.0
   0
LINE
   5
2AF
 100
AcDbEntity
   8
LEVEL002
 370
25
 100
AcDbLine
   6
CONTINUOUS
  62
1
  10
 735.10000000000
  20
 536.95000000000
  30
0.0
  11
 727.90000000000
  21
 536.95000000000
  31
0.0
   0
LINE
   5
2B0
 100
AcDbEntity
   8
LEVEL002
 370
25
 100
AcDbLine
   6
CONTINUOUS
  62
1
  10
 727.90000000000
  20
 536.95000000000
  30
0.0
  11
 727.90000000000
  21
 544.15000000000
  31
0.0
   0
LINE
   5
2B1
 100
AcDbEntity
   8
LEVEL002
 370
25
 100
AcDbLine
   6
CONTINUOUS
  62
1
  10
 727.90000000000
  20
 544.15000000000
  30
0.0
  11
 771.10000000000
  21
 544.15000000000
  31
0.0
   0
LINE
   5
2B2
 100
AcDbEntity
   8
LEVEL002
 370
25
 100
AcDbLine
   6
CONTINUOUS
  62
1
  10
 771.10000000000
  20
 544.15000000000
  30
0.0
  11
 771.10000000000
  21
 536.95000000000
  31
0.0
   0
LINE
   5
2B3
 100
AcDbEntity
   8
LEVEL002
 370
25
 100
AcDbLine
   6
CONTINUOUS
  62
1
  10
 771.10000000000
  20
 536.95000000000
  30
0.0
  11
 756.70000000000
  21
 536.95000000000
  31
0.0
   0
LINE
   5
2B4
 100
AcDbEntity
   8
LEVEL002
 370
25
 100
AcDbLine
   6
CONTINUOUS
  62
1
  10
 756.70000000000
  20
 536.95000000000
  30
0.0
  11
 756.70000000000
  21
 535.15000000000
  31
0.0
   0
LINE
   5
2B5
 100
AcDbEntity
   8
LEVEL002
 370
25
 100
AcDbLine
   6
CONTINUOUS
  62
1
  10
 756.70000000000
  20
 535.15000000000
  30
0.0
  11
 769.30000000000
  21
 535.15000000000
  31
0.0
   0
LINE
   5
2B6
 100
AcDbEntity
   8
LEVEL002
 370
25
 100
AcDbLine
   6
CONTINUOUS
  62
1
  10
 769.30000000000
  20
 535.15000000000
  30
0.0
  11
 769.30000000000
  21
 531.55000000000
  31
0.0
   0
LINE
   5
2B7
 100
AcDbEntity
   8
LEVEL002
 370
25
 100
AcDbLine
   6
CONTINUOUS
  62
1
  10
 769.30000000000
  20
 531.55000000000
  30
0.0
  11
 756.70000000000
  21
 531.55000000000
  31
0.0
   0
LINE
   5
2B8
 100
AcDbEntity
   8
LEVEL002
 370
25
 100
AcDbLine
   6
CONTINUOUS
  62
1
  10
 756.70000000000
  20
 531.55000000000
  30
0.0
  11
 756.70000000000
  21
 529.75000000000
  31
0.0
   0
LINE
   5
2B9
 100
AcDbEntity
   8
LEVEL002
 370
25
 100
AcDbLine
   6
CONTINUOUS
  62
1
  10
 756.70000000000
  20
 529.75000000000
  30
0.0
  11
 771.10000000000
  21
 529.75000000000
  31
0.0
   0
LINE
   5
2BA
 100
AcDbEntity
   8
LEVEL002
 370
25
 100
AcDbLine
   6
CONTINUOUS
  62
1
  10
 771.10000000000
  20
 529.75000000000
  30
0.0
  11
 771.10000000000
  21
 522.55000000000
  31
0.0
   0
LINE
   5
2BB
 100
AcDbEntity
   8
LEVEL002
 370
25
 100
AcDbLine
   6
CONTINUOUS
  62
1
  10
 771.10000000000
  20
 522.55000000000
  30
0.0
  11
 749.50000000000
  21
 522.55000000000
  31
0.0
   0
LINE
   5
2BC
 100
AcDbEntity
   8
LEVEL002
 370
25
 100
AcDbLine
   6
CONTINUOUS
  62
1
  10
 749.50000000000
  20
 522.55000000000
  30
0.0
  11
 749.50000000000
  21
 536.95000000000
  31
0.0
   0
LINE
   5
2BD
 100
AcDbEntity
   8
LEVEL002
 370
25
 100
AcDbLine
   6
CONTINUOUS
  62
1
  10
 749.50000000000
  20
 536.95000000000
  30
0.0
  11
 742.30000000000
  21
 536.95000000000
  31
0.0
   0
LINE
   5
2BE
 100
AcDbEntity
   8
LEVEL002
 370
25
 100
AcDbLine
   6
CONTINUOUS
  62
1
  10
 742.30000000000
  20
 536.95000000000
  30
0.0
  11
 742.30000000000
  21
 522.55000000000
  31
0.0
   0
LINE
   5
2BF
 100
AcDbEntity
   8
LEVEL002
 370
25
 100
AcDbLine
   6
CONTINUOUS
  62
1
  10
 742.30000000000
  20
 522.55000000000
  30
0.0
  11
 717.10000000000
  21
 522.55000000000
  31
0.0
   0
LINE
   5
2C0
 100
AcDbEntity
   8
LEVEL002
 370
25
 100
AcDbLine
   6
CONTINUOUS
  62
1
  10
 717.10000000000
  20
 522.55000000000
  30
0.0
  11
 717.10000000000
  21
 544.15000000000
  31
0.0
   0
LINE
   5
2C1
 100
AcDbEntity
   8
LEVEL002
 370
25
 100
AcDbLine
   6
CONTINUOUS
  62
1
  10
 717.10000000000
  20
 544.15000000000
  30
0.0
  11
 702.70000000000
  21
 522.55000000000
  31
0.0
   0
LINE
   5
2C2
 100
AcDbEntity
   8
LEVEL002
 370
25
 100
AcDbLine
   6
CONTINUOUS
  62
1
  10
 702.70000000000
  20
 522.55000000000
  30
0.0
  11
 691.90000000000
  21
 522.55000000000
  31
0.0
   0
LINE
   5
2C3
 100
AcDbEntity
   8
LEVEL002
 370
25
 100
AcDbLine
   6
CONTINUOUS
  62
1
  10
 714.70000000000
  20
 536.22333846940
  30
0.0
  11
 705.58444102040
  21
 522.55000000000
  31
0.0
   0
LINE
   5
2C4
 100
AcDbEntity
   8
LEVEL002
 370
25
 100
AcDbLine
   6
CONTINUOUS
  62
1
  10
 705.58444102040
  20
 522.55000000000
  30
0.0
  11
 714.70000000000
  21
 522.55000000000
  31
0.0
   0
LINE
   5
2C5
 100
AcDbEntity
   8
LEVEL002
 370
25
 100
AcDbLine
   6
CONTINUOUS
  62
1
  10
 714.70000000000
  20
 522.55000000000
  30
0.0
  11
 714.70000000000
  21
 536.22333846940
  31
0.0
   0
ARC
   5
2C6
 100
AcDbEntity
   8
LEVEL002
 370
25
   6
CONTINUOUS
  62
1
 100
AcDbCircle
  10
 781.90000000000
  20
 533.35000000000
  30
0.0
  40
 10.800000000000
 100
AcDbArc
  50
 90.000000000000
  51
 270.00000000000
   0
ARC
   5
2C7
 100
AcDbEntity
   8
LEVEL002
 370
25
   6
CONTINUOUS
  62
1
 100
AcDbCircle
  10
 781.90000000000
  20
 533.35000000000
  30
0.0
  40
 3.6000000000000
 100
AcDbArc
  50
 90.000000000000
  51
 270.00000000000
   0
LINE
   5
2C8
 100
AcDbEntity
   8
LEVEL002
 370
25
 100
AcDbLine
   6
CONTINUOUS
  62
1
  10
 781.90000000000
  20
 544.15000000000
  30
0.0
  11
 792.70000000000
  21
 544.15000000000
  31
0.0
   0
LINE
   5
2C9
 100
AcDbEntity
   8
LEVEL002
 370
25
 100
AcDbLine
   6
CONTINUOUS
  62
1
  10
 792.70000000000
  20
 544.15000000000
  30
0.0
  11
 792.70000000000
  21
 536.95000000000
  31
0.0
   0
LINE
   5
2CA
 100
AcDbEntity
   8
LEVEL002
 370
25
 100
AcDbLine
   6
CONTINUOUS
  62
1
  10
 792.70000000000
  20
 536.95000000000
  30
0.0
  11
 781.90000000000
  21
 536.95000000000
  31
0.0
   0
LINE
   5
2CB
 100
AcDbEntity
   8
LEVEL002
 370
25
 100
AcDbLine
   6
CONTINUOUS
  62
1
  10
 673.90000000000
  20
 544.15000000000
  30
0.0
  11
 673.90000000000
  21
 522.55000000000
  31
0.0
   0
LINE
   5
2CC
 100
AcDbEntity
   8
LEVEL002
 370
25
 100
AcDbLine
   6
CONTINUOUS
  62
1
  10
 673.90000000000
  20
 522.55000000000
  30
0.0
  11
 681.10000000000
  21
 522.55000000000
  31
0.0
   0
LINE
   5
2CD
 100
AcDbEntity
   8
LEVEL002
 370
25
 100
AcDbLine
   6
CONTINUOUS
  62
1
  10
 681.10000000000
  20
 522.55000000000
  30
0.0
  11
 681.10000000000
  21
 526.15000000000
  31
0.0
   0
LINE
   5
2CE
 100
AcDbEntity
   8
LEVEL002
 370
25
 100
AcDbLine
   6
CONTINUOUS
  62
1
  10
 681.10000000000
  20
 526.15000000000
  30
0.0
  11
 688.30000000000
  21
 526.15000000000
  31
0.0
   0
ARC
   5
2CF
 100
AcDbEntity
   8
LEVEL002
 370
25
   6
CONTINUOUS
  62
1
 100
AcDbCircle
  10
 688.30000000000
  20
 535.15000000000
  30
0.0
  40
 9.0000000000000
 100
AcDbArc
  50
 270.00000000000
  51
 90.000000000000
   0
LINE
   5
2D0
 100
AcDbEntity
   8
LEVEL002
 370
25
 100
AcDbLine
   6
CONTINUOUS
  62
1
  10
 688.30000000000
  20
 544.15000000000
  30
0.0
  11
 673.90000000000
  21
 544.15000000000
  31
0.0
   0
LINE
   5
2D1
 100
AcDbEntity
   8
LEVEL002
 370
25
 100
AcDbLine
   6
CONTINUOUS
  62
1
  10
 681.10000000000
  20
 536.95000000000
  30
0.0
  11
 681.10000000000
  21
 533.35000000000
  31
0.0
   0
LINE
   5
2D2
 100
AcDbEntity
   8
LEVEL002
 370
25
 100
AcDbLine
   6
CONTINUOUS
  62
1
  10
 681.10000000000
  20
 533.35000000000
  30
0.0
  11
 688.30000000000
  21
 533.35000000000
  31
0.0
   0
ARC
   5
2D3
 100
AcDbEntity
   8
LEVEL002
 370
25
   6
CONTINUOUS
  62
1
 100
AcDbCircle
  10
 688.30000000000
  20
 535.15000000000
  30
0.0
  40
 1.8000000000000
 100
AcDbArc
  50
 270.00000000000
  51
 90.000000000000
   0
LINE
   5
2D4
 100
AcDbEntity
   8
LEVEL002
 370
25
 100
AcDbLine
   6
CONTINUOUS
  62
1
  10
 688.30000000000
  20
 536.95000000000
  30
0.0
  11
 681.10000000000
  21
 536.95000000000
  31
0.0
   0
LINE
   5
2D5
 100
AcDbEntity
   8
LEVEL002
 370
25
 100
AcDbLine
   6
CONTINUOUS
  62
1
  10
 706.30000000000
  20
 544.15000000000
  30
0.0
  11
 691.90000000000
  21
 522.55000000000
  31
0.0
   0
LINE
   5
2D6
 100
AcDbEntity
   8
LEVEL002
 370
25
 100
AcDbLine
   6
CONTINUOUS
  62
1
  10
 691.90000000000
  20
 522.55000000000
  30
0.0
  11
 702.70000000000
  21
 522.55000000000
  31
0.0
   0
LINE
   5
2D7
 100
AcDbEntity
   8
LEVEL002
 370
25
 100
AcDbLine
   6
CONTINUOUS
  62
1
  10
 702.70000000000
  20
 522.55000000000
  30
0.0
  11
 717.10000000000
  21
 544.15000000000
  31
0.0
   0
LINE
   5
2D8
 100
AcDbEntity
   8
LEVEL002
 370
25
 100
AcDbLine
   6
CONTINUOUS
  62
1
  10
 717.10000000000
  20
 544.15000000000
  30
0.0
  11
 706.30000000000
  21
 544.15000000000
  31
0.0
   0
LINE
   5
2D9
 100
AcDbEntity
   8
LEVEL002
 370
25
 100
AcDbLine
   6
CONTINUOUS
  62
1
  10
 714.70000000000
  20
 522.55000000000
  30
0.0
  11
 714.70000000000
  21
 536.22333846940
  31
0.0
   0
LINE
   5
2DA
 100
AcDbEntity
   8
LEVEL002
 370
25
 100
AcDbLine
   6
CONTINUOUS
  62
1
  10
 714.70000000000
  20
 536.22333846940
  30
0.0
  11
 705.58444102040
  21
 522.55000000000
  31
0.0
   0
LINE
   5
2DB
 100
AcDbEntity
   8
LEVEL002
 370
25
 100
AcDbLine
   6
CONTINUOUS
  62
1
  10
 705.58444102040
  20
 522.55000000000
  30
0.0
  11
 714.70000000000
  21
 522.55000000000
  31
0.0
   0
LINE
   5
2DC
 100
AcDbEntity
   8
LEVEL002
 370
25
 100
AcDbLine
   6
CONTINUOUS
  62
1
  10
 717.10000000000
  20
 522.55000000000
  30
0.0
  11
 742.30000000000
  21
 522.55000000000
  31
0.0
   0
LINE
   5
2DD
 100
AcDbEntity
   8
LEVEL002
 370
25
 100
AcDbLine
   6
CONTINUOUS
  62
1
  10
 742.30000000000
  20
 522.55000000000
  30
0.0
  11
 742.30000000000
  21
 536.95000000000
  31
0.0
   0
LINE
   5
2DE
 100
AcDbEntity
   8
LEVEL002
 370
25
 100
AcDbLine
   6
CONTINUOUS
  62
1
  10
 742.30000000000
  20
 536.95000000000
  30
0.0
  11
 749.50000000000
  21
 536.95000000000
  31
0.0
   0
LINE
   5
2DF
 100
AcDbEntity
   8
LEVEL002
 370
25
 100
AcDbLine
   6
CONTINUOUS
  62
1
  10
 749.50000000000
  20
 536.95000000000
  30
0.0
  11
 749.50000000000
  21
 522.55000000000
  31
0.0
   0
LINE
   5
2E0
 100
AcDbEntity
   8
LEVEL002
 370
25
 100
AcDbLine
   6
CONTINUOUS
  62
1
  10
 749.50000000000
  20
 522.55000000000
  30
0.0
  11
 771.10000000000
  21
 522.55000000000
  31
0.0
   0
LINE
   5
2E1
 100
AcDbEntity
   8
LEVEL002
 370
25
 100
AcDbLine
   6
CONTINUOUS
  62
1
  10
 771.10000000000
  20
 522.55000000000
  30
0.0
  11
 771.10000000000
  21
 529.75000000000
  31
0.0
   0
LINE
   5
2E2
 100
AcDbEntity
   8
LEVEL002
 370
25
 100
AcDbLine
   6
CONTINUOUS
  62
1
  10
 771.10000000000
  20
 529.75000000000
  30
0.0
  11
 756.70000000000
  21
 529.75000000000
  31
0.0
   0
LINE
   5
2E3
 100
AcDbEntity
   8
LEVEL002
 370
25
 100
AcDbLine
   6
CONTINUOUS
  62
1
  10
 756.70000000000
  20
 529.75000000000
  30
0.0
  11
 756.70000000000
  21
 531.55000000000
  31
0.0
   0
LINE
   5
2E4
 100
AcDbEntity
   8
LEVEL002
 370
25
 100
AcDbLine
   6
CONTINUOUS
  62
1
  10
 756.70000000000
  20
 531.55000000000
  30
0.0
  11
 769.30000000000
  21
 531.55000000000
  31
0.0
   0
LINE
   5
2E5
 100
AcDbEntity
   8
LEVEL002
 370
25
 100
AcDbLine
   6
CONTINUOUS
  62
1
  10
 769.30000000000
  20
 531.55000000000
  30
0.0
  11
 769.30000000000
  21
 535.15000000000
  31
0.0
   0
LINE
   5
2E6
 100
AcDbEntity
   8
LEVEL002
 370
25
 100
AcDbLine
   6
CONTINUOUS
  62
1
  10
 769.30000000000
  20
 535.15000000000
  30
0.0
  11
 756.70000000000
  21
 535.15000000000
  31
0.0
   0
LINE
   5
2E7
 100
AcDbEntity
   8
LEVEL002
 370
25
 100
AcDbLine
   6
CONTINUOUS
  62
1
  10
 756.70000000000
  20
 535.15000000000
  30
0.0
  11
 756.70000000000
  21
 536.95000000000
  31
0.0
   0
LINE
   5
2E8
 100
AcDbEntity
   8
LEVEL002
 370
25
 100
AcDbLine
   6
CONTINUOUS
  62
1
  10
 756.70000000000
  20
 536.95000000000
  30
0.0
  11
 771.10000000000
  21
 536.95000000000
  31
0.0
   0
LINE
   5
2E9
 100
AcDbEntity
   8
LEVEL002
 370
25
 100
AcDbLine
   6
CONTINUOUS
  62
1
  10
 771.10000000000
  20
 536.95000000000
  30
0.0
  11
 771.10000000000
  21
 544.15000000000
  31
0.0
   0
LINE
   5
2EA
 100
AcDbEntity
   8
LEVEL002
 370
25
 100
AcDbLine
   6
CONTINUOUS
  62
1
  10
 771.10000000000
  20
 544.15000000000
  30
0.0
  11
 727.90000000000
  21
 544.15000000000
  31
0.0
   0
LINE
   5
2EB
 100
AcDbEntity
   8
LEVEL002
 370
25
 100
AcDbLine
   6
CONTINUOUS
  62
1
  10
 727.90000000000
  20
 544.15000000000
  30
0.0
  11
 727.90000000000
  21
 536.95000000000
  31
0.0
   0
LINE
   5
2EC
 100
AcDbEntity
   8
LEVEL002
 370
25
 100
AcDbLine
   6
CONTINUOUS
  62
1
  10
 727.90000000000
  20
 536.95000000000
  30
0.0
  11
 735.10000000000
  21
 536.95000000000
  31
0.0
   0
LINE
   5
2ED
 100
AcDbEntity
   8
LEVEL002
 370
25
 100
AcDbLine
   6
CONTINUOUS
  62
1
  10
 735.10000000000
  20
 536.95000000000
  30
0.0
  11
 735.10000000000
  21
 529.75000000000
  31
0.0
   0
LINE
   5
2EE
 100
AcDbEntity
   8
LEVEL002
 370
25
 100
AcDbLine
   6
CONTINUOUS
  62
1
  10
 735.10000000000
  20
 529.75000000000
  30
0.0
  11
 724.30000000000
  21
 529.75000000000
  31
0.0
   0
LINE
   5
2EF
 100
AcDbEntity
   8
LEVEL002
 370
25
 100
AcDbLine
   6
CONTINUOUS
  62
1
  10
 724.30000000000
  20
 529.75000000000
  30
0.0
  11
 724.30000000000
  21
 544.15000000000
  31
0.0
   0
LINE
   5
2F0
 100
AcDbEntity
   8
LEVEL002
 370
25
 100
AcDbLine
   6
CONTINUOUS
  62
1
  10
 724.30000000000
  20
 544.15000000000
  30
0.0
  11
 717.10000000000
  21
 544.15000000000
  31
0.0
   0
LINE
   5
2F1
 100
AcDbEntity
   8
LEVEL002
 370
25
 100
AcDbLine
   6
CONTINUOUS
  62
1
  10
 717.10000000000
  20
 544.15000000000
  30
0.0
  11
 717.10000000000
  21
 522.55000000000
  31
0.0
   0
LINE
   5
2F2
 100
AcDbEntity
   8
LEVEL002
 370
25
 100
AcDbLine
   6
CONTINUOUS
  62
1
  10
 781.90000000000
  20
 522.55000000000
  30
0.0
  11
 792.70000000000
  21
 522.55000000000
  31
0.0
   0
LINE
   5
2F3
 100
AcDbEntity
   8
LEVEL002
 370
25
 100
AcDbLine
   6
CONTINUOUS
  62
1
  10
 792.70000000000
  20
 522.55000000000
  30
0.0
  11
 792.70000000000
  21
 529.75000000000
  31
0.0
   0
LINE
   5
2F4
 100
AcDbEntity
   8
LEVEL002
 370
25
 100
AcDbLine
   6
CONTINUOUS
  62
1
  10
 792.70000000000
  20
 529.75000000000
  30
0.0
  11
 781.90000000000
  21
 529.75000000000
  31
0.0
   0
ARC
   5
2F5
 100
AcDbEntity
   8
LEVEL002
 370
25
   6
CONTINUOUS
  62
1
 100
AcDbCircle
  10
 781.90000000000
  20
 533.35000000000
  30
0.0
  40
 3.6000000000000
 100
AcDbArc
  50
 90.000000000000
  51
 270.00000000000
   0
LINE
   5
2F6
 100
AcDbEntity
   8
LEVEL002
 370
25
 100
AcDbLine
   6
CONTINUOUS
  62
1
  10
 781.90000000000
  20
 536.95000000000
  30
0.0
  11
 792.70000000000
  21
 536.95000000000
  31
0.0
   0
LINE
   5
2F7
 100
AcDbEntity
   8
LEVEL002
 370
25
 100
AcDbLine
   6
CONTINUOUS
  62
1
  10
 792.70000000000
  20
 536.95000000000
  30
0.0
  11
 792.70000000000
  21
 544.15000000000
  31
0.0
   0
LINE
   5
2F8
 100
AcDbEntity
   8
LEVEL002
 370
25
 100
AcDbLine
   6
CONTINUOUS
  62
1
  10
 792.70000000000
  20
 544.15000000000
  30
0.0
  11
 781.90000000000
  21
 544.15000000000
  31
0.0
   0
ARC
   5
2F9
 100
AcDbEntity
   8
LEVEL002
 370
25
   6
CONTINUOUS
  62
1
 100
AcDbCircle
  10
 781.90000000000
  20
 533.35000000000
  30
0.0
  40
 10.800000000000
 100
AcDbArc
  50
 90.000000000000
  51
 270.00000000000
   0
LINE
   5
2FA
 100
AcDbEntity
   8
LEVEL002
 370
25
 100
AcDbLine
   6
CONTINUOUS
  62
1
  10
 666.70000000000
  20
 527.35000000000
  30
0.0
  11
 657.70000000000
  21
 541.75000000000
  31
0.0
   0
LINE
   5
2FB
 100
AcDbEntity
   8
LEVEL002
 370
25
 100
AcDbLine
   6
CONTINUOUS
  62
1
  10
 657.70000000000
  20
 541.75000000000
  30
0.0
  11
 666.70000000000
  21
 541.75000000000
  31
0.0
   0
LINE
   5
2FC
 100
AcDbEntity
   8
LEVEL002
 370
25
 100
AcDbLine
   6
CONTINUOUS
  62
1
  10
 666.70000000000
  20
 541.75000000000
  30
0.0
  11
 666.70000000000
  21
 527.35000000000
  31
0.0
   0
LINE
   5
2FD
 100
AcDbEntity
   8
LEVEL002
 370
25
 100
AcDbLine
   6
CONTINUOUS
  62
1
  10
 657.70000000000
  20
 541.75000000000
  30
0.0
  11
 666.70000000000
  21
 527.35000000000
  31
0.0
   0
LINE
   5
2FE
 100
AcDbEntity
   8
LEVEL002
 370
25
 100
AcDbLine
   6
CONTINUOUS
  62
1
  10
 666.70000000000
  20
 527.35000000000
  30
0.0
  11
 666.70000000000
  21
 541.75000000000
  31
0.0
   0
LINE
   5
2FF
 100
AcDbEntity
   8
LEVEL002
 370
25
 100
AcDbLine
   6
CONTINUOUS
  62
1
  10
 666.70000000000
  20
 541.75000000000
  30
0.0
  11
 657.70000000000
  21
 541.75000000000
  31
0.0
   0
LINE
   5
300
 100
AcDbEntity
   8
LEVEL002
 370
25
 100
AcDbLine
   6
CONTINUOUS
  62
1
  10
 638.10000000000
  20
 560.95000000000
  30
0.0
  11
 625.30000000000
  21
 541.75000000000
  31
0.0
   0
LINE
   5
301
 100
AcDbEntity
   8
LEVEL002
 370
25
 100
AcDbLine
   6
CONTINUOUS
  62
1
  10
 625.30000000000
  20
 541.75000000000
  30
0.0
  11
 638.10000000000
  21
 522.55000000000
  31
0.0
   0
LINE
   5
302
 100
AcDbEntity
   8
LEVEL002
 370
25
 100
AcDbLine
   6
CONTINUOUS
  62
1
  10
 648.90000000000
  20
 522.55000000000
  30
0.0
  11
 636.10000000000
  21
 541.75000000000
  31
0.0
   0
LINE
   5
303
 100
AcDbEntity
   8
LEVEL002
 370
25
 100
AcDbLine
   6
CONTINUOUS
  62
1
  10
 636.10000000000
  20
 541.75000000000
  30
0.0
  11
 648.90000000000
  21
 560.95000000000
  31
0.0
   0
LINE
   5
304
 100
AcDbEntity
   8
LEVEL002
 370
25
 100
AcDbLine
   6
CONTINUOUS
  62
1
  10
 654.30000000000
  20
 560.95000000000
  30
0.0
  11
 641.50000000000
  21
 541.75000000000
  31
0.0
   0
LINE
   5
305
 100
AcDbEntity
   8
LEVEL002
 370
25
 100
AcDbLine
   6
CONTINUOUS
  62
1
  10
 641.50000000000
  20
 541.75000000000
  30
0.0
  11
 654.30000000000
  21
 522.55000000000
  31
0.0
   0
LINE
   5
306
 100
AcDbEntity
   8
LEVEL002
 370
25
 100
AcDbLine
   6
CONTINUOUS
  62
1
  10
 665.10000000000
  20
 522.55000000000
  30
0.0
  11
 652.30000000000
  21
 541.75000000000
  31
0.0
   0
LINE
   5
307
 100
AcDbEntity
   8
LEVEL002
 370
25
 100
AcDbLine
   6
CONTINUOUS
  62
1
  10
 652.30000000000
  20
 541.75000000000
  30
0.0
  11
 665.10000000000
  21
 560.95000000000
  31
0.0
   0
LINE
   5
308
 100
AcDbEntity
   8
LEVEL002
 370
25
 100
AcDbLine
   6
CONTINUOUS
  62
1
  10
 638.10000000000
  20
 522.55000000000
  30
0.0
  11
 625.30000000000
  21
 541.75000000000
  31
0.0
   0
LINE
   5
309
 100
AcDbEntity
   8
LEVEL002
 370
25
 100
AcDbLine
   6
CONTINUOUS
  62
1
  10
 625.30000000000
  20
 541.75000000000
  30
0.0
  11
 638.10000000000
  21
 560.95000000000
  31
0.0
   0
LINE
   5
30A
 100
AcDbEntity
   8
LEVEL002
 370
25
 100
AcDbLine
   6
CONTINUOUS
  62
1
  10
 638.10000000000
  20
 560.95000000000
  30
0.0
  11
 648.90000000000
  21
 560.95000000000
  31
0.0
   0
LINE
   5
30B
 100
AcDbEntity
   8
LEVEL002
 370
25
 100
AcDbLine
   6
CONTINUOUS
  62
1
  10
 648.90000000000
  20
 560.95000000000
  30
0.0
  11
 636.10000000000
  21
 541.75000000000
  31
0.0
   0
LINE
   5
30C
 100
AcDbEntity
   8
LEVEL002
 370
25
 100
AcDbLine
   6
CONTINUOUS
  62
1
  10
 636.10000000000
  20
 541.75000000000
  30
0.0
  11
 648.90000000000
  21
 522.55000000000
  31
0.0
   0
LINE
   5
30D
 100
AcDbEntity
   8
LEVEL002
 370
25
 100
AcDbLine
   6
CONTINUOUS
  62
1
  10
 648.90000000000
  20
 522.55000000000
  30
0.0
  11
 638.10000000000
  21
 522.55000000000
  31
0.0
   0
LINE
   5
30E
 100
AcDbEntity
   8
LEVEL002
 370
25
 100
AcDbLine
   6
CONTINUOUS
  62
1
  10
 654.30000000000
  20
 522.55000000000
  30
0.0
  11
 641.50000000000
  21
 541.75000000000
  31
0.0
   0
LINE
   5
30F
 100
AcDbEntity
   8
LEVEL002
 370
25
 100
AcDbLine
   6
CONTINUOUS
  62
1
  10
 641.50000000000
  20
 541.75000000000
  30
0.0
  11
 654.30000000000
  21
 560.95000000000
  31
0.0
   0
LINE
   5
310
 100
AcDbEntity
   8
LEVEL002
 370
25
 100
AcDbLine
   6
CONTINUOUS
  62
1
  10
 654.30000000000
  20
 560.95000000000
  30
0.0
  11
 665.10000000000
  21
 560.95000000000
  31
0.0
   0
LINE
   5
311
 100
AcDbEntity
   8
LEVEL002
 370
25
 100
AcDbLine
   6
CONTINUOUS
  62
1
  10
 665.10000000000
  20
 560.95000000000
  30
0.0
  11
 652.30000000000
  21
 541.75000000000
  31
0.0
   0
LINE
   5
312
 100
AcDbEntity
   8
LEVEL002
 370
25
 100
AcDbLine
   6
CONTINUOUS
  62
1
  10
 652.30000000000
  20
 541.75000000000
  30
0.0
  11
 665.10000000000
  21
 522.55000000000
  31
0.0
   0
LINE
   5
313
 100
AcDbEntity
   8
LEVEL002
 370
25
 100
AcDbLine
   6
CONTINUOUS
  62
1
  10
 665.10000000000
  20
 522.55000000000
  30
0.0
  11
 654.30000000000
  21
 522.55000000000
  31
0.0
   0
HATCH
   5
314
 100
AcDbEntity
   8
LEVEL001
  62
1
 100
AcDbHatch
  10
0.0
  20
0.0
  30
0.0
 210
0.0
 220
0.0
 230
 1.0000000000000
   2
SOLID
  70
1
  71
1
  91
7
  92
1
  93
6
  72
1
  10
 648.90000000000
  20
 560.95000000000
  11
 636.10000000000
  21
 541.75000000000
  72
1
  10
 636.10000000000
  20
 541.75000000000
  11
 648.90000000000
  21
 522.55000000000
  72
1
  10
 648.90000000000
  20
 522.55000000000
  11
 638.10000000000
  21
 522.55000000000
  72
1
  10
 638.10000000000
  20
 522.55000000000
  11
 625.30000000000
  21
 541.75000000000
  72
1
  10
 625.30000000000
  20
 541.75000000000
  11
 638.10000000000
  21
 560.95000000000
  72
1
  10
 638.10000000000
  20
 560.95000000000
  11
 648.90000000000
  21
 560.95000000000
  97
1
 330

  92
16
  93
6
  72
1
  10
 654.30000000000
  20
 560.95000000000
  11
 665.10000000000
  21
 560.95000000000
  72
1
  10
 665.10000000000
  20
 560.95000000000
  11
 652.30000000000
  21
 541.75000000000
  72
1
  10
 652.30000000000
  20
 541.75000000000
  11
 665.10000000000
  21
 522.55000000000
  72
1
  10
 665.10000000000
  20
 522.55000000000
  11
 654.30000000000
  21
 522.55000000000
  72
1
  10
 654.30000000000
  20
 522.55000000000
  11
 641.50000000000
  21
 541.75000000000
  72
1
  10
 641.50000000000
  20
 541.75000000000
  11
 654.30000000000
  21
 560.95000000000
  97
1
 330

  92
16
  93
3
  72
1
  10
 666.70000000000
  20
 541.75000000000
  11
 657.70000000000
  21
 541.75000000000
  72
1
  10
 657.70000000000
  20
 541.75000000000
  11
 666.70000000000
  21
 527.35000000000
  72
1
  10
 666.70000000000
  20
 527.35000000000
  11
 666.70000000000
  21
 541.75000000000
  97
1
 330

  92
16
  93
6
  72
1
  10
 673.90000000000
  20
 544.15000000000
  11
 688.30000000000
  21
 544.15000000000
  72
2
  10
 688.30000000000
  20
 535.15000000000
  40
 9.0000000000000
  50
 270.00000000000
  51
 90.000000000000
  73
0
  72
1
  10
 688.30000000000
  20
 526.15000000000
  11
 681.10000000000
  21
 526.15000000000
  72
1
  10
 681.10000000000
  20
 526.15000000000
  11
 681.10000000000
  21
 522.55000000000
  72
1
  10
 681.10000000000
  20
 522.55000000000
  11
 673.90000000000
  21
 522.55000000000
  72
1
  10
 673.90000000000
  20
 522.55000000000
  11
 673.90000000000
  21
 544.15000000000
  97
1
 330

  92
16
  93
4
  72
1
  10
 688.30000000000
  20
 536.95000000000
  11
 681.10000000000
  21
 536.95000000000
  72
1
  10
 681.10000000000
  20
 536.95000000000
  11
 681.10000000000
  21
 533.35000000000
  72
1
  10
 681.10000000000
  20
 533.35000000000
  11
 688.30000000000
  21
 533.35000000000
  72
2
  10
 688.30000000000
  20
 535.15000000000
  40
 1.8000000000000
  50
 270.00000000000
  51
 90.000000000000
  73
1
  97
1
 330

  92
16
  93
4
  72
1
  10
 691.90000000000
  20
 522.55000000000
  11
 706.30000000000
  21
 544.15000000000
  72
1
  10
 706.30000000000
  20
 544.15000000000
  11
 717.10000000000
  21
 544.15000000000
  72
1
  10
 717.10000000000
  20
 544.15000000000
  11
 702.70000000000
  21
 522.55000000000
  72
1
  10
 702.70000000000
  20
 522.55000000000
  11
 691.90000000000
  21
 522.55000000000
  97
1
 330

  92
16
  93
3
  72
1
  10
 714.70000000000
  20
 536.22333846940
  11
 705.58444102040
  21
 522.55000000000
  72
1
  10
 705.58444102040
  20
 522.55000000000
  11
 714.70000000000
  21
 522.55000000000
  72
1
  10
 714.70000000000
  20
 522.55000000000
  11
 714.70000000000
  21
 536.22333846940
  97
1
 330

  75
0
  76
1
  98
1
  10
0.0
  20
0.0
   0
HATCH
   5
315
 100
AcDbEntity
   8
LEVEL001
  62
1
 100
AcDbHatch
  10
0.0
  20
0.0
  30
0.0
 210
0.0
 220
0.0
 230
 1.0000000000000
   2
SOLID
  70
1
  71
1
  91
1
  92
1
  93
22
  72
1
  10
 717.10000000000
  20
 544.15000000000
  11
 724.30000000000
  21
 544.15000000000
  72
1
  10
 724.30000000000
  20
 544.15000000000
  11
 724.30000000000
  21
 529.75000000000
  72
1
  10
 724.30000000000
  20
 529.75000000000
  11
 735.10000000000
  21
 529.75000000000
  72
1
  10
 735.10000000000
  20
 529.75000000000
  11
 735.10000000000
  21
 536.95000000000
  72
1
  10
 735.10000000000
  20
 536.95000000000
  11
 727.90000000000
  21
 536.95000000000
  72
1
  10
 727.90000000000
  20
 536.95000000000
  11
 727.90000000000
  21
 544.15000000000
  72
1
  10
 727.90000000000
  20
 544.15000000000
  11
 771.10000000000
  21
 544.15000000000
  72
1
  10
 771.10000000000
  20
 544.15000000000
  11
 771.10000000000
  21
 536.95000000000
  72
1
  10
 771.10000000000
  20
 536.95000000000
  11
 756.70000000000
  21
 536.95000000000
  72
1
  10
 756.70000000000
  20
 536.95000000000
  11
 756.70000000000
  21
 535.15000000000
  72
1
  10
 756.70000000000
  20
 535.15000000000
  11
 769.30000000000
  21
 535.15000000000
  72
1
  10
 769.30000000000
  20
 535.15000000000
  11
 769.30000000000
  21
 531.55000000000
  72
1
  10
 769.30000000000
  20
 531.55000000000
  11
 756.70000000000
  21
 531.55000000000
  72
1
  10
 756.70000000000
  20
 531.55000000000
  11
 756.70000000000
  21
 529.75000000000
  72
1
  10
 756.70000000000
  20
 529.75000000000
  11
 771.10000000000
  21
 529.75000000000
  72
1
  10
 771.10000000000
  20
 529.75000000000
  11
 771.10000000000
  21
 522.55000000000
  72
1
  10
 771.10000000000
  20
 522.55000000000
  11
 749.50000000000
  21
 522.55000000000
  72
1
  10
 749.50000000000
  20
 522.55000000000
  11
 749.50000000000
  21
 536.95000000000
  72
1
  10
 749.50000000000
  20
 536.95000000000
  11
 742.30000000000
  21
 536.95000000000
  72
1
  10
 742.30000000000
  20
 536.95000000000
  11
 742.30000000000
  21
 522.55000000000
  72
1
  10
 742.30000000000
  20
 522.55000000000
  11
 717.10000000000
  21
 522.55000000000
  72
1
  10
 717.10000000000
  20
 522.55000000000
  11
 717.10000000000
  21
 544.15000000000
  97
1
 330

  75
0
  76
1
  98
1
  10
0.0
  20
0.0
   0
HATCH
   5
316
 100
AcDbEntity
   8
LEVEL001
  62
1
 100
AcDbHatch
  10
0.0
  20
0.0
  30
0.0
 210
0.0
 220
0.0
 230
 1.0000000000000
   2
SOLID
  70
1
  71
1
  91
1
  92
1
  93
8
  72
1
  10
 792.70000000000
  20
 544.15000000000
  11
 781.90000000000
  21
 544.15000000000
  72
2
  10
 781.90000000000
  20
 533.35000000000
  40
 10.800000000000
  50
 90.000000000000
  51
 270.00000000000
  73
1
  72
1
  10
 781.90000000000
  20
 522.55000000000
  11
 792.70000000000
  21
 522.55000000000
  72
1
  10
 792.70000000000
  20
 522.55000000000
  11
 792.70000000000
  21
 529.75000000000
  72
1
  10
 792.70000000000
  20
 529.75000000000
  11
 781.90000000000
  21
 529.75000000000
  72
2
  10
 781.90000000000
  20
 533.35000000000
  40
 3.6000000000000
  50
 90.000000000000
  51
 270.00000000000
  73
0
  72
1
  10
 781.90000000000
  20
 536.95000000000
  11
 792.70000000000
  21
 536.95000000000
  72
1
  10
 792.70000000000
  20
 536.95000000000
  11
 792.70000000000
  21
 544.15000000000
  97
1
 330

  75
0
  76
1
  98
1
  10
0.0
  20
0.0
   0
MTEXT
   5
318
 100
AcDbEntity
   8
LEVEL002
 370
25
  62
1
 100
AcDbMText
  10
 673.90000000000
  20
 547.75000000000
  30
0.0
  40
 7.5000000000000
  41
0.0
  71
7
  72
1
   1
\T1.000000;ケージーパルテック株式会社
   7
GMM003
  44
 0.79999984000003
   0
ARC
   5
319
 100
AcDbEntity
   8
LEVEL002
 370
30
   6
CONTINUOUS
  62
7
 100
AcDbCircle
  10
 80.249999999900
  20
 475.83356191404
  30
0.0
  40
 2.0000000000000
 100
AcDbArc
  50
 89.999999999993
  51
 180.00000000000
   0
ARC
   5
31A
 100
AcDbEntity
   8
LEVEL002
 370
30
   6
CONTINUOUS
  62
7
 100
AcDbCircle
  10
 92.421572875154
  20
 475.83356191404
  30
0.0
  40
 2.0000000000000
 100
AcDbArc
  50
 44.999999999991
  51
 89.999999999975
   0
LINE
   5
31B
 100
AcDbEntity
   8
LEVEL002
 370
30
 100
AcDbLine
   6
CONTINUOUS
  62
7
  10
 93.835786437527
  20
 477.24777547641
  30
0.0
  11
 97.664213562273
  21
 473.41934835166
  31
0.0
   0
ARC
   5
31C
 100
AcDbEntity
   8
LEVEL002
 370
30
   6
CONTINUOUS
  62
7
 100
AcDbCircle
  10
 99.078427124647
  20
 474.83356191404
  30
0.0
  40
 2.0000000000000
 100
AcDbArc
  50
 224.99999999998
  51
 270.00000000000
   0
LINE
   5
31D
 100
AcDbEntity
   8
LEVEL002
 370
30
 100
AcDbLine
   6
CONTINUOUS
  62
7
  10
 99.078427124647
  20
 472.83356191404
  30
0.0
  11
 107.42157287515
  21
 472.83356191404
  31
0.0
   0
ARC
   5
31E
 100
AcDbEntity
   8
LEVEL002
 370
30
   6
CONTINUOUS
  62
7
 100
AcDbCircle
  10
 107.42157287515
  20
 474.83356191404
  30
0.0
  40
 2.0000000000000
 100
AcDbArc
  50
 270.00000000001
  51
 315.00000000001
   0
LINE
   5
31F
 100
AcDbEntity
   8
LEVEL002
 370
30
 100
AcDbLine
   6
CONTINUOUS
  62
7
  10
 108.83578643753
  20
 473.41934835166
  30
0.0
  11
 112.66421356227
  21
 477.24777547641
  31
0.0
   0
ARC
   5
320
 100
AcDbEntity
   8
LEVEL002
 370
30
   6
CONTINUOUS
  62
7
 100
AcDbCircle
  10
 114.07842712465
  20
 475.83356191404
  30
0.0
  40
 2.0000000000000
 100
AcDbArc
  50
 90.000000000045
  51
 135.00000000000
   0
LINE
   5
321
 100
AcDbEntity
   8
LEVEL002
 370
30
 100
AcDbLine
   6
CONTINUOUS
  62
7
  10
 114.07842712465
  20
 477.83356191404
  30
0.0
  11
 126.42157287516
  21
 477.83356191404
  31
0.0
   0
LINE
   5
322
 100
AcDbEntity
   8
LEVEL002
 370
30
 100
AcDbLine
   6
CONTINUOUS
  62
7
  10
 80.249999999900
  20
 477.83356191404
  30
0.0
  11
 92.421572875155
  21
 477.83356191404
  31
0.0
   0
ARC
   5
323
 100
AcDbEntity
   8
LEVEL002
 370
30
   6
CONTINUOUS
  62
7
 100
AcDbCircle
  10
 126.24999999990
  20
 475.83356191404
  30
0.0
  40
 2.0000000000000
 100
AcDbArc
  50
0.0
  51
 90.000000000000
   0
ARC
   5
324
 100
AcDbEntity
   8
LEVEL002
 370
30
   6
CONTINUOUS
  62
7
 100
AcDbCircle
  10
 99.078427124647
  20
 474.83356191404
  30
0.0
  40
 3.2000000000000
 100
AcDbArc
  50
 224.99999999998
  51
 270.00000000000
   0
ARC
   5
325
 100
AcDbEntity
   8
LEVEL002
 370
30
   6
CONTINUOUS
  62
7
 100
AcDbCircle
  10
 107.42157287515
  20
 474.83356191404
  30
0.0
  40
 3.2000000000000
 100
AcDbArc
  50
 270.00000000001
  51
 315.00000000001
   0
LINE
   5
326
 100
AcDbEntity
   8
LEVEL002
 370
30
 100
AcDbLine
   6
CONTINUOUS
  62
7
  10
 99.078427124647
  20
 471.63356191404
  30
0.0
  11
 107.42157287515
  21
 471.63356191404
  31
0.0
   0
ARC
   5
327
 100
AcDbEntity
   8
LEVEL002
 370
30
   6
CONTINUOUS
  62
7
 100
AcDbCircle
  10
 126.54999999990
  20
 476.13356191404
  30
0.0
  40
 0.50000000000000
 100
AcDbArc
  50
0.0
  51
 90.000000000000
   0
ARC
   5
328
 100
AcDbEntity
   8
LEVEL002
 370
30
   6
CONTINUOUS
  62
7
 100
AcDbCircle
  10
 79.949999999899
  20
 476.13356191404
  30
0.0
  40
 0.50000000000000
 100
AcDbArc
  50
 89.999999999844
  51
 180.00000000000
   0
LINE
   5
329
 100
AcDbEntity
   8
LEVEL002
 370
30
 100
AcDbLine
   6
CONTINUOUS
  62
7
  10
 79.949999999900
  20
 476.63356191404
  30
0.0
  11
 92.338730162680
  21
 476.63356191404
  31
0.0
   0
ARC
   5
32A
 100
AcDbEntity
   8
LEVEL002
 370
30
   6
CONTINUOUS
  62
7
 100
AcDbCircle
  10
 92.338730162680
  20
 475.63356191404
  30
0.0
  40
 1.0000000000000
 100
AcDbArc
  50
 45.000000000065
  51
 90.000000000053
   0
LINE
   5
32B
 100
AcDbEntity
   8
LEVEL002
 370
30
 100
AcDbLine
   6
CONTINUOUS
  62
7
  10
 93.045836943866
  20
 476.34066869522
  30
0.0
  11
 96.815685424850
  21
 472.57082021424
  31
0.0
   0
LINE
   5
32C
 100
AcDbEntity
   8
LEVEL002
 370
30
 100
AcDbLine
   6
CONTINUOUS
  62
7
  10
 114.16126983712
  20
 476.63356191404
  30
0.0
  11
 126.54999999990
  21
 476.63356191404
  31
0.0
   0
ARC
   5
32D
 100
AcDbEntity
   8
LEVEL002
 370
30
   6
CONTINUOUS
  62
7
 100
AcDbCircle
  10
 114.16126983712
  20
 475.63356191404
  30
0.0
  40
 1.0000000000000
 100
AcDbArc
  50
 89.999999999934
  51
 134.99999999992
   0
LINE
   5
32E
 100
AcDbEntity
   8
LEVEL002
 370
30
 100
AcDbLine
   6
CONTINUOUS
  62
7
  10
 109.68431457495
  20
 472.57082021424
  30
0.0
  11
 113.45416305594
  21
 476.34066869522
  31
0.0
   0
LINE
   5
32F
 100
AcDbEntity
   8
LEVEL002
 370
30
 100
AcDbLine
   6
CONTINUOUS
  62
7
  10
 80.249999999900
  20
 457.83356191404
  30
0.0
  11
 88.249999999900
  21
 457.83356191404
  31
0.0
   0
LINE
   5
330
 100
AcDbEntity
   8
LEVEL002
 370
30
 100
AcDbLine
   6
CONTINUOUS
  62
7
  10
 88.249999999900
  20
 457.83356191404
  30
0.0
  11
 88.249999999900
  21
 459.03356191404
  31
0.0
   0
LINE
   5
331
 100
AcDbEntity
   8
LEVEL002
 370
30
 100
AcDbLine
   6
CONTINUOUS
  62
7
  10
 79.949999999900
  20
 459.03356191404
  30
0.0
  11
 88.249999999900
  21
 459.03356191404
  31
0.0
   0
LINE
   5
332
 100
AcDbEntity
   8
LEVEL002
 370
30
 100
AcDbLine
   6
CONTINUOUS
  62
7
  10
 118.24999999990
  20
 459.03356191404
  30
0.0
  11
 118.24999999990
  21
 457.83356191404
  31
0.0
   0
LINE
   5
333
 100
AcDbEntity
   8
LEVEL002
 370
30
 100
AcDbLine
   6
CONTINUOUS
  62
7
  10
 118.24999999990
  20
 457.83356191404
  30
0.0
  11
 126.24999999990
  21
 457.83356191404
  31
0.0
   0
LINE
   5
334
 100
AcDbEntity
   8
LEVEL002
 370
30
 100
AcDbLine
   6
CONTINUOUS
  62
7
  10
 118.24999999990
  20
 459.03356191404
  30
0.0
  11
 126.54999999990
  21
 459.03356191404
  31
0.0
   0
ARC
   5
335
 100
AcDbEntity
   8
LEVEL002
 370
30
   6
CONTINUOUS
  62
7
 100
AcDbCircle
  10
 126.24999999990
  20
 459.83356191404
  30
0.0
  40
 2.0000000000000
 100
AcDbArc
  50
 270.00000000000
  51
0.0
   0
ARC
   5
336
 100
AcDbEntity
   8
LEVEL002
 370
30
   6
CONTINUOUS
  62
7
 100
AcDbCircle
  10
 126.54999999990
  20
 459.53356191404
  30
0.0
  40
 0.50000000000000
 100
AcDbArc
  50
 270.00000000000
  51
0.0
   0
ARC
   5
337
 100
AcDbEntity
   8
LEVEL002
 370
30
   6
CONTINUOUS
  62
7
 100
AcDbCircle
  10
 80.249999999900
  20
 459.83356191404
  30
0.0
  40
 2.0000000000000
 100
AcDbArc
  50
 180.00000000000
  51
 270.00000000001
   0
ARC
   5
338
 100
AcDbEntity
   8
LEVEL002
 370
30
   6
CONTINUOUS
  62
7
 100
AcDbCircle
  10
 79.949999999899
  20
 459.53356191404
  30
0.0
  40
 0.50000000000000
 100
AcDbArc
  50
 180.00000000000
  51
 270.00000000014
   0
LINE
   5
339
 100
AcDbEntity
   8
LEVEL002
 370
30
 100
AcDbLine
   6
CONTINUOUS
  62
7
  10
 78.249999999899
  20
 459.83356191404
  30
0.0
  11
 78.249999999900
  21
 475.83356191404
  31
0.0
   0
LINE
   5
33A
 100
AcDbEntity
   8
LEVEL002
 370
30
 100
AcDbLine
   6
CONTINUOUS
  62
7
  10
 79.449999999899
  20
 459.53356191404
  30
0.0
  11
 79.449999999900
  21
 476.13356191404
  31
0.0
   0
LINE
   5
33B
 100
AcDbEntity
   8
LEVEL002
 370
30
 100
AcDbLine
   6
CONTINUOUS
  62
7
  10
 127.04999999990
  20
 476.13356191404
  30
0.0
  11
 127.04999999990
  21
 459.53356191404
  31
0.0
   0
LINE
   5
33C
 100
AcDbEntity
   8
LEVEL002
 370
30
 100
AcDbLine
   6
CONTINUOUS
  62
7
  10
 128.24999999990
  20
 475.83356191404
  30
0.0
  11
 128.24999999990
  21
 459.83356191404
  31
0.0
   0
LINE
   5
33D
 100
AcDbEntity
   8
LEVEL002
 370
25
 100
AcDbLine
   6
CONTINUOUS
  62
1
  10
 85.249999999900
  20
 459.03356191404
  30
0.0
  11
 85.249999999900
  21
 460.03356191404
  31
0.0
   0
LINE
   5
33E
 100
AcDbEntity
   8
LEVEL002
 370
25
 100
AcDbLine
   6
CONTINUOUS
  62
1
  10
 85.249999999900
  20
 460.03356191404
  30
0.0
  11
 121.24999999990
  21
 460.03356191404
  31
0.0
   0
LINE
   5
33F
 100
AcDbEntity
   8
LEVEL002
 370
25
 100
AcDbLine
   6
CONTINUOUS
  62
1
  10
 121.24999999990
  20
 460.03356191404
  30
0.0
  11
 121.24999999990
  21
 459.03356191404
  31
0.0
   0
LINE
   5
340
 100
AcDbEntity
   8
LEVEL002
 370
25
 100
AcDbLine
   6
CONTINUOUS
  62
1
  10
 118.24999999990
  20
 459.03356191404
  30
0.0
  11
 88.249999999900
  21
 459.03356191404
  31
0.0
   0
LINE
   5
341
 100
AcDbEntity
   8
LEVEL002
 370
15
 100
AcDbLine
   6
DASHDOT
  62
8
  10
 103.24999999990
  20
 454.45864613412
  30
0.0
  11
 103.24999999990
  21
 481.97689874659
  31
0.0
   0
DIMENSION
   5
342
 100
AcDbEntity
   8
LEVEL001
 370
15
   6
CONTINUOUS
  62
8
 100
AcDbDimension
   2
*D1
  10
 68.249999999900
  20
 477.83356191404
  30
0.0
  11
 68.249999999900
  21
 467.83356191404
  31
0.0
  70
0
   3
GMM001
 100
AcDbAlignedDimension
  13
 78.249999999899
  23
 457.83356191404
  33
0.0
  14
 78.249999999900
  24
 477.83356191404
  34
0.0
  50
 90.000000000000
 100
AcDbRotatedDimension
   0
LEADER
   5
343
 100
AcDbEntity
   8
LEVEL001
 370
15
   6
CONTINUOUS
  62
8
 100
AcDbLeader
   3
GMM002
  73
0
  74
0
  75
0
  40
 4.0000000000000
  41
 16.000000000000
  76
2
  10
 108.96620215635
  20
 459.03356191404
  30
0.0
  10
 116.17950701138
  20
 446.50116030818
  30
0.0
  77
8
 340
344
 213
0.0
 223
-1.0000000000000
 233
0.0
   0
MTEXT
   5
344
 102
{ACAD_REACTORS
 330
343
 102
}
 100
AcDbEntity
   8
LEVEL001
 370
15
  62
8
 100
AcDbMText
  10
 116.17950701138
  20
 447.50116030818
  30
0.0
  40
 4.0000000000000
  41
0.0
  71
7
  72
1
   1
\A1;アンカー
   7
GMM001
   0
DIMENSION
   5
345
 100
AcDbEntity
   8
LEVEL001
 370
15
   6
CONTINUOUS
  62
8
 100
AcDbDimension
   2
*D3
  10
 103.24999999990
  20
 487.83356191404
  30
0.0
  11
 90.749999999900
  21
 487.83356191404
  31
0.0
  70
0
   3
GMM001
 100
AcDbAlignedDimension
  13
 78.249999999900
  23
 475.83356191404
  33
0.0
  14
 103.24999999990
  24
 481.97689874659
  34
0.0
 100
AcDbRotatedDimension
   0
DIMENSION
   5
346
 100
AcDbEntity
   8
LEVEL001
 370
15
   6
CONTINUOUS
  62
8
 100
AcDbDimension
   2
*D4
  10
 128.24999999990
  20
 487.83356191404
  30
0.0
  11
 115.74999999990
  21
 487.83356191404
  31
0.0
  70
0
   3
GMM001
 100
AcDbAlignedDimension
  13
 103.24999999990
  23
 481.97689874659
  33
0.0
  14
 128.24999999990
  24
 475.83356191404
  34
0.0
 100
AcDbRotatedDimension
   0
DIMENSION
   5
347
 100
AcDbEntity
   8
LEVEL001
 370
15
   6
CONTINUOUS
  62
8
 100
AcDbDimension
   2
*D5
  10
 128.24999999990
  20
 497.83356191404
  30
0.0
  11
 103.24999999990
  21
 497.83356191404
  31
0.0
  70
0
   3
GMM001
 100
AcDbAlignedDimension
  13
 78.249999999900
  23
 487.83356191404
  33
0.0
  14
 128.24999999990
  24
 487.83356191404
  34
0.0
 100
AcDbRotatedDimension
   0
DIMENSION
   5
348
 100
AcDbEntity
   8
LEVEL001
 370
15
   6
CONTINUOUS
  62
8
 100
AcDbDimension
   2
*D6
  10
 138.24999999990
  20
 477.83356191404
  30
0.0
  11
 138.24999999990
  21
 480.69446968757
  31
0.0
  70
128
   3
GMM003
 100
AcDbAlignedDimension
  13
 107.42157287515
  23
 472.83356191404
  33
0.0
  14
 126.24999999990
  24
 477.83356191404
  34
0.0
  50
 90.000000000000
 100
AcDbRotatedDimension
   0
ARC
   5
349
 100
AcDbEntity
   8
LEVEL002
 370
30
   6
CONTINUOUS
  62
7
 100
AcDbCircle
  10
 203.22238893135
  20
 475.83356191404
  30
0.0
  40
 2.0000000000000
 100
AcDbArc
  50
 89.999999999980
  51
 180.00000000000
   0
ARC
   5
34A
 100
AcDbEntity
   8
LEVEL002
 370
30
   6
CONTINUOUS
  62
7
 100
AcDbCircle
  10
 202.92238893135
  20
 476.13356191404
  30
0.0
  40
 0.50000000000000
 100
AcDbArc
  50
 89.999999999792
  51
 180.00000000000
   0
LINE
   5
34B
 100
AcDbEntity
   8
LEVEL002
 370
30
 100
AcDbLine
   6
CONTINUOUS
  62
7
  10
 203.22238893135
  20
 457.83356191404
  30
0.0
  11
 211.22238893135
  21
 457.83356191404
  31
0.0
   0
LINE
   5
34C
 100
AcDbEntity
   8
LEVEL002
 370
30
 100
AcDbLine
   6
CONTINUOUS
  62
7
  10
 211.22238893135
  20
 457.83356191404
  30
0.0
  11
 211.22238893135
  21
 459.03356191404
  31
0.0
   0
LINE
   5
34D
 100
AcDbEntity
   8
LEVEL002
 370
30
 100
AcDbLine
   6
CONTINUOUS
  62
7
  10
 202.92238893135
  20
 459.03356191404
  30
0.0
  11
 211.22238893135
  21
 459.03356191404
  31
0.0
   0
ARC
   5
34E
 100
AcDbEntity
   8
LEVEL002
 370
30
   6
CONTINUOUS
  62
7
 100
AcDbCircle
  10
 203.22238893135
  20
 459.83356191404
  30
0.0
  40
 2.0000000000000
 100
AcDbArc
  50
 180.00000000000
  51
 270.00000000000
   0
ARC
   5
34F
 100
AcDbEntity
   8
LEVEL002
 370
30
   6
CONTINUOUS
  62
7
 100
AcDbCircle
  10
 202.92238893135
  20
 459.53356191404
  30
0.0
  40
 0.50000000000000
 100
AcDbArc
  50
 180.00000000000
  51
 270.00000000021
   0
LINE
   5
350
 100
AcDbEntity
   8
LEVEL002
 370
30
 100
AcDbLine
   6
CONTINUOUS
  62
7
  10
 201.22238893135
  20
 459.83356191404
  30
0.0
  11
 201.22238893135
  21
 475.83356191404
  31
0.0
   0
LINE
   5
351
 100
AcDbEntity
   8
LEVEL002
 370
30
 100
AcDbLine
   6
CONTINUOUS
  62
7
  10
 202.42238893135
  20
 459.53356191404
  30
0.0
  11
 202.42238893135
  21
 476.13356191404
  31
0.0
   0
ARC
   5
352
 100
AcDbEntity
   8
LEVEL002
 370
30
   6
CONTINUOUS
  62
7
 100
AcDbCircle
  10
 218.89396180660
  20
 475.83356191404
  30
0.0
  40
 2.0000000000000
 100
AcDbArc
  50
 45.000000000010
  51
 89.999999999988
   0
LINE
   5
353
 100
AcDbEntity
   8
LEVEL002
 370
30
 100
AcDbLine
   6
CONTINUOUS
  62
7
  10
 220.30817536898
  20
 477.24777547641
  30
0.0
  11
 224.13660249372
  21
 473.41934835166
  31
0.0
   0
ARC
   5
354
 100
AcDbEntity
   8
LEVEL002
 370
30
   6
CONTINUOUS
  62
7
 100
AcDbCircle
  10
 218.81111909413
  20
 475.63356191404
  30
0.0
  40
 1.0000000000000
 100
AcDbArc
  50
 45.000000000083
  51
 90.000000000065
   0
LINE
   5
355
 100
AcDbEntity
   8
LEVEL002
 370
30
 100
AcDbLine
   6
CONTINUOUS
  62
7
  10
 219.51822587532
  20
 476.34066869522
  30
0.0
  11
 223.28807435630
  21
 472.57082021424
  31
0.0
   0
LINE
   5
356
 100
AcDbEntity
   8
LEVEL002
 370
30
 100
AcDbLine
   6
CONTINUOUS
  62
7
  10
 225.55081605610
  20
 472.83356191404
  30
0.0
  11
 233.89396180660
  21
 472.83356191404
  31
0.0
   0
ARC
   5
357
 100
AcDbEntity
   8
LEVEL002
 370
30
   6
CONTINUOUS
  62
7
 100
AcDbCircle
  10
 233.89396180660
  20
 474.83356191404
  30
0.0
  40
 2.0000000000000
 100
AcDbArc
  50
 270.00000000000
  51
 315.00000000001
   0
ARC
   5
358
 100
AcDbEntity
   8
LEVEL002
 370
30
   6
CONTINUOUS
  62
7
 100
AcDbCircle
  10
 233.89396180660
  20
 474.83356191404
  30
0.0
  40
 3.2000000000000
 100
AcDbArc
  50
 270.00000000001
  51
 315.00000000001
   0
LINE
   5
359
 100
AcDbEntity
   8
LEVEL002
 370
30
 100
AcDbLine
   6
CONTINUOUS
  62
7
  10
 225.55081605610
  20
 471.63356191404
  30
0.0
  11
 233.89396180660
  21
 471.63356191404
  31
0.0
   0
ARC
   5
35A
 100
AcDbEntity
   8
LEVEL002
 370
30
   6
CONTINUOUS
  62
7
 100
AcDbCircle
  10
 225.55081605610
  20
 474.83356191404
  30
0.0
  40
 2.0000000000000
 100
AcDbArc
  50
 224.99999999998
  51
 270.00000000001
   0
ARC
   5
35B
 100
AcDbEntity
   8
LEVEL002
 370
30
   6
CONTINUOUS
  62
7
 100
AcDbCircle
  10
 225.55081605610
  20
 474.83356191404
  30
0.0
  40
 3.2000000000000
 100
AcDbArc
  50
 224.99999999998
  51
 270.00000000000
   0
LINE
   5
35C
 100
AcDbEntity
   8
LEVEL002
 370
30
 100
AcDbLine
   6
CONTINUOUS
  62
7
  10
 235.30817536898
  20
 473.41934835166
  30
0.0
  11
 239.13660249372
  21
 477.24777547641
  31
0.0
   0
ARC
   5
35D
 100
AcDbEntity
   8
LEVEL002
 370
30
   6
CONTINUOUS
  62
7
 100
AcDbCircle
  10
 240.55081605610
  20
 475.83356191404
  30
0.0
  40
 2.0000000000000
 100
AcDbArc
  50
 90.000000000012
  51
 134.99999999998
   0
ARC
   5
35E
 100
AcDbEntity
   8
LEVEL002
 370
30
   6
CONTINUOUS
  62
7
 100
AcDbCircle
  10
 240.63365876857
  20
 475.63356191404
  30
0.0
  40
 1.0000000000000
 100
AcDbArc
  50
 90.000000000000
  51
 135.00000000001
   0
LINE
   5
35F
 100
AcDbEntity
   8
LEVEL002
 370
30
 100
AcDbLine
   6
CONTINUOUS
  62
7
  10
 236.15670350640
  20
 472.57082021424
  30
0.0
  11
 239.92655198739
  21
 476.34066869522
  31
0.0
   0
LINE
   5
360
 100
AcDbEntity
   8
LEVEL002
 370
30
 100
AcDbLine
   6
CONTINUOUS
  62
7
  10
 203.22238893135
  20
 477.83356191404
  30
0.0
  11
 218.89396180661
  21
 477.83356191404
  31
0.0
   0
LINE
   5
361
 100
AcDbEntity
   8
LEVEL002
 370
30
 100
AcDbLine
   6
CONTINUOUS
  62
7
  10
 202.92238893135
  20
 476.63356191404
  30
0.0
  11
 218.81111909413
  21
 476.63356191404
  31
0.0
   0
LINE
   5
362
 100
AcDbEntity
   8
LEVEL002
 370
30
 100
AcDbLine
   6
CONTINUOUS
  62
7
  10
 291.22238893135
  20
 459.03356191404
  30
0.0
  11
 291.22238893135
  21
 457.83356191404
  31
0.0
   0
LINE
   5
363
 100
AcDbEntity
   8
LEVEL002
 370
30
 100
AcDbLine
   6
CONTINUOUS
  62
7
  10
 291.22238893135
  20
 457.83356191404
  30
0.0
  11
 299.22238893135
  21
 457.83356191404
  31
0.0
   0
LINE
   5
364
 100
AcDbEntity
   8
LEVEL002
 370
30
 100
AcDbLine
   6
CONTINUOUS
  62
7
  10
 291.22238893135
  20
 459.03356191404
  30
0.0
  11
 299.52238893135
  21
 459.03356191404
  31
0.0
   0
LINE
   5
365
 100
AcDbEntity
   8
LEVEL002
 370
30
 100
AcDbLine
   6
CONTINUOUS
  62
7
  10
 240.55081605610
  20
 477.83356191404
  30
0.0
  11
 299.39396180661
  21
 477.83356191404
  31
0.0
   0
ARC
   5
366
 100
AcDbEntity
   8
LEVEL002
 370
30
   6
CONTINUOUS
  62
7
 100
AcDbCircle
  10
 299.22238893135
  20
 475.83356191404
  30
0.0
  40
 2.0000000000000
 100
AcDbArc
  50
0.0
  51
 90.000000000000
   0
ARC
   5
367
 100
AcDbEntity
   8
LEVEL002
 370
30
   6
CONTINUOUS
  62
7
 100
AcDbCircle
  10
 299.52238893135
  20
 476.13356191404
  30
0.0
  40
 0.50000000000000
 100
AcDbArc
  50
0.0
  51
 90.000000000000
   0
LINE
   5
368
 100
AcDbEntity
   8
LEVEL002
 370
30
 100
AcDbLine
   6
CONTINUOUS
  62
7
  10
 300.02238893135
  20
 476.13356191404
  30
0.0
  11
 300.02238893135
  21
 459.53356191404
  31
0.0
   0
LINE
   5
369
 100
AcDbEntity
   8
LEVEL002
 370
30
 100
AcDbLine
   6
CONTINUOUS
  62
7
  10
 301.22238893135
  20
 475.83356191404
  30
0.0
  11
 301.22238893135
  21
 459.83356191404
  31
0.0
   0
ARC
   5
36A
 100
AcDbEntity
   8
LEVEL002
 370
30
   6
CONTINUOUS
  62
7
 100
AcDbCircle
  10
 299.22238893135
  20
 459.83356191404
  30
0.0
  40
 2.0000000000000
 100
AcDbArc
  50
 270.00000000000
  51
0.0
   0
ARC
   5
36B
 100
AcDbEntity
   8
LEVEL002
 370
30
   6
CONTINUOUS
  62
7
 100
AcDbCircle
  10
 299.52238893135
  20
 459.53356191404
  30
0.0
  40
 0.50000000000000
 100
AcDbArc
  50
 270.00000000000
  51
0.0
   0
LINE
   5
36C
 100
AcDbEntity
   8
LEVEL002
 370
30
 100
AcDbLine
   6
CONTINUOUS
  62
7
  10
 240.63365876857
  20
 476.63356191404
  30
0.0
  11
 299.52238893135
  21
 476.63356191404
  31
0.0
   0
LINE
   5
36D
 100
AcDbEntity
   8
LEVEL002
 370
25
 100
AcDbLine
   6
CONTINUOUS
  62
1
  10
 291.22238893135
  20
 459.03356191404
  30
0.0
  11
 229.72238893135
  21
 459.03356191404
  31
0.0
   0
LINE
   5
36E
 100
AcDbEntity
   8
LEVEL002
 370
25
 100
AcDbLine
   6
CONTINUOUS
  62
1
  10
 229.72238893135
  20
 460.03356191404
  30
0.0
  11
 294.22238893135
  21
 460.03356191404
  31
0.0
   0
LINE
   5
36F
 100
AcDbEntity
   8
LEVEL002
 370
25
 100
AcDbLine
   6
CONTINUOUS
  62
1
  10
 294.22238893135
  20
 460.03356191404
  30
0.0
  11
 294.22238893135
  21
 459.03356191404
  31
0.0
   0
LINE
   5
370
 100
AcDbEntity
   8
LEVEL002
 370
25
 100
AcDbLine
   6
CONTINUOUS
  62
1
  10
 208.22238893135
  20
 459.03356191404
  30
0.0
  11
 208.22238893135
  21
 460.03356191404
  31
0.0
   0
LINE
   5
371
 100
AcDbEntity
   8
LEVEL002
 370
25
 100
AcDbLine
   6
CONTINUOUS
  62
1
  10
 208.22238893135
  20
 460.03356191404
  30
0.0
  11
 229.72238893135
  21
 460.03356191404
  31
0.0
   0
LINE
   5
372
 100
AcDbEntity
   8
LEVEL002
 370
25
 100
AcDbLine
   6
CONTINUOUS
  62
1
  10
 229.72238893135
  20
 459.03356191404
  30
0.0
  11
 211.22238893135
  21
 459.03356191404
  31
0.0
   0
LINE
   5
373
 100
AcDbEntity
   8
LEVEL002
 370
15
 100
AcDbLine
   6
DASHDOT
  62
8
  10
 229.72238893135
  20
 468.40523619894
  30
0.0
  11
 229.72238893135
  21
 477.99417762086
  31
0.0
   0
DIMENSION
   5
374
 100
AcDbEntity
   8
LEVEL001
 370
15
   6
CONTINUOUS
  62
8
 100
AcDbDimension
   2
*D7
  10
 191.22238893135
  20
 477.83356191404
  30
0.0
  11
 191.22238893135
  21
 467.83356191404
  31
0.0
  70
0
   3
GMM001
 100
AcDbAlignedDimension
  13
 201.22238893135
  23
 457.83356191404
  33
0.0
  14
 201.22238893135
  24
 477.83356191404
  34
0.0
  50
 90.000000000000
 100
AcDbRotatedDimension
   0
LEADER
   5
375
 100
AcDbEntity
   8
LEVEL001
 370
15
   6
CONTINUOUS
  62
8
 100
AcDbLeader
   3
GMM002
  73
0
  74
0
  75
0
  40
 4.0000000000000
  41
 16.000000000000
  76
2
  10
 267.98546727865
  20
 459.03356191404
  30
0.0
  10
 275.19877213369
  20
 446.50116030818
  30
0.0
  77
8
 340
376
 213
0.0
 223
-1.0000000000000
 233
0.0
   0
MTEXT
   5
376
 102
{ACAD_REACTORS
 330
375
 102
}
 100
AcDbEntity
   8
LEVEL001
 370
15
  62
8
 100
AcDbMText
  10
 275.19877213369
  20
 447.50116030818
  30
0.0
  40
 4.0000000000000
  41
0.0
  71
7
  72
1
   1
\A1;アンカー
   7
GMM001
   0
DIMENSION
   5
377
 100
AcDbEntity
   8
LEVEL001
 370
15
   6
CONTINUOUS
  62
8
 100
AcDbDimension
   2
*D9
  10
 229.72238893135
  20
 487.83356191404
  30
0.0
  11
 215.47238893135
  21
 487.83356191404
  31
0.0
  70
0
   3
GMM001
 100
AcDbAlignedDimension
  13
 201.22238893135
  23
 475.83356191404
  33
0.0
  14
 229.72238893135
  24
 477.99417762086
  34
0.0
 100
AcDbRotatedDimension
   0
DIMENSION
   5
378
 100
AcDbEntity
   8
LEVEL001
 370
15
   6
CONTINUOUS
  62
8
 100
AcDbDimension
   2
*D10
  10
 301.22238893135
  20
 497.83356191404
  30
0.0
  11
 251.22238893135
  21
 497.83356191404
  31
0.0
  70
0
   3
GMM001
 100
AcDbAlignedDimension
  13
 201.22238893135
  23
 487.83356191404
  33
0.0
  14
 301.22238893135
  24
 475.12707898853
  34
0.0
 100
AcDbRotatedDimension
   0
DIMENSION
   5
379
 100
AcDbEntity
   8
LEVEL001
 370
15
   6
CONTINUOUS
  62
8
 100
AcDbDimension
   2
*D11
  10
 247.74999999990
  20
 477.83356191404
  30
0.0
  11
 247.74999999990
  21
 480.05732126094
  31
0.0
  70
128
   3
GMM004
 100
AcDbAlignedDimension
  13
 233.89396180660
  23
 472.83356191404
  33
0.0
  14
 247.74999999990
  24
 477.83356191404
  34
0.0
  50
 90.000000000000
 100
AcDbRotatedDimension
   0
ARC
   5
37A
 100
AcDbEntity
   8
LEVEL002
 370
30
   6
CONTINUOUS
  62
7
 100
AcDbCircle
  10
 488.74999999990
  20
 339.33356191406
  30
0.0
  40
 2.0000000000000
 100
AcDbArc
  50
 89.999999999980
  51
 180.00000000000
   0
ARC
   5
37B
 100
AcDbEntity
   8
LEVEL002
 370
30
   6
CONTINUOUS
  62
7
 100
AcDbCircle
  10
 488.44999999990
  20
 339.63356191406
  30
0.0
  40
 0.50000000000000
 100
AcDbArc
  50
 89.999999999792
  51
 180.00000000000
   0
LINE
   5
37C
 100
AcDbEntity
   8
LEVEL002
 370
30
 100
AcDbLine
   6
CONTINUOUS
  62
7
  10
 488.74999999990
  20
 321.33356191406
  30
0.0
  11
 496.74999999990
  21
 321.33356191406
  31
0.0
   0
LINE
   5
37D
 100
AcDbEntity
   8
LEVEL002
 370
30
 100
AcDbLine
   6
CONTINUOUS
  62
7
  10
 496.74999999990
  20
 321.33356191406
  30
0.0
  11
 496.74999999990
  21
 322.53356191406
  31
0.0
   0
LINE
   5
37E
 100
AcDbEntity
   8
LEVEL002
 370
30
 100
AcDbLine
   6
CONTINUOUS
  62
7
  10
 488.44999999990
  20
 322.53356191406
  30
0.0
  11
 496.74999999990
  21
 322.53356191406
  31
0.0
   0
ARC
   5
37F
 100
AcDbEntity
   8
LEVEL002
 370
30
   6
CONTINUOUS
  62
7
 100
AcDbCircle
  10
 488.74999999990
  20
 323.33356191406
  30
0.0
  40
 2.0000000000000
 100
AcDbArc
  50
 180.00000000000
  51
 270.00000000000
   0
ARC
   5
380
 100
AcDbEntity
   8
LEVEL002
 370
30
   6
CONTINUOUS
  62
7
 100
AcDbCircle
  10
 488.44999999990
  20
 323.03356191406
  30
0.0
  40
 0.50000000000000
 100
AcDbArc
  50
 180.00000000000
  51
 270.00000000021
   0
LINE
   5
381
 100
AcDbEntity
   8
LEVEL002
 370
30
 100
AcDbLine
   6
CONTINUOUS
  62
7
  10
 486.74999999990
  20
 323.33356191406
  30
0.0
  11
 486.74999999990
  21
 339.33356191406
  31
0.0
   0
LINE
   5
382
 100
AcDbEntity
   8
LEVEL002
 370
30
 100
AcDbLine
   6
CONTINUOUS
  62
7
  10
 487.94999999990
  20
 323.03356191406
  30
0.0
  11
 487.94999999990
  21
 339.63356191406
  31
0.0
   0
ARC
   5
383
 100
AcDbEntity
   8
LEVEL002
 370
30
   6
CONTINUOUS
  62
7
 100
AcDbCircle
  10
 504.42157287515
  20
 339.33356191406
  30
0.0
  40
 2.0000000000000
 100
AcDbArc
  50
 45.000000000000
  51
 89.999999999974
   0
LINE
   5
384
 100
AcDbEntity
   8
LEVEL002
 370
30
 100
AcDbLine
   6
CONTINUOUS
  62
7
  10
 505.83578643753
  20
 340.74777547643
  30
0.0
  11
 509.66421356227
  21
 336.91934835168
  31
0.0
   0
ARC
   5
385
 100
AcDbEntity
   8
LEVEL002
 370
30
   6
CONTINUOUS
  62
7
 100
AcDbCircle
  10
 504.33873016268
  20
 339.13356191406
  30
0.0
  40
 1.0000000000000
 100
AcDbArc
  50
 45.000000000083
  51
 90.000000000065
   0
LINE
   5
386
 100
AcDbEntity
   8
LEVEL002
 370
30
 100
AcDbLine
   6
CONTINUOUS
  62
7
  10
 505.04583694387
  20
 339.84066869524
  30
0.0
  11
 508.81568542485
  21
 336.07082021426
  31
0.0
   0
LINE
   5
387
 100
AcDbEntity
   8
LEVEL002
 370
30
 100
AcDbLine
   6
CONTINUOUS
  62
7
  10
 511.07842712465
  20
 336.33356191406
  30
0.0
  11
 519.42157287515
  21
 336.33356191406
  31
0.0
   0
ARC
   5
388
 100
AcDbEntity
   8
LEVEL002
 370
30
   6
CONTINUOUS
  62
7
 100
AcDbCircle
  10
 519.42157287515
  20
 338.33356191406
  30
0.0
  40
 2.0000000000000
 100
AcDbArc
  50
 270.00000000000
  51
 315.00000000001
   0
ARC
   5
389
 100
AcDbEntity
   8
LEVEL002
 370
30
   6
CONTINUOUS
  62
7
 100
AcDbCircle
  10
 519.42157287515
  20
 338.33356191406
  30
0.0
  40
 3.2000000000000
 100
AcDbArc
  50
 270.00000000001
  51
 315.00000000001
   0
LINE
   5
38A
 100
AcDbEntity
   8
LEVEL002
 370
30
 100
AcDbLine
   6
CONTINUOUS
  62
7
  10
 511.07842712465
  20
 335.13356191406
  30
0.0
  11
 519.42157287515
  21
 335.13356191406
  31
0.0
   0
ARC
   5
38B
 100
AcDbEntity
   8
LEVEL002
 370
30
   6
CONTINUOUS
  62
7
 100
AcDbCircle
  10
 511.07842712465
  20
 338.33356191406
  30
0.0
  40
 2.0000000000000
 100
AcDbArc
  50
 224.99999999998
  51
 270.00000000001
   0
ARC
   5
38C
 100
AcDbEntity
   8
LEVEL002
 370
30
   6
CONTINUOUS
  62
7
 100
AcDbCircle
  10
 511.07842712465
  20
 338.33356191406
  30
0.0
  40
 3.2000000000000
 100
AcDbArc
  50
 224.99999999998
  51
 270.00000000000
   0
LINE
   5
38D
 100
AcDbEntity
   8
LEVEL002
 370
30
 100
AcDbLine
   6
CONTINUOUS
  62
7
  10
 520.83578643753
  20
 336.91934835168
  30
0.0
  11
 524.66421356227
  21
 340.74777547643
  31
0.0
   0
ARC
   5
38E
 100
AcDbEntity
   8
LEVEL002
 370
30
   6
CONTINUOUS
  62
7
 100
AcDbCircle
  10
 526.07842712465
  20
 339.33356191406
  30
0.0
  40
 2.0000000000000
 100
AcDbArc
  50
 90.000000000013
  51
 134.99999999998
   0
ARC
   5
38F
 100
AcDbEntity
   8
LEVEL002
 370
30
   6
CONTINUOUS
  62
7
 100
AcDbCircle
  10
 526.16126983712
  20
 339.13356191406
  30
0.0
  40
 1.0000000000000
 100
AcDbArc
  50
 90.000000000000
  51
 135.00000000001
   0
LINE
   5
390
 100
AcDbEntity
   8
LEVEL002
 370
30
 100
AcDbLine
   6
CONTINUOUS
  62
7
  10
 521.68431457495
  20
 336.07082021426
  30
0.0
  11
 525.45416305594
  21
 339.84066869524
  31
0.0
   0
LINE
   5
391
 100
AcDbEntity
   8
LEVEL002
 370
30
 100
AcDbLine
   6
CONTINUOUS
  62
7
  10
 488.74999999990
  20
 341.33356191406
  30
0.0
  11
 504.42157287516
  21
 341.33356191406
  31
0.0
   0
LINE
   5
392
 100
AcDbEntity
   8
LEVEL002
 370
30
 100
AcDbLine
   6
CONTINUOUS
  62
7
  10
 488.44999999990
  20
 340.13356191406
  30
0.0
  11
 504.33873016268
  21
 340.13356191406
  31
0.0
   0
LINE
   5
393
 100
AcDbEntity
   8
LEVEL002
 370
30
 100
AcDbLine
   6
CONTINUOUS
  62
7
  10
 576.74999999990
  20
 322.53356191406
  30
0.0
  11
 576.74999999990
  21
 321.33356191406
  31
0.0
   0
LINE
   5
394
 100
AcDbEntity
   8
LEVEL002
 370
30
 100
AcDbLine
   6
CONTINUOUS
  62
7
  10
 576.74999999990
  20
 321.33356191406
  30
0.0
  11
 584.74999999990
  21
 321.33356191406
  31
0.0
   0
LINE
   5
395
 100
AcDbEntity
   8
LEVEL002
 370
30
 100
AcDbLine
   6
CONTINUOUS
  62
7
  10
 576.74999999990
  20
 322.53356191406
  30
0.0
  11
 585.04999999990
  21
 322.53356191406
  31
0.0
   0
ARC
   5
396
 100
AcDbEntity
   8
LEVEL002
 370
30
   6
CONTINUOUS
  62
7
 100
AcDbCircle
  10
 584.74999999990
  20
 339.33356191406
  30
0.0
  40
 2.0000000000000
 100
AcDbArc
  50
0.0
  51
 90.000000000000
   0
ARC
   5
397
 100
AcDbEntity
   8
LEVEL002
 370
30
   6
CONTINUOUS
  62
7
 100
AcDbCircle
  10
 585.04999999990
  20
 339.63356191406
  30
0.0
  40
 0.50000000000000
 100
AcDbArc
  50
0.0
  51
 90.000000000000
   0
LINE
   5
398
 100
AcDbEntity
   8
LEVEL002
 370
30
 100
AcDbLine
   6
CONTINUOUS
  62
7
  10
 585.54999999990
  20
 339.63356191406
  30
0.0
  11
 585.54999999990
  21
 323.03356191406
  31
0.0
   0
LINE
   5
399
 100
AcDbEntity
   8
LEVEL002
 370
30
 100
AcDbLine
   6
CONTINUOUS
  62
7
  10
 586.74999999990
  20
 339.33356191406
  30
0.0
  11
 586.74999999990
  21
 323.33356191406
  31
0.0
   0
ARC
   5
39A
 100
AcDbEntity
   8
LEVEL002
 370
30
   6
CONTINUOUS
  62
7
 100
AcDbCircle
  10
 584.74999999990
  20
 323.33356191406
  30
0.0
  40
 2.0000000000000
 100
AcDbArc
  50
 270.00000000000
  51
0.0
   0
ARC
   5
39B
 100
AcDbEntity
   8
LEVEL002
 370
30
   6
CONTINUOUS
  62
7
 100
AcDbCircle
  10
 585.04999999990
  20
 323.03356191406
  30
0.0
  40
 0.50000000000000
 100
AcDbArc
  50
 270.00000000000
  51
0.0
   0
ARC
   5
39C
 100
AcDbEntity
   8
LEVEL002
 370
30
   6
CONTINUOUS
  62
7
 100
AcDbCircle
  10
 569.07842712465
  20
 339.33356191406
  30
0.0
  40
 2.0000000000000
 100
AcDbArc
  50
 90.000000000007
  51
 134.99999999998
   0
ARC
   5
39D
 100
AcDbEntity
   8
LEVEL002
 370
30
   6
CONTINUOUS
  62
7
 100
AcDbCircle
  10
 569.16126983712
  20
 339.13356191406
  30
0.0
  40
 1.0000000000000
 100
AcDbArc
  50
 89.999999999870
  51
 134.99999999984
   0
LINE
   5
39E
 100
AcDbEntity
   8
LEVEL002
 370
30
 100
AcDbLine
   6
CONTINUOUS
  62
7
  10
 568.45416305594
  20
 339.84066869524
  30
0.0
  11
 564.68431457495
  21
 336.07082021426
  31
0.0
   0
ARC
   5
39F
 100
AcDbEntity
   8
LEVEL002
 370
30
   6
CONTINUOUS
  62
7
 100
AcDbCircle
  10
 547.42157287515
  20
 339.33356191406
  30
0.0
  40
 2.0000000000000
 100
AcDbArc
  50
 45.000000000009
  51
 89.999999999967
   0
ARC
   5
3A0
 100
AcDbEntity
   8
LEVEL002
 370
30
   6
CONTINUOUS
  62
7
 100
AcDbCircle
  10
 547.33873016268
  20
 339.13356191406
  30
0.0
  40
 1.0000000000000
 100
AcDbArc
  50
 44.999999999972
  51
 89.999999999974
   0
LINE
   5
3A1
 100
AcDbEntity
   8
LEVEL002
 370
30
 100
AcDbLine
   6
CONTINUOUS
  62
7
  10
 551.81568542485
  20
 336.07082021426
  30
0.0
  11
 548.04583694387
  21
 339.84066869524
  31
0.0
   0
LINE
   5
3A2
 100
AcDbEntity
   8
LEVEL002
 370
30
 100
AcDbLine
   6
CONTINUOUS
  62
7
  10
 562.42157287515
  20
 336.33356191406
  30
0.0
  11
 554.07842712465
  21
 336.33356191406
  31
0.0
   0
ARC
   5
3A3
 100
AcDbEntity
   8
LEVEL002
 370
30
   6
CONTINUOUS
  62
7
 100
AcDbCircle
  10
 554.07842712465
  20
 338.33356191406
  30
0.0
  40
 2.0000000000000
 100
AcDbArc
  50
 225.00000000000
  51
 270.00000000000
   0
ARC
   5
3A4
 100
AcDbEntity
   8
LEVEL002
 370
30
   6
CONTINUOUS
  62
7
 100
AcDbCircle
  10
 554.07842712465
  20
 338.33356191406
  30
0.0
  40
 3.2000000000000
 100
AcDbArc
  50
 224.99999999999
  51
 269.99999999999
   0
LINE
   5
3A5
 100
AcDbEntity
   8
LEVEL002
 370
30
 100
AcDbLine
   6
CONTINUOUS
  62
7
  10
 562.42157287515
  20
 335.13356191406
  30
0.0
  11
 554.07842712465
  21
 335.13356191406
  31
0.0
   0
LINE
   5
3A6
 100
AcDbEntity
   8
LEVEL002
 370
30
 100
AcDbLine
   6
CONTINUOUS
  62
7
  10
 567.66421356227
  20
 340.74777547643
  30
0.0
  11
 563.83578643753
  21
 336.91934835168
  31
0.0
   0
ARC
   5
3A7
 100
AcDbEntity
   8
LEVEL002
 370
30
   6
CONTINUOUS
  62
7
 100
AcDbCircle
  10
 562.42157287515
  20
 338.33356191406
  30
0.0
  40
 2.0000000000000
 100
AcDbArc
  50
 270.00000000003
  51
 315.00000000003
   0
ARC
   5
3A8
 100
AcDbEntity
   8
LEVEL002
 370
30
   6
CONTINUOUS
  62
7
 100
AcDbCircle
  10
 562.42157287515
  20
 338.33356191406
  30
0.0
  40
 3.2000000000000
 100
AcDbArc
  50
 270.00000000001
  51
 315.00000000002
   0
LINE
   5
3A9
 100
AcDbEntity
   8
LEVEL002
 370
30
 100
AcDbLine
   6
CONTINUOUS
  62
7
  10
 552.66421356227
  20
 336.91934835168
  30
0.0
  11
 548.83578643753
  21
 340.74777547643
  31
0.0
   0
LINE
   5
3AA
 100
AcDbEntity
   8
LEVEL002
 370
30
 100
AcDbLine
   6
CONTINUOUS
  62
7
  10
 569.16126983712
  20
 340.13356191406
  30
0.0
  11
 585.04999999990
  21
 340.13356191406
  31
0.0
   0
LINE
   5
3AB
 100
AcDbEntity
   8
LEVEL002
 370
30
 100
AcDbLine
   6
CONTINUOUS
  62
7
  10
 526.07842712465
  20
 341.33356191406
  30
0.0
  11
 547.42157287515
  21
 341.33356191406
  31
0.0
   0
LINE
   5
3AC
 100
AcDbEntity
   8
LEVEL002
 370
30
 100
AcDbLine
   6
CONTINUOUS
  62
7
  10
 569.07842712465
  20
 341.33356191406
  30
0.0
  11
 584.92157287516
  21
 341.33356191406
  31
0.0
   0
LINE
   5
3AD
 100
AcDbEntity
   8
LEVEL002
 370
25
 100
AcDbLine
   6
CONTINUOUS
  62
1
  10
 493.74999999990
  20
 322.53356191406
  30
0.0
  11
 493.74999999990
  21
 323.53356191406
  31
0.0
   0
LINE
   5
3AE
 100
AcDbEntity
   8
LEVEL002
 370
25
 100
AcDbLine
   6
CONTINUOUS
  62
1
  10
 493.74999999990
  20
 323.53356191406
  30
0.0
  11
 515.24999999990
  21
 323.53356191406
  31
0.0
   0
LINE
   5
3AF
 100
AcDbEntity
   8
LEVEL002
 370
25
 100
AcDbLine
   6
CONTINUOUS
  62
1
  10
 515.24999999990
  20
 322.53356191406
  30
0.0
  11
 496.74999999990
  21
 322.53356191406
  31
0.0
   0
LINE
   5
3B0
 100
AcDbEntity
   8
LEVEL002
 370
25
 100
AcDbLine
   6
CONTINUOUS
  62
1
  10
 576.74999999990
  20
 322.53356191406
  30
0.0
  11
 515.24999999990
  21
 322.53356191406
  31
0.0
   0
LINE
   5
3B1
 100
AcDbEntity
   8
LEVEL002
 370
25
 100
AcDbLine
   6
CONTINUOUS
  62
1
  10
 515.24999999990
  20
 323.53356191406
  30
0.0
  11
 579.74999999990
  21
 323.53356191406
  31
0.0
   0
LINE
   5
3B2
 100
AcDbEntity
   8
LEVEL002
 370
25
 100
AcDbLine
   6
CONTINUOUS
  62
1
  10
 579.74999999990
  20
 323.53356191406
  30
0.0
  11
 579.74999999990
  21
 322.53356191406
  31
0.0
   0
LINE
   5
3B3
 100
AcDbEntity
   8
LEVEL002
 370
15
 100
AcDbLine
   6
DASHDOT
  62
8
  10
 515.24999999990
  20
 329.06538955519
  30
0.0
  11
 515.24999999990
  21
 343.60173427293
  31
0.0
   0
LINE
   5
3B4
 100
AcDbEntity
   8
LEVEL002
 370
15
 100
AcDbLine
   6
DASHDOT
  62
8
  10
 536.74999999990
  20
 319.40108034466
  30
0.0
  11
 536.74999999990
  21
 347.09581718677
  31
0.0
   0
LINE
   5
3B5
 100
AcDbEntity
   8
LEVEL002
 370
15
 100
AcDbLine
   6
DASHDOT
  62
8
  10
 558.24999999990
  20
 329.06538955519
  30
0.0
  11
 558.24999999990
  21
 343.60173427293
  31
0.0
   0
DIMENSION
   5
3B6
 100
AcDbEntity
   8
LEVEL001
 370
15
   6
CONTINUOUS
  62
8
 100
AcDbDimension
   2
*D12
  10
 476.74999999990
  20
 341.33356191406
  30
0.0
  11
 476.74999999990
  21
 331.33356191406
  31
0.0
  70
0
   3
GMM001
 100
AcDbAlignedDimension
  13
 486.74999999990
  23
 321.33356191406
  33
0.0
  14
 486.74999999990
  24
 341.33356191406
  34
0.0
  50
 90.000000000000
 100
AcDbRotatedDimension
   0
LEADER
   5
3B7
 100
AcDbEntity
   8
LEVEL001
 370
15
   6
CONTINUOUS
  62
8
 100
AcDbLeader
   3
GMM002
  73
0
  74
0
  75
0
  40
 4.0000000000000
  41
 16.000000000000
  76
2
  10
 554.46052333720
  20
 322.53356191406
  30
0.0
  10
 561.67382819223
  20
 310.00116030820
  30
0.0
  77
8
 340
3B8
 213
0.0
 223
-1.0000000000000
 233
0.0
   0
MTEXT
   5
3B8
 102
{ACAD_REACTORS
 330
3B7
 102
}
 100
AcDbEntity
   8
LEVEL001
 370
15
  62
8
 100
AcDbMText
  10
 561.67382819223
  20
 311.00116030820
  30
0.0
  40
 4.0000000000000
  41
0.0
  71
7
  72
1
   1
\A1;アンカー
   7
GMM001
   0
DIMENSION
   5
3B9
 100
AcDbEntity
   8
LEVEL001
 370
15
   6
CONTINUOUS
  62
8
 100
AcDbDimension
   2
*D14
  10
 515.24999999990
  20
 351.33356191406
  30
0.0
  11
 500.99999999990
  21
 351.33356191406
  31
0.0
  70
0
   3
GMM001
 100
AcDbAlignedDimension
  13
 486.74999999990
  23
 339.33356191406
  33
0.0
  14
 515.24999999990
  24
 343.60173427293
  34
0.0
 100
AcDbRotatedDimension
   0
DIMENSION
   5
3BA
 100
AcDbEntity
   8
LEVEL001
 370
15
   6
CONTINUOUS
  62
8
 100
AcDbDimension
   2
*D15
  10
 558.24999999990
  20
 351.33356191406
  30
0.0
  11
 536.74999999990
  21
 351.33356191406
  31
0.0
  70
0
   3
GMM001
 100
AcDbAlignedDimension
  13
 515.24999999990
  23
 343.60173427293
  33
0.0
  14
 558.24999999990
  24
 343.60173427293
  34
0.0
 100
AcDbRotatedDimension
   0
DIMENSION
   5
3BB
 100
AcDbEntity
   8
LEVEL001
 370
15
   6
CONTINUOUS
  62
8
 100
AcDbDimension
   2
*D16
  10
 586.74999999990
  20
 351.33356191406
  30
0.0
  11
 572.49999999990
  21
 351.33356191406
  31
0.0
  70
0
   3
GMM001
 100
AcDbAlignedDimension
  13
 558.24999999990
  23
 343.60173427293
  33
0.0
  14
 586.74999999990
  24
 339.33356191406
  34
0.0
 100
AcDbRotatedDimension
   0
DIMENSION
   5
3BC
 100
AcDbEntity
   8
LEVEL001
 370
15
   6
CONTINUOUS
  62
8
 100
AcDbDimension
   2
*D17
  10
 586.74999999990
  20
 361.33356191406
  30
0.0
  11
 536.74999999990
  21
 361.33356191406
  31
0.0
  70
0
   3
GMM001
 100
AcDbAlignedDimension
  13
 486.74999999990
  23
 351.33356191406
  33
0.0
  14
 586.74999999990
  24
 351.33356191406
  34
0.0
 100
AcDbRotatedDimension
   0
DIMENSION
   5
3BD
 100
AcDbEntity
   8
LEVEL001
 370
15
   6
CONTINUOUS
  62
8
 100
AcDbDimension
   2
*D18
  10
 596.74999999990
  20
 341.33356191406
  30
0.0
  11
 596.74999999990
  21
 344.34150393988
  31
0.0
  70
128
   3
GMM005
 100
AcDbAlignedDimension
  13
 562.42157287515
  23
 336.33356191406
  33
0.0
  14
 584.92157287516
  24
 341.33356191406
  34
0.0
  50
 90.000000000000
 100
AcDbRotatedDimension
   0
ARC
   5
3BE
 100
AcDbEntity
   8
LEVEL002
 370
30
   6
CONTINUOUS
  62
7
 100
AcDbCircle
  10
 75.421572875150
  20
 202.83356191406
  30
0.0
  40
 2.0000000000000
 100
AcDbArc
  50
 45.000000000028
  51
 89.999999999994
   0
LINE
   5
3BF
 100
AcDbEntity
   8
LEVEL002
 370
30
 100
AcDbLine
   6
CONTINUOUS
  62
7
  10
 76.835786437520
  20
 204.24777547643
  30
0.0
  11
 80.664213562270
  21
 200.41934835168
  31
0.0
   0
ARC
   5
3C0
 100
AcDbEntity
   8
LEVEL002
 370
30
   6
CONTINUOUS
  62
7
 100
AcDbCircle
  10
 82.078427124640
  20
 201.83356191406
  30
0.0
  40
 2.0000000000000
 100
AcDbArc
  50
 224.99999999999
  51
 270.00000000001
   0
LINE
   5
3C1
 100
AcDbEntity
   8
LEVEL002
 370
30
 100
AcDbLine
   6
CONTINUOUS
  62
7
  10
 82.078427124640
  20
 199.83356191406
  30
0.0
  11
 90.421572875150
  21
 199.83356191406
  31
0.0
   0
ARC
   5
3C2
 100
AcDbEntity
   8
LEVEL002
 370
30
   6
CONTINUOUS
  62
7
 100
AcDbCircle
  10
 90.421572875150
  20
 201.83356191406
  30
0.0
  40
 2.0000000000000
 100
AcDbArc
  50
 269.99999999999
  51
 314.99999999999
   0
LINE
   5
3C3
 100
AcDbEntity
   8
LEVEL002
 370
30
 100
AcDbLine
   6
CONTINUOUS
  62
7
  10
 91.835786437530
  20
 200.41934835168
  30
0.0
  11
 95.664213562270
  21
 204.24777547643
  31
0.0
   0
ARC
   5
3C4
 100
AcDbEntity
   8
LEVEL002
 370
30
   6
CONTINUOUS
  62
7
 100
AcDbCircle
  10
 97.078427124640
  20
 202.83356191406
  30
0.0
  40
 2.0000000000000
 100
AcDbArc
  50
 90.000000000006
  51
 134.99999999998
   0
LINE
   5
3C5
 100
AcDbEntity
   8
LEVEL002
 370
30
 100
AcDbLine
   6
CONTINUOUS
  62
7
  10
 75.987258300100
  20
 203.39924733901
  30
0.0
  11
 79.815685424850
  21
 199.57082021426
  31
0.0
   0
ARC
   5
3C6
 100
AcDbEntity
   8
LEVEL002
 370
30
   6
CONTINUOUS
  62
7
 100
AcDbCircle
  10
 82.078427124640
  20
 201.83356191406
  30
0.0
  40
 3.2000000000000
 100
AcDbArc
  50
 225.00000000000
  51
 270.00000000000
   0
LINE
   5
3C7
 100
AcDbEntity
   8
LEVEL002
 370
30
 100
AcDbLine
   6
CONTINUOUS
  62
7
  10
 82.078427124640
  20
 198.63356191406
  30
0.0
  11
 90.421572875150
  21
 198.63356191406
  31
0.0
   0
ARC
   5
3C8
 100
AcDbEntity
   8
LEVEL002
 370
30
   6
CONTINUOUS
  62
7
 100
AcDbCircle
  10
 90.421572875150
  20
 201.83356191406
  30
0.0
  40
 3.2000000000000
 100
AcDbArc
  50
 269.99999999999
  51
 314.99999999999
   0
LINE
   5
3C9
 100
AcDbEntity
   8
LEVEL002
 370
30
 100
AcDbLine
   6
CONTINUOUS
  62
7
  10
 92.684314574950
  20
 199.57082021426
  30
0.0
  11
 96.512741699700
  21
 203.39924733901
  31
0.0
   0
ARC
   5
3CA
 100
AcDbEntity
   8
LEVEL002
 370
30
   6
CONTINUOUS
  62
7
 100
AcDbCircle
  10
 97.078427124650
  20
 202.83356191406
  30
0.0
  40
 0.80000000000000
 100
AcDbArc
  50
 89.999999999960
  51
 134.99999999998
   0
ARC
   5
3CB
 100
AcDbEntity
   8
LEVEL002
 370
30
   6
CONTINUOUS
  62
7
 100
AcDbCircle
  10
 75.421572875150
  20
 202.83356191406
  30
0.0
  40
 0.80000000000000
 100
AcDbArc
  50
 45.000000000135
  51
 90.000000000089
   0
ARC
   5
3CC
 100
AcDbEntity
   8
LEVEL002
 370
30
   6
CONTINUOUS
  62
7
 100
AcDbCircle
  10
 109.42157287515
  20
 202.83356191406
  30
0.0
  40
 2.0000000000000
 100
AcDbArc
  50
 45.000000000047
  51
 90.000000000001
   0
LINE
   5
3CD
 100
AcDbEntity
   8
LEVEL002
 370
30
 100
AcDbLine
   6
CONTINUOUS
  62
7
  10
 110.83578643752
  20
 204.24777547643
  30
0.0
  11
 114.66421356227
  21
 200.41934835168
  31
0.0
   0
ARC
   5
3CE
 100
AcDbEntity
   8
LEVEL002
 370
30
   6
CONTINUOUS
  62
7
 100
AcDbCircle
  10
 116.07842712464
  20
 201.83356191406
  30
0.0
  40
 2.0000000000000
 100
AcDbArc
  50
 225.00000000001
  51
 270.00000000001
   0
LINE
   5
3CF
 100
AcDbEntity
   8
LEVEL002
 370
30
 100
AcDbLine
   6
CONTINUOUS
  62
7
  10
 116.07842712464
  20
 199.83356191406
  30
0.0
  11
 124.42157287515
  21
 199.83356191406
  31
0.0
   0
ARC
   5
3D0
 100
AcDbEntity
   8
LEVEL002
 370
30
   6
CONTINUOUS
  62
7
 100
AcDbCircle
  10
 124.42157287515
  20
 201.83356191406
  30
0.0
  40
 2.0000000000000
 100
AcDbArc
  50
 270.00000000000
  51
 315.00000000003
   0
LINE
   5
3D1
 100
AcDbEntity
   8
LEVEL002
 370
30
 100
AcDbLine
   6
CONTINUOUS
  62
7
  10
 125.83578643753
  20
 200.41934835168
  30
0.0
  11
 129.66421356227
  21
 204.24777547643
  31
0.0
   0
ARC
   5
3D2
 100
AcDbEntity
   8
LEVEL002
 370
30
   6
CONTINUOUS
  62
7
 100
AcDbCircle
  10
 131.07842712464
  20
 202.83356191406
  30
0.0
  40
 2.0000000000000
 100
AcDbArc
  50
 89.999999999999
  51
 134.99999999997
   0
ARC
   5
3D3
 100
AcDbEntity
   8
LEVEL002
 370
30
   6
CONTINUOUS
  62
7
 100
AcDbCircle
  10
 109.42157287515
  20
 202.83356191406
  30
0.0
  40
 0.80000000000000
 100
AcDbArc
  50
 45.000000000019
  51
 90.000000000007
   0
LINE
   5
3D4
 100
AcDbEntity
   8
LEVEL002
 370
30
 100
AcDbLine
   6
CONTINUOUS
  62
7
  10
 109.98725830010
  20
 203.39924733901
  30
0.0
  11
 113.81568542485
  21
 199.57082021426
  31
0.0
   0
ARC
   5
3D5
 100
AcDbEntity
   8
LEVEL002
 370
30
   6
CONTINUOUS
  62
7
 100
AcDbCircle
  10
 116.07842712464
  20
 201.83356191406
  30
0.0
  40
 3.2000000000000
 100
AcDbArc
  50
 225.00000000001
  51
 270.00000000002
   0
LINE
   5
3D6
 100
AcDbEntity
   8
LEVEL002
 370
30
 100
AcDbLine
   6
CONTINUOUS
  62
7
  10
 116.07842712465
  20
 198.63356191406
  30
0.0
  11
 124.42157287515
  21
 198.63356191406
  31
0.0
   0
ARC
   5
3D7
 100
AcDbEntity
   8
LEVEL002
 370
30
   6
CONTINUOUS
  62
7
 100
AcDbCircle
  10
 124.42157287515
  20
 201.83356191406
  30
0.0
  40
 3.2000000000000
 100
AcDbArc
  50
 270.00000000001
  51
 315.00000000000
   0
LINE
   5
3D8
 100
AcDbEntity
   8
LEVEL002
 370
30
 100
AcDbLine
   6
CONTINUOUS
  62
7
  10
 126.68431457495
  20
 199.57082021426
  30
0.0
  11
 130.51274169970
  21
 203.39924733901
  31
0.0
   0
ARC
   5
3D9
 100
AcDbEntity
   8
LEVEL002
 370
30
   6
CONTINUOUS
  62
7
 100
AcDbCircle
  10
 131.07842712464
  20
 202.83356191406
  30
0.0
  40
 0.80000000000000
 100
AcDbArc
  50
 89.999999999927
  51
 134.99999999993
   0
ARC
   5
3DA
 100
AcDbEntity
   8
LEVEL002
 370
30
   6
CONTINUOUS
  62
7
 100
AcDbCircle
  10
 135.24999999990
  20
 186.83356191406
  30
0.0
  40
 2.0000000000000
 100
AcDbArc
  50
 270.00000000000
  51
0.0
   0
LINE
   5
3DB
 100
AcDbEntity
   8
LEVEL002
 370
30
 100
AcDbLine
   6
CONTINUOUS
  62
7
  10
 137.24999999990
  20
 202.83356191406
  30
0.0
  11
 137.24999999990
  21
 186.83356191406
  31
0.0
   0
LINE
   5
3DC
 100
AcDbEntity
   8
LEVEL002
 370
30
 100
AcDbLine
   6
CONTINUOUS
  62
7
  10
 136.04999999990
  20
 202.83356191406
  30
0.0
  11
 136.04999999990
  21
 186.83356191406
  31
0.0
   0
ARC
   5
3DD
 100
AcDbEntity
   8
LEVEL002
 370
30
   6
CONTINUOUS
  62
7
 100
AcDbCircle
  10
 135.24999999990
  20
 186.83356191406
  30
0.0
  40
 0.80000000000000
 100
AcDbArc
  50
 270.00000000000
  51
0.0
   0
LINE
   5
3DE
 100
AcDbEntity
   8
LEVEL002
 370
30
 100
AcDbLine
   6
CONTINUOUS
  62
7
  10
 135.24999999990
  20
 186.03356191406
  30
0.0
  11
 127.24999999990
  21
 186.03356191406
  31
0.0
   0
LINE
   5
3DF
 100
AcDbEntity
   8
LEVEL002
 370
30
 100
AcDbLine
   6
CONTINUOUS
  62
7
  10
 127.24999999990
  20
 186.03356191406
  30
0.0
  11
 127.24999999990
  21
 184.83356191406
  31
0.0
   0
LINE
   5
3E0
 100
AcDbEntity
   8
LEVEL002
 370
30
 100
AcDbLine
   6
CONTINUOUS
  62
7
  10
 127.24999999990
  20
 184.83356191406
  30
0.0
  11
 135.24999999990
  21
 184.83356191406
  31
0.0
   0
ARC
   5
3E1
 100
AcDbEntity
   8
LEVEL002
 370
30
   6
CONTINUOUS
  62
7
 100
AcDbCircle
  10
 135.24999999990
  20
 202.83356191406
  30
0.0
  40
 2.0000000000000
 100
AcDbArc
  50
0.0
  51
 90.000000000000
   0
ARC
   5
3E2
 100
AcDbEntity
   8
LEVEL002
 370
30
   6
CONTINUOUS
  62
7
 100
AcDbCircle
  10
 135.24999999990
  20
 202.83356191406
  30
0.0
  40
 0.80000000000000
 100
AcDbArc
  50
 0.40711099922732E-11
  51
 90.000000000012
   0
LINE
   5
3E3
 100
AcDbEntity
   8
LEVEL002
 370
30
 100
AcDbLine
   6
CONTINUOUS
  62
7
  10
 69.249999999900
  20
 186.83356191406
  30
0.0
  11
 69.249999999900
  21
 202.83356191406
  31
0.0
   0
ARC
   5
3E4
 100
AcDbEntity
   8
LEVEL002
 370
30
   6
CONTINUOUS
  62
7
 100
AcDbCircle
  10
 71.249999999900
  20
 186.83356191406
  30
0.0
  40
 2.0000000000000
 100
AcDbArc
  50
 180.00000000000
  51
 270.00000000001
   0
LINE
   5
3E5
 100
AcDbEntity
   8
LEVEL002
 370
30
 100
AcDbLine
   6
CONTINUOUS
  62
7
  10
 70.449999999900
  20
 186.83356191406
  30
0.0
  11
 70.449999999900
  21
 202.83356191406
  31
0.0
   0
ARC
   5
3E6
 100
AcDbEntity
   8
LEVEL002
 370
30
   6
CONTINUOUS
  62
7
 100
AcDbCircle
  10
 71.249999999900
  20
 186.83356191406
  30
0.0
  40
 0.80000000000000
 100
AcDbArc
  50
 180.00000000000
  51
 269.99999999998
   0
LINE
   5
3E7
 100
AcDbEntity
   8
LEVEL002
 370
30
 100
AcDbLine
   6
CONTINUOUS
  62
7
  10
 71.249999999900
  20
 184.83356191406
  30
0.0
  11
 79.249999999900
  21
 184.83356191406
  31
0.0
   0
LINE
   5
3E8
 100
AcDbEntity
   8
LEVEL002
 370
30
 100
AcDbLine
   6
CONTINUOUS
  62
7
  10
 79.249999999900
  20
 184.83356191406
  30
0.0
  11
 79.249999999900
  21
 186.03356191406
  31
0.0
   0
LINE
   5
3E9
 100
AcDbEntity
   8
LEVEL002
 370
30
 100
AcDbLine
   6
CONTINUOUS
  62
7
  10
 79.249999999900
  20
 186.03356191406
  30
0.0
  11
 71.249999999900
  21
 186.03356191406
  31
0.0
   0
ARC
   5
3EA
 100
AcDbEntity
   8
LEVEL002
 370
30
   6
CONTINUOUS
  62
7
 100
AcDbCircle
  10
 71.249999999900
  20
 202.83356191406
  30
0.0
  40
 2.0000000000000
 100
AcDbArc
  50
 89.999999999987
  51
 180.00000000000
   0
ARC
   5
3EB
 100
AcDbEntity
   8
LEVEL002
 370
30
   6
CONTINUOUS
  62
7
 100
AcDbCircle
  10
 71.249999999900
  20
 202.83356191406
  30
0.0
  40
 0.80000000000000
 100
AcDbArc
  50
 89.999999999987
  51
 180.00000000000
   0
LINE
   5
3EC
 100
AcDbEntity
   8
LEVEL002
 370
30
 100
AcDbLine
   6
CONTINUOUS
  62
7
  10
 71.249999999900
  20
 204.83356191406
  30
0.0
  11
 75.421572875150
  21
 204.83356191406
  31
0.0
   0
LINE
   5
3ED
 100
AcDbEntity
   8
LEVEL002
 370
30
 100
AcDbLine
   6
CONTINUOUS
  62
7
  10
 71.249999999900
  20
 203.63356191406
  30
0.0
  11
 75.421572875150
  21
 203.63356191406
  31
0.0
   0
LINE
   5
3EE
 100
AcDbEntity
   8
LEVEL002
 370
30
 100
AcDbLine
   6
CONTINUOUS
  62
7
  10
 97.078427124650
  20
 204.83356191406
  30
0.0
  11
 109.42157287515
  21
 204.83356191406
  31
0.0
   0
LINE
   5
3EF
 100
AcDbEntity
   8
LEVEL002
 370
30
 100
AcDbLine
   6
CONTINUOUS
  62
7
  10
 97.078427124640
  20
 203.63356191406
  30
0.0
  11
 109.42157287514
  21
 203.63356191406
  31
0.0
   0
LINE
   5
3F0
 100
AcDbEntity
   8
LEVEL002
 370
30
 100
AcDbLine
   6
CONTINUOUS
  62
7
  10
 135.24999999990
  20
 204.83356191406
  30
0.0
  11
 131.07842712464
  21
 204.83356191406
  31
0.0
   0
LINE
   5
3F1
 100
AcDbEntity
   8
LEVEL002
 370
30
 100
AcDbLine
   6
CONTINUOUS
  62
7
  10
 131.07842712464
  20
 203.63356191406
  30
0.0
  11
 135.24999999990
  21
 203.63356191406
  31
0.0
   0
LINE
   5
3F2
 100
AcDbEntity
   8
LEVEL002
 370
25
 100
AcDbLine
   6
CONTINUOUS
  62
1
  10
 76.249999999900
  20
 187.03356191406
  30
0.0
  11
 76.249999999900
  21
 186.03356191406
  31
0.0
   0
LINE
   5
3F3
 100
AcDbEntity
   8
LEVEL002
 370
25
 100
AcDbLine
   6
CONTINUOUS
  62
1
  10
 76.249999999900
  20
 186.03356191406
  30
0.0
  11
 130.24999999990
  21
 186.03356191406
  31
0.0
   0
LINE
   5
3F4
 100
AcDbEntity
   8
LEVEL002
 370
25
 100
AcDbLine
   6
CONTINUOUS
  62
1
  10
 130.24999999990
  20
 186.03356191406
  30
0.0
  11
 130.24999999990
  21
 187.03356191406
  31
0.0
   0
LINE
   5
3F5
 100
AcDbEntity
   8
LEVEL002
 370
25
 100
AcDbLine
   6
CONTINUOUS
  62
1
  10
 130.24999999990
  20
 187.03356191406
  30
0.0
  11
 76.249999999900
  21
 187.03356191406
  31
0.0
   0
LINE
   5
3F6
 100
AcDbEntity
   8
LEVEL002
 370
15
 100
AcDbLine
   6
DASHDOT
  62
8
  10
 86.249999999900
  20
 192.56538955519
  30
0.0
  11
 86.249999999900
  21
 207.10173427293
  31
0.0
   0
LINE
   5
3F7
 100
AcDbEntity
   8
LEVEL002
 370
15
 100
AcDbLine
   6
DASHDOT
  62
8
  10
 120.24999999990
  20
 192.56538955519
  30
0.0
  11
 120.24999999990
  21
 207.10173427293
  31
0.0
   0
LINE
   5
3F8
 100
AcDbEntity
   8
LEVEL002
 370
15
 100
AcDbLine
   6
DASHDOT
  62
8
  10
 103.24999999990
  20
 182.90108034466
  30
0.0
  11
 103.24999999990
  21
 210.59581718677
  31
0.0
   0
DIMENSION
   5
3F9
 100
AcDbEntity
   8
LEVEL001
 370
15
   6
CONTINUOUS
  62
8
 100
AcDbDimension
   2
*D19
  10
 59.249999999900
  20
 204.83356191406
  30
0.0
  11
 59.249999999900
  21
 194.83356191406
  31
0.0
  70
0
   3
GMM001
 100
AcDbAlignedDimension
  13
 69.249999999900
  23
 184.83356191406
  33
0.0
  14
 69.249999999900
  24
 204.83356191406
  34
0.0
  50
 90.000000000000
 100
AcDbRotatedDimension
   0
LEADER
   5
3FA
 100
AcDbEntity
   8
LEVEL001
 370
15
   6
CONTINUOUS
  62
8
 100
AcDbLeader
   3
GMM002
  73
0
  74
0
  75
0
  40
 4.0000000000000
  41
 16.000000000000
  76
2
  10
 116.57522327081
  20
 186.03356191406
  30
0.0
  10
 123.78852812584
  20
 173.50116030820
  30
0.0
  77
8
 340
3FB
 213
0.0
 223
-1.0000000000000
 233
0.0
   0
MTEXT
   5
3FB
 102
{ACAD_REACTORS
 330
3FA
 102
}
 100
AcDbEntity
   8
LEVEL001
 370
15
  62
8
 100
AcDbMText
  10
 123.78852812584
  20
 174.50116030820
  30
0.0
  40
 4.0000000000000
  41
0.0
  71
7
  72
1
   1
\A1;アンカー
   7
GMM001
   0
DIMENSION
   5
3FC
 100
AcDbEntity
   8
LEVEL001
 370
15
   6
CONTINUOUS
  62
8
 100
AcDbDimension
   2
*D21
  10
 86.249999999900
  20
 214.83356191406
  30
0.0
  11
 77.749999999900
  21
 214.83356191406
  31
0.0
  70
0
   3
GMM001
 100
AcDbAlignedDimension
  13
 69.249999999900
  23
 202.83356191406
  33
0.0
  14
 86.249999999900
  24
 207.10173427293
  34
0.0
 100
AcDbRotatedDimension
   0
DIMENSION
   5
3FD
 100
AcDbEntity
   8
LEVEL001
 370
15
   6
CONTINUOUS
  62
8
 100
AcDbDimension
   2
*D22
  10
 120.24999999990
  20
 214.83356191406
  30
0.0
  11
 103.24999999990
  21
 214.83356191406
  31
0.0
  70
0
   3
GMM001
 100
AcDbAlignedDimension
  13
 86.249999999900
  23
 207.10173427293
  33
0.0
  14
 120.24999999990
  24
 207.10173427293
  34
0.0
 100
AcDbRotatedDimension
   0
DIMENSION
   5
3FE
 100
AcDbEntity
   8
LEVEL001
 370
15
   6
CONTINUOUS
  62
8
 100
AcDbDimension
   2
*D23
  10
 137.24999999990
  20
 214.83356191406
  30
0.0
  11
 128.74999999990
  21
 214.83356191406
  31
0.0
  70
0
   3
GMM001
 100
AcDbAlignedDimension
  13
 120.24999999990
  23
 207.10173427293
  33
0.0
  14
 137.24999999990
  24
 202.83356191406
  34
0.0
 100
AcDbRotatedDimension
   0
DIMENSION
   5
3FF
 100
AcDbEntity
   8
LEVEL001
 370
15
   6
CONTINUOUS
  62
8
 100
AcDbDimension
   2
*D24
  10
 137.24999999990
  20
 224.83356191406
  30
0.0
  11
 103.24999999990
  21
 224.83356191406
  31
0.0
  70
0
   3
GMM001
 100
AcDbAlignedDimension
  13
 69.249999999900
  23
 214.83356191406
  33
0.0
  14
 137.24999999990
  24
 214.83356191406
  34
0.0
 100
AcDbRotatedDimension
   0
DIMENSION
   5
400
 100
AcDbEntity
   8
LEVEL001
 370
15
   6
CONTINUOUS
  62
8
 100
AcDbDimension
   2
*D25
  10
 147.24999999990
  20
 199.83356191406
  30
0.0
  11
 147.24999999990
  21
 208.13557244448
  31
0.0
  70
128
   3
GMM006
 100
AcDbAlignedDimension
  13
 135.24999999990
  23
 204.83356191406
  33
0.0
  14
 124.42157287515
  24
 199.83356191406
  34
0.0
  50
 270.00000000000
 100
AcDbRotatedDimension
   0
MTEXT
   5
402
 100
AcDbEntity
   8
LEVEL002
 370
30
  62
7
 100
AcDbMText
  10
 31.599999999900
  20
 287.00000000002
  30
0.0
  40
 6.0000000000000
  41
0.0
  71
4
  72
1
   1
\T1.000000;　ＳＷ６８
   7
GMM001
  44
 0.79999984000003
   0
MTEXT
   5
404
 100
AcDbEntity
   8
LEVEL002
 370
30
  62
7
 100
AcDbMText
  10
 176.09999999990
  20
 287.00000000002
  30
0.0
  40
 6.0000000000000
  41
0.0
  71
4
  72
1
   1
\T1.000000;　ＳＷ７０
   7
GMM001
  44
 0.79999984000003
   0
LINE
   5
405
 100
AcDbEntity
   8
LEVEL002
 370
30
 100
AcDbLine
   6
CONTINUOUS
  62
7
  10
 213.94999999990
  20
 186.83356191406
  30
0.0
  11
 213.94999999990
  21
 202.83356191406
  31
0.0
   0
ARC
   5
406
 100
AcDbEntity
   8
LEVEL002
 370
30
   6
CONTINUOUS
  62
7
 100
AcDbCircle
  10
 214.74999999990
  20
 202.83356191406
  30
0.0
  40
 2.0000000000000
 100
AcDbArc
  50
 89.999999999987
  51
 180.00000000000
   0
ARC
   5
407
 100
AcDbEntity
   8
LEVEL002
 370
30
   6
CONTINUOUS
  62
7
 100
AcDbCircle
  10
 214.74999999990
  20
 202.83356191406
  30
0.0
  40
 0.80000000000000
 100
AcDbArc
  50
 89.999999999955
  51
 180.00000000000
   0
LINE
   5
408
 100
AcDbEntity
   8
LEVEL002
 370
30
 100
AcDbLine
   6
CONTINUOUS
  62
7
  10
 212.74999999990
  20
 186.83356191406
  30
0.0
  11
 212.74999999990
  21
 202.83356191406
  31
0.0
   0
ARC
   5
409
 100
AcDbEntity
   8
LEVEL002
 370
30
   6
CONTINUOUS
  62
7
 100
AcDbCircle
  10
 214.74999999990
  20
 186.83356191406
  30
0.0
  40
 2.0000000000000
 100
AcDbArc
  50
 180.00000000000
  51
 270.00000000001
   0
ARC
   5
40A
 100
AcDbEntity
   8
LEVEL002
 370
30
   6
CONTINUOUS
  62
7
 100
AcDbCircle
  10
 214.74999999990
  20
 186.83356191406
  30
0.0
  40
 0.80000000000000
 100
AcDbArc
  50
 180.00000000000
  51
 270.00000000008
   0
LINE
   5
40B
 100
AcDbEntity
   8
LEVEL002
 370
30
 100
AcDbLine
   6
CONTINUOUS
  62
7
  10
 214.74999999990
  20
 184.83356191406
  30
0.0
  11
 222.74999999990
  21
 184.83356191406
  31
0.0
   0
LINE
   5
40C
 100
AcDbEntity
   8
LEVEL002
 370
30
 100
AcDbLine
   6
CONTINUOUS
  62
7
  10
 222.74999999990
  20
 184.83356191406
  30
0.0
  11
 222.74999999990
  21
 186.03356191406
  31
0.0
   0
LINE
   5
40D
 100
AcDbEntity
   8
LEVEL002
 370
30
 100
AcDbLine
   6
CONTINUOUS
  62
7
  10
 222.74999999990
  20
 186.03356191406
  30
0.0
  11
 214.74999999990
  21
 186.03356191406
  31
0.0
   0
LINE
   5
40E
 100
AcDbEntity
   8
LEVEL002
 370
30
 100
AcDbLine
   6
CONTINUOUS
  62
7
  10
 282.74999999990
  20
 202.83356191406
  30
0.0
  11
 282.74999999990
  21
 186.83356191406
  31
0.0
   0
LINE
   5
40F
 100
AcDbEntity
   8
LEVEL002
 370
30
 100
AcDbLine
   6
CONTINUOUS
  62
7
  10
 281.54999999990
  20
 202.83356191406
  30
0.0
  11
 281.54999999990
  21
 186.83356191406
  31
0.0
   0
ARC
   5
410
 100
AcDbEntity
   8
LEVEL002
 370
30
   6
CONTINUOUS
  62
7
 100
AcDbCircle
  10
 280.74999999990
  20
 202.83356191406
  30
0.0
  40
 2.0000000000000
 100
AcDbArc
  50
0.0
  51
 90.000000000000
   0
ARC
   5
411
 100
AcDbEntity
   8
LEVEL002
 370
30
   6
CONTINUOUS
  62
7
 100
AcDbCircle
  10
 280.74999999990
  20
 202.83356191406
  30
0.0
  40
 0.80000000000000
 100
AcDbArc
  50
 0.40711099922732E-11
  51
 89.999999999996
   0
ARC
   5
412
 100
AcDbEntity
   8
LEVEL002
 370
30
   6
CONTINUOUS
  62
7
 100
AcDbCircle
  10
 280.74999999990
  20
 186.83356191406
  30
0.0
  40
 2.0000000000000
 100
AcDbArc
  50
 270.00000000000
  51
0.0
   0
ARC
   5
413
 100
AcDbEntity
   8
LEVEL002
 370
30
   6
CONTINUOUS
  62
7
 100
AcDbCircle
  10
 280.74999999990
  20
 186.83356191406
  30
0.0
  40
 0.80000000000000
 100
AcDbArc
  50
 269.99999999992
  51
0.0
   0
LINE
   5
414
 100
AcDbEntity
   8
LEVEL002
 370
30
 100
AcDbLine
   6
CONTINUOUS
  62
7
  10
 280.74999999990
  20
 186.03356191406
  30
0.0
  11
 272.74999999990
  21
 186.03356191406
  31
0.0
   0
LINE
   5
415
 100
AcDbEntity
   8
LEVEL002
 370
30
 100
AcDbLine
   6
CONTINUOUS
  62
7
  10
 272.74999999990
  20
 186.03356191406
  30
0.0
  11
 272.74999999990
  21
 184.83356191406
  31
0.0
   0
LINE
   5
416
 100
AcDbEntity
   8
LEVEL002
 370
30
 100
AcDbLine
   6
CONTINUOUS
  62
7
  10
 272.74999999990
  20
 184.83356191406
  30
0.0
  11
 280.74999999990
  21
 184.83356191406
  31
0.0
   0
ARC
   5
417
 100
AcDbEntity
   8
LEVEL002
 370
30
   6
CONTINUOUS
  62
7
 100
AcDbCircle
  10
 219.42157287515
  20
 202.83356191406
  30
0.0
  40
 2.0000000000000
 100
AcDbArc
  50
 45.000000000056
  51
 90.000000000014
   0
LINE
   5
418
 100
AcDbEntity
   8
LEVEL002
 370
30
 100
AcDbLine
   6
CONTINUOUS
  62
7
  10
 220.83578643752
  20
 204.24777547643
  30
0.0
  11
 224.66421356227
  21
 200.41934835168
  31
0.0
   0
LINE
   5
419
 100
AcDbEntity
   8
LEVEL002
 370
30
 100
AcDbLine
   6
CONTINUOUS
  62
7
  10
 219.98725830010
  20
 203.39924733901
  30
0.0
  11
 223.81568542485
  21
 199.57082021426
  31
0.0
   0
ARC
   5
41A
 100
AcDbEntity
   8
LEVEL002
 370
30
   6
CONTINUOUS
  62
7
 100
AcDbCircle
  10
 219.42157287515
  20
 202.83356191406
  30
0.0
  40
 0.80000000000000
 100
AcDbArc
  50
 45.000000000089
  51
 90.000000000090
   0
ARC
   5
41B
 100
AcDbEntity
   8
LEVEL002
 370
30
   6
CONTINUOUS
  62
7
 100
AcDbCircle
  10
 226.07842712464
  20
 201.83356191406
  30
0.0
  40
 2.0000000000000
 100
AcDbArc
  50
 224.99999999999
  51
 270.00000000000
   0
LINE
   5
41C
 100
AcDbEntity
   8
LEVEL002
 370
30
 100
AcDbLine
   6
CONTINUOUS
  62
7
  10
 226.07842712464
  20
 199.83356191406
  30
0.0
  11
 234.42157287515
  21
 199.83356191406
  31
0.0
   0
ARC
   5
41D
 100
AcDbEntity
   8
LEVEL002
 370
30
   6
CONTINUOUS
  62
7
 100
AcDbCircle
  10
 226.07842712464
  20
 201.83356191406
  30
0.0
  40
 3.2000000000000
 100
AcDbArc
  50
 225.00000000001
  51
 270.00000000001
   0
LINE
   5
41E
 100
AcDbEntity
   8
LEVEL002
 370
30
 100
AcDbLine
   6
CONTINUOUS
  62
7
  10
 226.07842712464
  20
 198.63356191406
  30
0.0
  11
 234.42157287515
  21
 198.63356191406
  31
0.0
   0
ARC
   5
41F
 100
AcDbEntity
   8
LEVEL002
 370
30
   6
CONTINUOUS
  62
7
 100
AcDbCircle
  10
 234.42157287515
  20
 201.83356191406
  30
0.0
  40
 2.0000000000000
 100
AcDbArc
  50
 269.99999999999
  51
 314.99999999998
   0
ARC
   5
420
 100
AcDbEntity
   8
LEVEL002
 370
30
   6
CONTINUOUS
  62
7
 100
AcDbCircle
  10
 234.42157287515
  20
 201.83356191406
  30
0.0
  40
 3.2000000000000
 100
AcDbArc
  50
 269.99999999999
  51
 314.99999999998
   0
LINE
   5
421
 100
AcDbEntity
   8
LEVEL002
 370
30
 100
AcDbLine
   6
CONTINUOUS
  62
7
  10
 235.83578643752
  20
 200.41934835168
  30
0.0
  11
 239.66421356227
  21
 204.24777547643
  31
0.0
   0
ARC
   5
422
 100
AcDbEntity
   8
LEVEL002
 370
30
   6
CONTINUOUS
  62
7
 100
AcDbCircle
  10
 241.07842712464
  20
 202.83356191406
  30
0.0
  40
 2.0000000000000
 100
AcDbArc
  50
 89.999999999999
  51
 134.99999999997
   0
LINE
   5
423
 100
AcDbEntity
   8
LEVEL002
 370
30
 100
AcDbLine
   6
CONTINUOUS
  62
7
  10
 236.68431457495
  20
 199.57082021426
  30
0.0
  11
 240.51274169970
  21
 203.39924733901
  31
0.0
   0
ARC
   5
424
 100
AcDbEntity
   8
LEVEL002
 370
30
   6
CONTINUOUS
  62
7
 100
AcDbCircle
  10
 241.07842712464
  20
 202.83356191406
  30
0.0
  40
 0.80000000000000
 100
AcDbArc
  50
 89.999999999943
  51
 134.99999999993
   0
ARC
   5
425
 100
AcDbEntity
   8
LEVEL002
 370
30
   6
CONTINUOUS
  62
7
 100
AcDbCircle
  10
 254.42157287515
  20
 202.83356191406
  30
0.0
  40
 2.0000000000000
 100
AcDbArc
  50
 45.000000000028
  51
 89.999999999994
   0
LINE
   5
426
 100
AcDbEntity
   8
LEVEL002
 370
30
 100
AcDbLine
   6
CONTINUOUS
  62
7
  10
 255.83578643752
  20
 204.24777547643
  30
0.0
  11
 259.66421356227
  21
 200.41934835168
  31
0.0
   0
ARC
   5
427
 100
AcDbEntity
   8
LEVEL002
 370
30
   6
CONTINUOUS
  62
7
 100
AcDbCircle
  10
 254.42157287515
  20
 202.83356191406
  30
0.0
  40
 0.80000000000000
 100
AcDbArc
  50
 45.000000000089
  51
 90.000000000057
   0
LINE
   5
428
 100
AcDbEntity
   8
LEVEL002
 370
30
 100
AcDbLine
   6
CONTINUOUS
  62
7
  10
 254.98725830010
  20
 203.39924733901
  30
0.0
  11
 258.81568542485
  21
 199.57082021426
  31
0.0
   0
ARC
   5
429
 100
AcDbEntity
   8
LEVEL002
 370
30
   6
CONTINUOUS
  62
7
 100
AcDbCircle
  10
 261.07842712464
  20
 201.83356191406
  30
0.0
  40
 2.0000000000000
 100
AcDbArc
  50
 225.00000000001
  51
 270.00000000001
   0
ARC
   5
42A
 100
AcDbEntity
   8
LEVEL002
 370
30
   6
CONTINUOUS
  62
7
 100
AcDbCircle
  10
 261.07842712464
  20
 201.83356191406
  30
0.0
  40
 3.2000000000000
 100
AcDbArc
  50
 225.00000000001
  51
 270.00000000002
   0
LINE
   5
42B
 100
AcDbEntity
   8
LEVEL002
 370
30
 100
AcDbLine
   6
CONTINUOUS
  62
7
  10
 261.07842712464
  20
 199.83356191406
  30
0.0
  11
 269.42157287515
  21
 199.83356191406
  31
0.0
   0
ARC
   5
42C
 100
AcDbEntity
   8
LEVEL002
 370
30
   6
CONTINUOUS
  62
7
 100
AcDbCircle
  10
 269.42157287515
  20
 201.83356191406
  30
0.0
  40
 2.0000000000000
 100
AcDbArc
  50
 269.99999999997
  51
 314.99999999999
   0
LINE
   5
42D
 100
AcDbEntity
   8
LEVEL002
 370
30
 100
AcDbLine
   6
CONTINUOUS
  62
7
  10
 270.83578643753
  20
 200.41934835168
  30
0.0
  11
 274.66421356227
  21
 204.24777547643
  31
0.0
   0
LINE
   5
42E
 100
AcDbEntity
   8
LEVEL002
 370
30
 100
AcDbLine
   6
CONTINUOUS
  62
7
  10
 261.07842712465
  20
 198.63356191406
  30
0.0
  11
 269.42157287515
  21
 198.63356191406
  31
0.0
   0
ARC
   5
42F
 100
AcDbEntity
   8
LEVEL002
 370
30
   6
CONTINUOUS
  62
7
 100
AcDbCircle
  10
 269.42157287515
  20
 201.83356191406
  30
0.0
  40
 3.2000000000000
 100
AcDbArc
  50
 269.99999999999
  51
 314.99999999999
   0
ARC
   5
430
 100
AcDbEntity
   8
LEVEL002
 370
30
   6
CONTINUOUS
  62
7
 100
AcDbCircle
  10
 276.07842712464
  20
 202.83356191406
  30
0.0
  40
 2.0000000000000
 100
AcDbArc
  50
 89.999999999974
  51
 134.99999999996
   0
LINE
   5
431
 100
AcDbEntity
   8
LEVEL002
 370
30
 100
AcDbLine
   6
CONTINUOUS
  62
7
  10
 271.68431457495
  20
 199.57082021426
  30
0.0
  11
 275.51274169969
  21
 203.39924733901
  31
0.0
   0
ARC
   5
432
 100
AcDbEntity
   8
LEVEL002
 370
30
   6
CONTINUOUS
  62
7
 100
AcDbCircle
  10
 276.07842712464
  20
 202.83356191406
  30
0.0
  40
 0.80000000000000
 100
AcDbArc
  50
 89.999999999976
  51
 134.99999999998
   0
LINE
   5
433
 100
AcDbEntity
   8
LEVEL002
 370
30
 100
AcDbLine
   6
CONTINUOUS
  62
7
  10
 214.74999999990
  20
 203.63356191406
  30
0.0
  11
 219.42157287515
  21
 203.63356191406
  31
0.0
   0
LINE
   5
434
 100
AcDbEntity
   8
LEVEL002
 370
30
 100
AcDbLine
   6
CONTINUOUS
  62
7
  10
 214.74999999990
  20
 204.83356191406
  30
0.0
  11
 219.42157287515
  21
 204.83356191406
  31
0.0
   0
LINE
   5
435
 100
AcDbEntity
   8
LEVEL002
 370
30
 100
AcDbLine
   6
CONTINUOUS
  62
7
  10
 241.07842712465
  20
 203.63356191406
  30
0.0
  11
 254.42157287515
  21
 203.63356191406
  31
0.0
   0
LINE
   5
436
 100
AcDbEntity
   8
LEVEL002
 370
30
 100
AcDbLine
   6
CONTINUOUS
  62
7
  10
 241.07842712464
  20
 204.83356191406
  30
0.0
  11
 254.58094462341
  21
 204.83356191406
  31
0.0
   0
LINE
   5
437
 100
AcDbEntity
   8
LEVEL002
 370
30
 100
AcDbLine
   6
CONTINUOUS
  62
7
  10
 280.74999999990
  20
 204.83356191406
  30
0.0
  11
 276.07842712464
  21
 204.83356191406
  31
0.0
   0
LINE
   5
438
 100
AcDbEntity
   8
LEVEL002
 370
30
 100
AcDbLine
   6
CONTINUOUS
  62
7
  10
 276.07842712464
  20
 203.63356191406
  30
0.0
  11
 280.74999999990
  21
 203.63356191406
  31
0.0
   0
LINE
   5
439
 100
AcDbEntity
   8
LEVEL002
 370
25
 100
AcDbLine
   6
CONTINUOUS
  62
1
  10
 246.74999999990
  20
 187.03356191406
  30
0.0
  11
 219.74999999990
  21
 187.03356191406
  31
0.0
   0
LINE
   5
43A
 100
AcDbEntity
   8
LEVEL002
 370
25
 100
AcDbLine
   6
CONTINUOUS
  62
1
  10
 219.74999999990
  20
 187.03356191406
  30
0.0
  11
 219.74999999990
  21
 186.03356191406
  31
0.0
   0
LINE
   5
43B
 100
AcDbEntity
   8
LEVEL002
 370
25
 100
AcDbLine
   6
CONTINUOUS
  62
1
  10
 219.74999999990
  20
 186.03356191406
  30
0.0
  11
 246.74999999990
  21
 186.03356191406
  31
0.0
   0
LINE
   5
43C
 100
AcDbEntity
   8
LEVEL002
 370
25
 100
AcDbLine
   6
CONTINUOUS
  62
1
  10
 246.15699580262
  20
 186.03356191406
  30
0.0
  11
 275.74999999990
  21
 186.03356191406
  31
0.0
   0
LINE
   5
43D
 100
AcDbEntity
   8
LEVEL002
 370
25
 100
AcDbLine
   6
CONTINUOUS
  62
1
  10
 275.74999999990
  20
 186.03356191406
  30
0.0
  11
 275.74999999990
  21
 187.03356191406
  31
0.0
   0
LINE
   5
43E
 100
AcDbEntity
   8
LEVEL002
 370
25
 100
AcDbLine
   6
CONTINUOUS
  62
1
  10
 275.74999999990
  20
 187.03356191406
  30
0.0
  11
 246.74999999990
  21
 187.03356191406
  31
0.0
   0
LINE
   5
43F
 100
AcDbEntity
   8
LEVEL002
 370
15
 100
AcDbLine
   6
DASHDOT
  62
8
  10
 230.24999999990
  20
 192.56538955519
  30
0.0
  11
 230.24999999990
  21
 207.10173427293
  31
0.0
   0
LINE
   5
440
 100
AcDbEntity
   8
LEVEL002
 370
15
 100
AcDbLine
   6
DASHDOT
  62
8
  10
 265.24999999990
  20
 192.56538955519
  30
0.0
  11
 265.24999999990
  21
 207.10173427293
  31
0.0
   0
LINE
   5
441
 100
AcDbEntity
   8
LEVEL002
 370
15
 100
AcDbLine
   6
DASHDOT
  62
8
  10
 247.74999999990
  20
 182.90108034466
  30
0.0
  11
 247.74999999990
  21
 210.59581718677
  31
0.0
   0
DIMENSION
   5
442
 100
AcDbEntity
   8
LEVEL001
 370
15
   6
CONTINUOUS
  62
8
 100
AcDbDimension
   2
*D26
  10
 202.74999999990
  20
 204.83356191406
  30
0.0
  11
 202.74999999990
  21
 194.83356191406
  31
0.0
  70
0
   3
GMM001
 100
AcDbAlignedDimension
  13
 212.74999999990
  23
 184.83356191406
  33
0.0
  14
 212.74999999990
  24
 204.83356191406
  34
0.0
  50
 90.000000000000
 100
AcDbRotatedDimension
   0
LEADER
   5
443
 100
AcDbEntity
   8
LEVEL001
 370
15
   6
CONTINUOUS
  62
8
 100
AcDbLeader
   3
GMM002
  73
0
  74
0
  75
0
  40
 4.0000000000000
  41
 16.000000000000
  76
2
  10
 265.66867348286
  20
 186.03356191406
  30
0.0
  10
 272.88197833789
  20
 173.50116030820
  30
0.0
  77
8
 340
444
 213
0.0
 223
-1.0000000000000
 233
0.0
   0
MTEXT
   5
444
 102
{ACAD_REACTORS
 330
443
 102
}
 100
AcDbEntity
   8
LEVEL001
 370
15
  62
8
 100
AcDbMText
  10
 272.88197833789
  20
 174.50116030820
  30
0.0
  40
 4.0000000000000
  41
0.0
  71
7
  72
1
   1
\A1;アンカー
   7
GMM001
   0
DIMENSION
   5
445
 100
AcDbEntity
   8
LEVEL001
 370
15
   6
CONTINUOUS
  62
8
 100
AcDbDimension
   2
*D28
  10
 230.24999999990
  20
 214.83356191406
  30
0.0
  11
 221.49999999990
  21
 214.83356191406
  31
0.0
  70
0
   3
GMM001
 100
AcDbAlignedDimension
  13
 212.74999999990
  23
 202.83356191406
  33
0.0
  14
 230.24999999990
  24
 207.10173427293
  34
0.0
 100
AcDbRotatedDimension
   0
DIMENSION
   5
446
 100
AcDbEntity
   8
LEVEL001
 370
15
   6
CONTINUOUS
  62
8
 100
AcDbDimension
   2
*D29
  10
 265.24999999990
  20
 214.83356191406
  30
0.0
  11
 247.74999999990
  21
 214.83356191406
  31
0.0
  70
0
   3
GMM001
 100
AcDbAlignedDimension
  13
 230.24999999990
  23
 207.10173427293
  33
0.0
  14
 265.24999999990
  24
 207.10173427293
  34
0.0
 100
AcDbRotatedDimension
   0
DIMENSION
   5
447
 100
AcDbEntity
   8
LEVEL001
 370
15
   6
CONTINUOUS
  62
8
 100
AcDbDimension
   2
*D30
  10
 282.74999999990
  20
 214.83356191406
  30
0.0
  11
 273.99999999990
  21
 214.83356191406
  31
0.0
  70
0
   3
GMM001
 100
AcDbAlignedDimension
  13
 265.24999999990
  23
 207.10173427293
  33
0.0
  14
 282.74999999990
  24
 202.22510182342
  34
0.0
 100
AcDbRotatedDimension
   0
DIMENSION
   5
448
 100
AcDbEntity
   8
LEVEL001
 370
15
   6
CONTINUOUS
  62
8
 100
AcDbDimension
   2
*D31
  10
 282.74999999990
  20
 224.83356191406
  30
0.0
  11
 247.74999999990
  21
 224.83356191406
  31
0.0
  70
0
   3
GMM001
 100
AcDbAlignedDimension
  13
 212.74999999990
  23
 214.83356191406
  33
0.0
  14
 282.74999999990
  24
 214.83356191406
  34
0.0
 100
AcDbRotatedDimension
   0
DIMENSION
   5
449
 100
AcDbEntity
   8
LEVEL001
 370
15
   6
CONTINUOUS
  62
8
 100
AcDbDimension
   2
*D32
  10
 292.74999999990
  20
 199.83356191406
  30
0.0
  11
 292.74999999990
  21
 208.42964094908
  31
0.0
  70
128
   3
GMM007
 100
AcDbAlignedDimension
  13
 280.74999999990
  23
 204.83356191406
  33
0.0
  14
 269.42157287515
  24
 199.83356191406
  34
0.0
  50
 270.00000000000
 100
AcDbRotatedDimension
   0
MTEXT
   5
44B
 100
AcDbEntity
   8
LEVEL002
 370
15
  62
8
 100
AcDbMText
  10
 35.999999999900
  20
 269.33333333342
  30
0.0
  40
 4.0000000000000
  41
0.0
  71
7
  72
1
   1
\T1.125000;※コンクリート用
   7
GMM001
  44
 0.79999984000003
   0
MTEXT
   5
44D
 100
AcDbEntity
   8
LEVEL002
 370
15
  62
8
 100
AcDbMText
  10
 180.49999999990
  20
 269.33333333342
  30
0.0
  40
 4.0000000000000
  41
0.0
  71
7
  72
1
   1
\T1.125000;※コンクリート用
   7
GMM001
  44
 0.79999984000003
   0
ARC
   5
44E
 100
AcDbEntity
   8
LEVEL002
 370
30
   6
CONTINUOUS
  62
7
 100
AcDbCircle
  10
 344.24999999990
  20
 339.33356191406
  30
0.0
  40
 2.0000000000000
 100
AcDbArc
  50
 89.999999999980
  51
 180.00000000000
   0
ARC
   5
44F
 100
AcDbEntity
   8
LEVEL002
 370
30
   6
CONTINUOUS
  62
7
 100
AcDbCircle
  10
 343.94999999990
  20
 339.63356191406
  30
0.0
  40
 0.50000000000000
 100
AcDbArc
  50
 89.999999999792
  51
 180.00000000000
   0
LINE
   5
450
 100
AcDbEntity
   8
LEVEL002
 370
30
 100
AcDbLine
   6
CONTINUOUS
  62
7
  10
 344.24999999990
  20
 321.33356191406
  30
0.0
  11
 352.24999999990
  21
 321.33356191406
  31
0.0
   0
LINE
   5
451
 100
AcDbEntity
   8
LEVEL002
 370
30
 100
AcDbLine
   6
CONTINUOUS
  62
7
  10
 352.24999999990
  20
 321.33356191406
  30
0.0
  11
 352.24999999990
  21
 322.53356191406
  31
0.0
   0
LINE
   5
452
 100
AcDbEntity
   8
LEVEL002
 370
30
 100
AcDbLine
   6
CONTINUOUS
  62
7
  10
 343.94999999990
  20
 322.53356191406
  30
0.0
  11
 352.24999999990
  21
 322.53356191406
  31
0.0
   0
ARC
   5
453
 100
AcDbEntity
   8
LEVEL002
 370
30
   6
CONTINUOUS
  62
7
 100
AcDbCircle
  10
 344.24999999990
  20
 323.33356191406
  30
0.0
  40
 2.0000000000000
 100
AcDbArc
  50
 180.00000000000
  51
 270.00000000000
   0
ARC
   5
454
 100
AcDbEntity
   8
LEVEL002
 370
30
   6
CONTINUOUS
  62
7
 100
AcDbCircle
  10
 343.94999999990
  20
 323.03356191406
  30
0.0
  40
 0.50000000000000
 100
AcDbArc
  50
 180.00000000000
  51
 270.00000000021
   0
LINE
   5
455
 100
AcDbEntity
   8
LEVEL002
 370
30
 100
AcDbLine
   6
CONTINUOUS
  62
7
  10
 342.24999999990
  20
 323.33356191406
  30
0.0
  11
 342.24999999990
  21
 339.33356191406
  31
0.0
   0
LINE
   5
456
 100
AcDbEntity
   8
LEVEL002
 370
30
 100
AcDbLine
   6
CONTINUOUS
  62
7
  10
 343.44999999990
  20
 323.03356191406
  30
0.0
  11
 343.44999999990
  21
 339.63356191406
  31
0.0
   0
LINE
   5
457
 100
AcDbEntity
   8
LEVEL002
 370
30
 100
AcDbLine
   6
CONTINUOUS
  62
7
  10
 432.24999999990
  20
 322.53356191406
  30
0.0
  11
 432.24999999990
  21
 321.33356191406
  31
0.0
   0
LINE
   5
458
 100
AcDbEntity
   8
LEVEL002
 370
30
 100
AcDbLine
   6
CONTINUOUS
  62
7
  10
 432.24999999990
  20
 321.33356191406
  30
0.0
  11
 440.24999999990
  21
 321.33356191406
  31
0.0
   0
LINE
   5
459
 100
AcDbEntity
   8
LEVEL002
 370
30
 100
AcDbLine
   6
CONTINUOUS
  62
7
  10
 432.24999999990
  20
 322.53356191406
  30
0.0
  11
 440.54999999990
  21
 322.53356191406
  31
0.0
   0
ARC
   5
45A
 100
AcDbEntity
   8
LEVEL002
 370
30
   6
CONTINUOUS
  62
7
 100
AcDbCircle
  10
 440.24999999990
  20
 339.33356191406
  30
0.0
  40
 2.0000000000000
 100
AcDbArc
  50
0.0
  51
 90.000000000000
   0
ARC
   5
45B
 100
AcDbEntity
   8
LEVEL002
 370
30
   6
CONTINUOUS
  62
7
 100
AcDbCircle
  10
 440.54999999990
  20
 339.63356191406
  30
0.0
  40
 0.50000000000000
 100
AcDbArc
  50
0.0
  51
 90.000000000000
   0
LINE
   5
45C
 100
AcDbEntity
   8
LEVEL002
 370
30
 100
AcDbLine
   6
CONTINUOUS
  62
7
  10
 441.04999999990
  20
 339.63356191406
  30
0.0
  11
 441.04999999990
  21
 323.03356191406
  31
0.0
   0
LINE
   5
45D
 100
AcDbEntity
   8
LEVEL002
 370
30
 100
AcDbLine
   6
CONTINUOUS
  62
7
  10
 442.24999999990
  20
 339.33356191406
  30
0.0
  11
 442.24999999990
  21
 323.33356191406
  31
0.0
   0
ARC
   5
45E
 100
AcDbEntity
   8
LEVEL002
 370
30
   6
CONTINUOUS
  62
7
 100
AcDbCircle
  10
 440.24999999990
  20
 323.33356191406
  30
0.0
  40
 2.0000000000000
 100
AcDbArc
  50
 270.00000000000
  51
0.0
   0
ARC
   5
45F
 100
AcDbEntity
   8
LEVEL002
 370
30
   6
CONTINUOUS
  62
7
 100
AcDbCircle
  10
 440.54999999990
  20
 323.03356191406
  30
0.0
  40
 0.50000000000000
 100
AcDbArc
  50
 270.00000000000
  51
0.0
   0
LINE
   5
460
 100
AcDbEntity
   8
LEVEL002
 370
25
 100
AcDbLine
   6
CONTINUOUS
  62
1
  10
 349.24999999990
  20
 322.53356191406
  30
0.0
  11
 349.24999999990
  21
 323.53356191406
  31
0.0
   0
LINE
   5
461
 100
AcDbEntity
   8
LEVEL002
 370
25
 100
AcDbLine
   6
CONTINUOUS
  62
1
  10
 349.24999999990
  20
 323.53356191406
  30
0.0
  11
 370.74999999990
  21
 323.53356191406
  31
0.0
   0
LINE
   5
462
 100
AcDbEntity
   8
LEVEL002
 370
25
 100
AcDbLine
   6
CONTINUOUS
  62
1
  10
 370.74999999990
  20
 322.53356191406
  30
0.0
  11
 352.24999999990
  21
 322.53356191406
  31
0.0
   0
LINE
   5
463
 100
AcDbEntity
   8
LEVEL002
 370
25
 100
AcDbLine
   6
CONTINUOUS
  62
1
  10
 432.24999999990
  20
 322.53356191406
  30
0.0
  11
 370.74999999990
  21
 322.53356191406
  31
0.0
   0
LINE
   5
464
 100
AcDbEntity
   8
LEVEL002
 370
25
 100
AcDbLine
   6
CONTINUOUS
  62
1
  10
 370.74999999990
  20
 323.53356191406
  30
0.0
  11
 435.24999999990
  21
 323.53356191406
  31
0.0
   0
LINE
   5
465
 100
AcDbEntity
   8
LEVEL002
 370
25
 100
AcDbLine
   6
CONTINUOUS
  62
1
  10
 435.24999999990
  20
 323.53356191406
  30
0.0
  11
 435.24999999990
  21
 322.53356191406
  31
0.0
   0
LINE
   5
466
 100
AcDbEntity
   8
LEVEL002
 370
15
 100
AcDbLine
   6
DASHDOT
  62
8
  10
 392.24999999990
  20
 319.40108034466
  30
0.0
  11
 392.24999999990
  21
 347.09581718677
  31
0.0
   0
DIMENSION
   5
467
 100
AcDbEntity
   8
LEVEL001
 370
15
   6
CONTINUOUS
  62
8
 100
AcDbDimension
   2
*D33
  10
 332.24999999990
  20
 341.33356191406
  30
0.0
  11
 332.24999999990
  21
 331.33356191406
  31
0.0
  70
0
   3
GMM001
 100
AcDbAlignedDimension
  13
 342.24999999990
  23
 321.33356191406
  33
0.0
  14
 342.24999999990
  24
 341.33356191406
  34
0.0
  50
 90.000000000000
 100
AcDbRotatedDimension
   0
LEADER
   5
468
 100
AcDbEntity
   8
LEVEL001
 370
15
   6
CONTINUOUS
  62
8
 100
AcDbLeader
   3
GMM002
  73
0
  74
0
  75
0
  40
 4.0000000000000
  41
 16.000000000000
  76
2
  10
 409.96052333720
  20
 322.53356191406
  30
0.0
  10
 417.17382819223
  20
 310.00116030820
  30
0.0
  77
8
 340
469
 213
0.0
 223
-1.0000000000000
 233
0.0
   0
MTEXT
   5
469
 102
{ACAD_REACTORS
 330
468
 102
}
 100
AcDbEntity
   8
LEVEL001
 370
15
  62
8
 100
AcDbMText
  10
 417.17382819223
  20
 311.00116030820
  30
0.0
  40
 4.0000000000000
  41
0.0
  71
7
  72
1
   1
\A1;アンカー
   7
GMM001
   0
DIMENSION
   5
46A
 100
AcDbEntity
   8
LEVEL001
 370
15
   6
CONTINUOUS
  62
8
 100
AcDbDimension
   2
*D35
  10
 442.24999999990
  20
 361.33356191406
  30
0.0
  11
 392.24999999990
  21
 361.33356191406
  31
0.0
  70
0
   3
GMM001
 100
AcDbAlignedDimension
  13
 342.24999999990
  23
 351.33356191406
  33
0.0
  14
 442.24999999990
  24
 351.33356191406
  34
0.0
 100
AcDbRotatedDimension
   0
DIMENSION
   5
46B
 100
AcDbEntity
   8
LEVEL001
 370
15
   6
CONTINUOUS
  62
8
 100
AcDbDimension
   2
*D36
  10
 452.24999999990
  20
 341.33356191406
  30
0.0
  11
 452.24999999990
  21
 344.34150393988
  31
0.0
  70
128
   3
GMM005
 100
AcDbAlignedDimension
  13
 417.92157287515
  23
 336.33356191406
  33
0.0
  14
 440.42157287516
  24
 341.33356191406
  34
0.0
  50
 90.000000000000
 100
AcDbRotatedDimension
   0
ARC
   5
46C
 100
AcDbEntity
   8
LEVEL002
 370
30
   6
CONTINUOUS
  62
7
 100
AcDbCircle
  10
 199.74999999990
  20
 339.33356191406
  30
0.0
  40
 2.0000000000000
 100
AcDbArc
  50
 89.999999999980
  51
 180.00000000000
   0
ARC
   5
46D
 100
AcDbEntity
   8
LEVEL002
 370
30
   6
CONTINUOUS
  62
7
 100
AcDbCircle
  10
 199.44999999990
  20
 339.63356191406
  30
0.0
  40
 0.50000000000000
 100
AcDbArc
  50
 89.999999999792
  51
 180.00000000000
   0
LINE
   5
46E
 100
AcDbEntity
   8
LEVEL002
 370
30
 100
AcDbLine
   6
CONTINUOUS
  62
7
  10
 199.74999999990
  20
 321.33356191406
  30
0.0
  11
 207.74999999990
  21
 321.33356191406
  31
0.0
   0
LINE
   5
46F
 100
AcDbEntity
   8
LEVEL002
 370
30
 100
AcDbLine
   6
CONTINUOUS
  62
7
  10
 207.74999999990
  20
 321.33356191406
  30
0.0
  11
 207.74999999990
  21
 322.53356191406
  31
0.0
   0
LINE
   5
470
 100
AcDbEntity
   8
LEVEL002
 370
30
 100
AcDbLine
   6
CONTINUOUS
  62
7
  10
 199.44999999990
  20
 322.53356191406
  30
0.0
  11
 207.74999999990
  21
 322.53356191406
  31
0.0
   0
ARC
   5
471
 100
AcDbEntity
   8
LEVEL002
 370
30
   6
CONTINUOUS
  62
7
 100
AcDbCircle
  10
 199.74999999990
  20
 323.33356191406
  30
0.0
  40
 2.0000000000000
 100
AcDbArc
  50
 180.00000000000
  51
 270.00000000000
   0
ARC
   5
472
 100
AcDbEntity
   8
LEVEL002
 370
30
   6
CONTINUOUS
  62
7
 100
AcDbCircle
  10
 199.44999999990
  20
 323.03356191406
  30
0.0
  40
 0.50000000000000
 100
AcDbArc
  50
 180.00000000000
  51
 270.00000000021
   0
LINE
   5
473
 100
AcDbEntity
   8
LEVEL002
 370
30
 100
AcDbLine
   6
CONTINUOUS
  62
7
  10
 197.74999999990
  20
 323.33356191406
  30
0.0
  11
 197.74999999990
  21
 339.33356191406
  31
0.0
   0
LINE
   5
474
 100
AcDbEntity
   8
LEVEL002
 370
30
 100
AcDbLine
   6
CONTINUOUS
  62
7
  10
 198.94999999990
  20
 323.03356191406
  30
0.0
  11
 198.94999999990
  21
 339.63356191406
  31
0.0
   0
LINE
   5
475
 100
AcDbEntity
   8
LEVEL002
 370
30
 100
AcDbLine
   6
CONTINUOUS
  62
7
  10
 287.74999999990
  20
 322.53356191406
  30
0.0
  11
 287.74999999990
  21
 321.33356191406
  31
0.0
   0
LINE
   5
476
 100
AcDbEntity
   8
LEVEL002
 370
30
 100
AcDbLine
   6
CONTINUOUS
  62
7
  10
 287.74999999990
  20
 321.33356191406
  30
0.0
  11
 295.74999999990
  21
 321.33356191406
  31
0.0
   0
LINE
   5
477
 100
AcDbEntity
   8
LEVEL002
 370
30
 100
AcDbLine
   6
CONTINUOUS
  62
7
  10
 287.74999999990
  20
 322.53356191406
  30
0.0
  11
 296.04999999990
  21
 322.53356191406
  31
0.0
   0
ARC
   5
478
 100
AcDbEntity
   8
LEVEL002
 370
30
   6
CONTINUOUS
  62
7
 100
AcDbCircle
  10
 295.74999999990
  20
 339.33356191406
  30
0.0
  40
 2.0000000000000
 100
AcDbArc
  50
0.0
  51
 90.000000000000
   0
ARC
   5
479
 100
AcDbEntity
   8
LEVEL002
 370
30
   6
CONTINUOUS
  62
7
 100
AcDbCircle
  10
 296.04999999990
  20
 339.63356191406
  30
0.0
  40
 0.50000000000000
 100
AcDbArc
  50
0.0
  51
 90.000000000000
   0
LINE
   5
47A
 100
AcDbEntity
   8
LEVEL002
 370
30
 100
AcDbLine
   6
CONTINUOUS
  62
7
  10
 296.54999999990
  20
 339.63356191406
  30
0.0
  11
 296.54999999990
  21
 323.03356191406
  31
0.0
   0
LINE
   5
47B
 100
AcDbEntity
   8
LEVEL002
 370
30
 100
AcDbLine
   6
CONTINUOUS
  62
7
  10
 297.74999999990
  20
 339.33356191406
  30
0.0
  11
 297.74999999990
  21
 323.33356191406
  31
0.0
   0
ARC
   5
47C
 100
AcDbEntity
   8
LEVEL002
 370
30
   6
CONTINUOUS
  62
7
 100
AcDbCircle
  10
 295.74999999990
  20
 323.33356191406
  30
0.0
  40
 2.0000000000000
 100
AcDbArc
  50
 270.00000000000
  51
0.0
   0
ARC
   5
47D
 100
AcDbEntity
   8
LEVEL002
 370
30
   6
CONTINUOUS
  62
7
 100
AcDbCircle
  10
 296.04999999990
  20
 323.03356191406
  30
0.0
  40
 0.50000000000000
 100
AcDbArc
  50
 270.00000000000
  51
0.0
   0
LINE
   5
47E
 100
AcDbEntity
   8
LEVEL002
 370
25
 100
AcDbLine
   6
CONTINUOUS
  62
1
  10
 204.74999999990
  20
 322.53356191406
  30
0.0
  11
 204.74999999990
  21
 323.53356191406
  31
0.0
   0
LINE
   5
47F
 100
AcDbEntity
   8
LEVEL002
 370
25
 100
AcDbLine
   6
CONTINUOUS
  62
1
  10
 204.74999999990
  20
 323.53356191406
  30
0.0
  11
 226.24999999990
  21
 323.53356191406
  31
0.0
   0
LINE
   5
480
 100
AcDbEntity
   8
LEVEL002
 370
25
 100
AcDbLine
   6
CONTINUOUS
  62
1
  10
 226.24999999990
  20
 322.53356191406
  30
0.0
  11
 207.74999999990
  21
 322.53356191406
  31
0.0
   0
LINE
   5
481
 100
AcDbEntity
   8
LEVEL002
 370
25
 100
AcDbLine
   6
CONTINUOUS
  62
1
  10
 287.74999999990
  20
 322.53356191406
  30
0.0
  11
 226.24999999990
  21
 322.53356191406
  31
0.0
   0
LINE
   5
482
 100
AcDbEntity
   8
LEVEL002
 370
25
 100
AcDbLine
   6
CONTINUOUS
  62
1
  10
 226.24999999990
  20
 323.53356191406
  30
0.0
  11
 290.74999999990
  21
 323.53356191406
  31
0.0
   0
LINE
   5
483
 100
AcDbEntity
   8
LEVEL002
 370
25
 100
AcDbLine
   6
CONTINUOUS
  62
1
  10
 290.74999999990
  20
 323.53356191406
  30
0.0
  11
 290.74999999990
  21
 322.53356191406
  31
0.0
   0
LINE
   5
484
 100
AcDbEntity
   8
LEVEL002
 370
15
 100
AcDbLine
   6
DASHDOT
  62
8
  10
 247.74999999990
  20
 319.40108034466
  30
0.0
  11
 247.74999999990
  21
 347.09581718677
  31
0.0
   0
DIMENSION
   5
485
 100
AcDbEntity
   8
LEVEL001
 370
15
   6
CONTINUOUS
  62
8
 100
AcDbDimension
   2
*D37
  10
 187.74999999990
  20
 341.33356191406
  30
0.0
  11
 187.74999999990
  21
 331.33356191406
  31
0.0
  70
0
   3
GMM001
 100
AcDbAlignedDimension
  13
 197.74999999990
  23
 321.33356191406
  33
0.0
  14
 197.74999999990
  24
 341.33356191406
  34
0.0
  50
 90.000000000000
 100
AcDbRotatedDimension
   0
LEADER
   5
486
 100
AcDbEntity
   8
LEVEL001
 370
15
   6
CONTINUOUS
  62
8
 100
AcDbLeader
   3
GMM002
  73
0
  74
0
  75
0
  40
 4.0000000000000
  41
 16.000000000000
  76
2
  10
 265.46052333720
  20
 322.53356191406
  30
0.0
  10
 272.67382819223
  20
 310.00116030820
  30
0.0
  77
8
 340
487
 213
0.0
 223
-1.0000000000000
 233
0.0
   0
MTEXT
   5
487
 102
{ACAD_REACTORS
 330
486
 102
}
 100
AcDbEntity
   8
LEVEL001
 370
15
  62
8
 100
AcDbMText
  10
 272.67382819223
  20
 311.00116030820
  30
0.0
  40
 4.0000000000000
  41
0.0
  71
7
  72
1
   1
\A1;アンカー
   7
GMM001
   0
DIMENSION
   5
488
 100
AcDbEntity
   8
LEVEL001
 370
15
   6
CONTINUOUS
  62
8
 100
AcDbDimension
   2
*D39
  10
 297.74999999990
  20
 361.33356191406
  30
0.0
  11
 247.74999999990
  21
 361.33356191406
  31
0.0
  70
0
   3
GMM001
 100
AcDbAlignedDimension
  13
 197.74999999990
  23
 351.33356191406
  33
0.0
  14
 297.74999999990
  24
 351.33356191406
  34
0.0
 100
AcDbRotatedDimension
   0
ARC
   5
489
 100
AcDbEntity
   8
LEVEL002
 370
30
   6
CONTINUOUS
  62
7
 100
AcDbCircle
  10
 55.249999999900
  20
 339.33356191406
  30
0.0
  40
 2.0000000000000
 100
AcDbArc
  50
 89.999999999980
  51
 180.00000000000
   0
ARC
   5
48A
 100
AcDbEntity
   8
LEVEL002
 370
30
   6
CONTINUOUS
  62
7
 100
AcDbCircle
  10
 54.949999999900
  20
 339.63356191406
  30
0.0
  40
 0.50000000000000
 100
AcDbArc
  50
 89.999999999792
  51
 180.00000000000
   0
LINE
   5
48B
 100
AcDbEntity
   8
LEVEL002
 370
30
 100
AcDbLine
   6
CONTINUOUS
  62
7
  10
 55.249999999900
  20
 321.33356191406
  30
0.0
  11
 63.249999999900
  21
 321.33356191406
  31
0.0
   0
LINE
   5
48C
 100
AcDbEntity
   8
LEVEL002
 370
30
 100
AcDbLine
   6
CONTINUOUS
  62
7
  10
 63.249999999900
  20
 321.33356191406
  30
0.0
  11
 63.249999999900
  21
 322.53356191406
  31
0.0
   0
LINE
   5
48D
 100
AcDbEntity
   8
LEVEL002
 370
30
 100
AcDbLine
   6
CONTINUOUS
  62
7
  10
 54.949999999900
  20
 322.53356191406
  30
0.0
  11
 63.249999999900
  21
 322.53356191406
  31
0.0
   0
ARC
   5
48E
 100
AcDbEntity
   8
LEVEL002
 370
30
   6
CONTINUOUS
  62
7
 100
AcDbCircle
  10
 55.249999999900
  20
 323.33356191406
  30
0.0
  40
 2.0000000000000
 100
AcDbArc
  50
 180.00000000000
  51
 270.00000000000
   0
ARC
   5
48F
 100
AcDbEntity
   8
LEVEL002
 370
30
   6
CONTINUOUS
  62
7
 100
AcDbCircle
  10
 54.949999999900
  20
 323.03356191406
  30
0.0
  40
 0.50000000000000
 100
AcDbArc
  50
 180.00000000000
  51
 270.00000000021
   0
LINE
   5
490
 100
AcDbEntity
   8
LEVEL002
 370
30
 100
AcDbLine
   6
CONTINUOUS
  62
7
  10
 53.249999999900
  20
 323.33356191406
  30
0.0
  11
 53.249999999900
  21
 339.33356191406
  31
0.0
   0
LINE
   5
491
 100
AcDbEntity
   8
LEVEL002
 370
30
 100
AcDbLine
   6
CONTINUOUS
  62
7
  10
 54.449999999900
  20
 323.03356191406
  30
0.0
  11
 54.449999999900
  21
 339.63356191406
  31
0.0
   0
LINE
   5
492
 100
AcDbEntity
   8
LEVEL002
 370
30
 100
AcDbLine
   6
CONTINUOUS
  62
7
  10
 143.24999999990
  20
 322.53356191406
  30
0.0
  11
 143.24999999990
  21
 321.33356191406
  31
0.0
   0
LINE
   5
493
 100
AcDbEntity
   8
LEVEL002
 370
30
 100
AcDbLine
   6
CONTINUOUS
  62
7
  10
 143.24999999990
  20
 321.33356191406
  30
0.0
  11
 151.24999999990
  21
 321.33356191406
  31
0.0
   0
LINE
   5
494
 100
AcDbEntity
   8
LEVEL002
 370
30
 100
AcDbLine
   6
CONTINUOUS
  62
7
  10
 143.24999999990
  20
 322.53356191406
  30
0.0
  11
 151.54999999990
  21
 322.53356191406
  31
0.0
   0
ARC
   5
495
 100
AcDbEntity
   8
LEVEL002
 370
30
   6
CONTINUOUS
  62
7
 100
AcDbCircle
  10
 151.24999999990
  20
 339.33356191406
  30
0.0
  40
 2.0000000000000
 100
AcDbArc
  50
0.0
  51
 90.000000000000
   0
ARC
   5
496
 100
AcDbEntity
   8
LEVEL002
 370
30
   6
CONTINUOUS
  62
7
 100
AcDbCircle
  10
 151.54999999990
  20
 339.63356191406
  30
0.0
  40
 0.50000000000000
 100
AcDbArc
  50
0.0
  51
 90.000000000000
   0
LINE
   5
497
 100
AcDbEntity
   8
LEVEL002
 370
30
 100
AcDbLine
   6
CONTINUOUS
  62
7
  10
 152.04999999990
  20
 339.63356191406
  30
0.0
  11
 152.04999999990
  21
 323.03356191406
  31
0.0
   0
LINE
   5
498
 100
AcDbEntity
   8
LEVEL002
 370
30
 100
AcDbLine
   6
CONTINUOUS
  62
7
  10
 153.24999999990
  20
 339.33356191406
  30
0.0
  11
 153.24999999990
  21
 323.33356191406
  31
0.0
   0
ARC
   5
499
 100
AcDbEntity
   8
LEVEL002
 370
30
   6
CONTINUOUS
  62
7
 100
AcDbCircle
  10
 151.24999999990
  20
 323.33356191406
  30
0.0
  40
 2.0000000000000
 100
AcDbArc
  50
 270.00000000000
  51
0.0
   0
ARC
   5
49A
 100
AcDbEntity
   8
LEVEL002
 370
30
   6
CONTINUOUS
  62
7
 100
AcDbCircle
  10
 151.54999999990
  20
 323.03356191406
  30
0.0
  40
 0.50000000000000
 100
AcDbArc
  50
 270.00000000000
  51
0.0
   0
LINE
   5
49B
 100
AcDbEntity
   8
LEVEL002
 370
25
 100
AcDbLine
   6
CONTINUOUS
  62
1
  10
 60.249999999900
  20
 322.53356191406
  30
0.0
  11
 60.249999999900
  21
 323.53356191406
  31
0.0
   0
LINE
   5
49C
 100
AcDbEntity
   8
LEVEL002
 370
25
 100
AcDbLine
   6
CONTINUOUS
  62
1
  10
 60.249999999900
  20
 323.53356191406
  30
0.0
  11
 81.749999999900
  21
 323.53356191406
  31
0.0
   0
LINE
   5
49D
 100
AcDbEntity
   8
LEVEL002
 370
25
 100
AcDbLine
   6
CONTINUOUS
  62
1
  10
 81.749999999900
  20
 322.53356191406
  30
0.0
  11
 63.249999999900
  21
 322.53356191406
  31
0.0
   0
LINE
   5
49E
 100
AcDbEntity
   8
LEVEL002
 370
25
 100
AcDbLine
   6
CONTINUOUS
  62
1
  10
 143.24999999990
  20
 322.53356191406
  30
0.0
  11
 81.749999999900
  21
 322.53356191406
  31
0.0
   0
LINE
   5
49F
 100
AcDbEntity
   8
LEVEL002
 370
25
 100
AcDbLine
   6
CONTINUOUS
  62
1
  10
 81.749999999900
  20
 323.53356191406
  30
0.0
  11
 146.24999999990
  21
 323.53356191406
  31
0.0
   0
LINE
   5
4A0
 100
AcDbEntity
   8
LEVEL002
 370
25
 100
AcDbLine
   6
CONTINUOUS
  62
1
  10
 146.24999999990
  20
 323.53356191406
  30
0.0
  11
 146.24999999990
  21
 322.53356191406
  31
0.0
   0
LINE
   5
4A1
 100
AcDbEntity
   8
LEVEL002
 370
15
 100
AcDbLine
   6
DASHDOT
  62
8
  10
 103.24999999990
  20
 319.40108034466
  30
0.0
  11
 103.24999999990
  21
 347.09581718677
  31
0.0
   0
DIMENSION
   5
4A2
 100
AcDbEntity
   8
LEVEL001
 370
15
   6
CONTINUOUS
  62
8
 100
AcDbDimension
   2
*D40
  10
 43.249999999900
  20
 341.33356191406
  30
0.0
  11
 43.249999999900
  21
 331.33356191406
  31
0.0
  70
0
   3
GMM001
 100
AcDbAlignedDimension
  13
 53.249999999899
  23
 321.33356191406
  33
0.0
  14
 53.249999999900
  24
 341.33356191406
  34
0.0
  50
 90.000000000000
 100
AcDbRotatedDimension
   0
LEADER
   5
4A3
 100
AcDbEntity
   8
LEVEL001
 370
15
   6
CONTINUOUS
  62
8
 100
AcDbLeader
   3
GMM002
  73
0
  74
0
  75
0
  40
 4.0000000000000
  41
 16.000000000000
  76
2
  10
 120.96052333720
  20
 322.53356191406
  30
0.0
  10
 128.17382819223
  20
 310.00116030820
  30
0.0
  77
8
 340
4A4
 213
0.0
 223
-1.0000000000000
 233
0.0
   0
MTEXT
   5
4A4
 102
{ACAD_REACTORS
 330
4A3
 102
}
 100
AcDbEntity
   8
LEVEL001
 370
15
  62
8
 100
AcDbMText
  10
 128.17382819223
  20
 311.00116030820
  30
0.0
  40
 4.0000000000000
  41
0.0
  71
7
  72
1
   1
\A1;アンカー
   7
GMM001
   0
DIMENSION
   5
4A5
 100
AcDbEntity
   8
LEVEL001
 370
15
   6
CONTINUOUS
  62
8
 100
AcDbDimension
   2
*D42
  10
 153.24999999990
  20
 361.33356191406
  30
0.0
  11
 103.24999999990
  21
 361.33356191406
  31
0.0
  70
0
   3
GMM001
 100
AcDbAlignedDimension
  13
 53.249999999900
  23
 351.33356191406
  33
0.0
  14
 153.24999999990
  24
 351.33356191406
  34
0.0
 100
AcDbRotatedDimension
   0
LINE
   5
4A6
 100
AcDbEntity
   8
LEVEL002
 370
30
 100
AcDbLine
   6
CONTINUOUS
  62
7
  10
 526.16126983712
  20
 340.13356191406
  30
0.0
  11
 547.33873016268
  21
 340.13356191406
  31
0.0
   0
ARC
   5
4A7
 100
AcDbEntity
   8
LEVEL002
 370
30
   6
CONTINUOUS
  62
7
 100
AcDbCircle
  10
 75.921572875150
  20
 339.33356191406
  30
0.0
  40
 2.0000000000000
 100
AcDbArc
  50
 45.000000000001
  51
 89.999999999975
   0
LINE
   5
4A8
 100
AcDbEntity
   8
LEVEL002
 370
30
 100
AcDbLine
   6
CONTINUOUS
  62
7
  10
 77.335786437530
  20
 340.74777547643
  30
0.0
  11
 81.164213562270
  21
 336.91934835168
  31
0.0
   0
LINE
   5
4A9
 100
AcDbEntity
   8
LEVEL002
 370
30
 100
AcDbLine
   6
CONTINUOUS
  62
7
  10
 76.545836943870
  20
 339.84066869524
  30
0.0
  11
 80.315685424850
  21
 336.07082021426
  31
0.0
   0
LINE
   5
4AA
 100
AcDbEntity
   8
LEVEL002
 370
30
 100
AcDbLine
   6
CONTINUOUS
  62
7
  10
 82.578427124650
  20
 336.33356191406
  30
0.0
  11
 90.921572875150
  21
 336.33356191406
  31
0.0
   0
ARC
   5
4AB
 100
AcDbEntity
   8
LEVEL002
 370
30
   6
CONTINUOUS
  62
7
 100
AcDbCircle
  10
 90.921572875150
  20
 338.33356191406
  30
0.0
  40
 2.0000000000000
 100
AcDbArc
  50
 270.00000000000
  51
 315.00000000001
   0
ARC
   5
4AC
 100
AcDbEntity
   8
LEVEL002
 370
30
   6
CONTINUOUS
  62
7
 100
AcDbCircle
  10
 90.921572875150
  20
 338.33356191406
  30
0.0
  40
 3.2000000000000
 100
AcDbArc
  50
 270.00000000001
  51
 315.00000000001
   0
LINE
   5
4AD
 100
AcDbEntity
   8
LEVEL002
 370
30
 100
AcDbLine
   6
CONTINUOUS
  62
7
  10
 82.578427124650
  20
 335.13356191406
  30
0.0
  11
 90.921572875150
  21
 335.13356191406
  31
0.0
   0
ARC
   5
4AE
 100
AcDbEntity
   8
LEVEL002
 370
30
   6
CONTINUOUS
  62
7
 100
AcDbCircle
  10
 82.578427124650
  20
 338.33356191406
  30
0.0
  40
 2.0000000000000
 100
AcDbArc
  50
 224.99999999998
  51
 270.00000000001
   0
ARC
   5
4AF
 100
AcDbEntity
   8
LEVEL002
 370
30
   6
CONTINUOUS
  62
7
 100
AcDbCircle
  10
 82.578427124650
  20
 338.33356191406
  30
0.0
  40
 3.2000000000000
 100
AcDbArc
  50
 224.99999999998
  51
 270.00000000000
   0
LINE
   5
4B0
 100
AcDbEntity
   8
LEVEL002
 370
30
 100
AcDbLine
   6
CONTINUOUS
  62
7
  10
 92.335786437530
  20
 336.91934835168
  30
0.0
  11
 96.164213562270
  21
 340.74777547643
  31
0.0
   0
ARC
   5
4B1
 100
AcDbEntity
   8
LEVEL002
 370
30
   6
CONTINUOUS
  62
7
 100
AcDbCircle
  10
 97.578427124650
  20
 339.33356191406
  30
0.0
  40
 2.0000000000000
 100
AcDbArc
  50
 90.000000000012
  51
 134.99999999998
   0
ARC
   5
4B2
 100
AcDbEntity
   8
LEVEL002
 370
30
   6
CONTINUOUS
  62
7
 100
AcDbCircle
  10
 97.661269837120
  20
 339.13356191406
  30
0.0
  40
 1.0000000000000
 100
AcDbArc
  50
 89.999999999999
  51
 135.00000000001
   0
LINE
   5
4B3
 100
AcDbEntity
   8
LEVEL002
 370
30
 100
AcDbLine
   6
CONTINUOUS
  62
7
  10
 93.184314574950
  20
 336.07082021426
  30
0.0
  11
 96.954163055940
  21
 339.84066869524
  31
0.0
   0
LINE
   5
4B4
 100
AcDbEntity
   8
LEVEL002
 370
15
 100
AcDbLine
   6
DASHDOT
  62
8
  10
 86.749999999900
  20
 329.06538955519
  30
0.0
  11
 86.749999999900
  21
 343.60173427293
  31
0.0
   0
ARC
   5
4B5
 100
AcDbEntity
   8
LEVEL002
 370
30
   6
CONTINUOUS
  62
7
 100
AcDbCircle
  10
 75.838730162680
  20
 339.13356191406
  30
0.0
  40
 1.0000000000000
 100
AcDbArc
  50
 45.000000000083
  51
 90.000000000066
   0
ARC
   5
4B6
 100
AcDbEntity
   8
LEVEL002
 370
30
   6
CONTINUOUS
  62
7
 100
AcDbCircle
  10
 130.57842712465
  20
 339.33356191406
  30
0.0
  40
 2.0000000000000
 100
AcDbArc
  50
 90.000000000006
  51
 134.99999999998
   0
ARC
   5
4B7
 100
AcDbEntity
   8
LEVEL002
 370
30
   6
CONTINUOUS
  62
7
 100
AcDbCircle
  10
 130.66126983712
  20
 339.13356191406
  30
0.0
  40
 1.0000000000000
 100
AcDbArc
  50
 89.999999999870
  51
 134.99999999984
   0
LINE
   5
4B8
 100
AcDbEntity
   8
LEVEL002
 370
30
 100
AcDbLine
   6
CONTINUOUS
  62
7
  10
 129.95416305594
  20
 339.84066869524
  30
0.0
  11
 126.18431457495
  21
 336.07082021426
  31
0.0
   0
ARC
   5
4B9
 100
AcDbEntity
   8
LEVEL002
 370
30
   6
CONTINUOUS
  62
7
 100
AcDbCircle
  10
 108.92157287515
  20
 339.33356191406
  30
0.0
  40
 2.0000000000000
 100
AcDbArc
  50
 45.000000000010
  51
 89.999999999968
   0
LINE
   5
4BA
 100
AcDbEntity
   8
LEVEL002
 370
30
 100
AcDbLine
   6
CONTINUOUS
  62
7
  10
 113.31568542485
  20
 336.07082021426
  30
0.0
  11
 109.54583694387
  21
 339.84066869524
  31
0.0
   0
LINE
   5
4BB
 100
AcDbEntity
   8
LEVEL002
 370
30
 100
AcDbLine
   6
CONTINUOUS
  62
7
  10
 123.92157287515
  20
 336.33356191406
  30
0.0
  11
 115.57842712465
  21
 336.33356191406
  31
0.0
   0
ARC
   5
4BC
 100
AcDbEntity
   8
LEVEL002
 370
30
   6
CONTINUOUS
  62
7
 100
AcDbCircle
  10
 115.57842712465
  20
 338.33356191406
  30
0.0
  40
 2.0000000000000
 100
AcDbArc
  50
 225.00000000000
  51
 270.00000000000
   0
ARC
   5
4BD
 100
AcDbEntity
   8
LEVEL002
 370
30
   6
CONTINUOUS
  62
7
 100
AcDbCircle
  10
 115.57842712465
  20
 338.33356191406
  30
0.0
  40
 3.2000000000000
 100
AcDbArc
  50
 224.99999999999
  51
 269.99999999999
   0
LINE
   5
4BE
 100
AcDbEntity
   8
LEVEL002
 370
30
 100
AcDbLine
   6
CONTINUOUS
  62
7
  10
 123.92157287515
  20
 335.13356191406
  30
0.0
  11
 115.57842712465
  21
 335.13356191406
  31
0.0
   0
LINE
   5
4BF
 100
AcDbEntity
   8
LEVEL002
 370
30
 100
AcDbLine
   6
CONTINUOUS
  62
7
  10
 129.16421356227
  20
 340.74777547643
  30
0.0
  11
 125.33578643753
  21
 336.91934835168
  31
0.0
   0
ARC
   5
4C0
 100
AcDbEntity
   8
LEVEL002
 370
30
   6
CONTINUOUS
  62
7
 100
AcDbCircle
  10
 123.92157287515
  20
 338.33356191406
  30
0.0
  40
 2.0000000000000
 100
AcDbArc
  50
 270.00000000003
  51
 315.00000000003
   0
ARC
   5
4C1
 100
AcDbEntity
   8
LEVEL002
 370
30
   6
CONTINUOUS
  62
7
 100
AcDbCircle
  10
 123.92157287515
  20
 338.33356191406
  30
0.0
  40
 3.2000000000000
 100
AcDbArc
  50
 270.00000000001
  51
 315.00000000002
   0
LINE
   5
4C2
 100
AcDbEntity
   8
LEVEL002
 370
30
 100
AcDbLine
   6
CONTINUOUS
  62
7
  10
 114.16421356227
  20
 336.91934835168
  30
0.0
  11
 110.33578643753
  21
 340.74777547643
  31
0.0
   0
LINE
   5
4C3
 100
AcDbEntity
   8
LEVEL002
 370
15
 100
AcDbLine
   6
DASHDOT
  62
8
  10
 119.74999999990
  20
 329.06538955519
  30
0.0
  11
 119.74999999990
  21
 343.60173427293
  31
0.0
   0
DIMENSION
   5
4C4
 100
AcDbEntity
   8
LEVEL001
 370
15
   6
CONTINUOUS
  62
8
 100
AcDbDimension
   2
*D43
  10
 163.24999999990
  20
 341.33356191406
  30
0.0
  11
 163.24999999990
  21
 344.34150393988
  31
0.0
  70
128
   3
GMM005
 100
AcDbAlignedDimension
  13
 123.92157287515
  23
 336.33356191406
  33
0.0
  14
 151.42157287516
  24
 341.33356191406
  34
0.0
  50
 90.000000000000
 100
AcDbRotatedDimension
   0
ARC
   5
4C5
 100
AcDbEntity
   8
LEVEL002
 370
30
   6
CONTINUOUS
  62
7
 100
AcDbCircle
  10
 108.83873016268
  20
 339.13356191406
  30
0.0
  40
 1.0000000000000
 100
AcDbArc
  50
 44.999999999973
  51
 89.999999999975
   0
LINE
   5
4C6
 100
AcDbEntity
   8
LEVEL002
 370
30
 100
AcDbLine
   6
CONTINUOUS
  62
7
  10
 130.57842712465
  20
 341.33356191406
  30
0.0
  11
 151.42157287516
  21
 341.33356191406
  31
0.0
   0
LINE
   5
4C7
 100
AcDbEntity
   8
LEVEL002
 370
30
 100
AcDbLine
   6
CONTINUOUS
  62
7
  10
 130.66126983712
  20
 340.13356191406
  30
0.0
  11
 151.54999999990
  21
 340.13356191406
  31
0.0
   0
LINE
   5
4C8
 100
AcDbEntity
   8
LEVEL002
 370
30
 100
AcDbLine
   6
CONTINUOUS
  62
7
  10
 97.578427124650
  20
 341.33356191406
  30
0.0
  11
 108.92157287515
  21
 341.33356191406
  31
0.0
   0
LINE
   5
4C9
 100
AcDbEntity
   8
LEVEL002
 370
30
 100
AcDbLine
   6
CONTINUOUS
  62
7
  10
 97.661269837120
  20
 340.13356191406
  30
0.0
  11
 108.83873016268
  21
 340.13356191406
  31
0.0
   0
LINE
   5
4CA
 100
AcDbEntity
   8
LEVEL002
 370
30
 100
AcDbLine
   6
CONTINUOUS
  62
7
  10
 55.249999999900
  20
 341.33356191406
  30
0.0
  11
 75.921572875151
  21
 341.33356191406
  31
0.0
   0
LINE
   5
4CB
 100
AcDbEntity
   8
LEVEL002
 370
30
 100
AcDbLine
   6
CONTINUOUS
  62
7
  10
 54.949999999900
  20
 340.13356191406
  30
0.0
  11
 75.838730162679
  21
 340.13356191406
  31
0.0
   0
DIMENSION
   5
4CC
 100
AcDbEntity
   8
LEVEL001
 370
15
   6
CONTINUOUS
  62
8
 100
AcDbDimension
   2
*D44
  10
 86.749999999900
  20
 351.33356191406
  30
0.0
  11
 69.999999999900
  21
 351.33356191406
  31
0.0
  70
0
   3
GMM001
 100
AcDbAlignedDimension
  13
 53.249999999900
  23
 339.33356191406
  33
0.0
  14
 86.749999999900
  24
 343.60173427293
  34
0.0
 100
AcDbRotatedDimension
   0
DIMENSION
   5
4CD
 100
AcDbEntity
   8
LEVEL001
 370
15
   6
CONTINUOUS
  62
8
 100
AcDbDimension
   2
*D45
  10
 119.74999999990
  20
 351.33356191406
  30
0.0
  11
 103.24999999990
  21
 351.33356191406
  31
0.0
  70
0
   3
GMM001
 100
AcDbAlignedDimension
  13
 86.749999999900
  23
 343.60173427293
  33
0.0
  14
 119.74999999990
  24
 343.60173427293
  34
0.0
 100
AcDbRotatedDimension
   0
DIMENSION
   5
4CE
 100
AcDbEntity
   8
LEVEL001
 370
15
   6
CONTINUOUS
  62
8
 100
AcDbDimension
   2
*D46
  10
 153.24999999990
  20
 351.33356191406
  30
0.0
  11
 136.49999999990
  21
 351.33356191406
  31
0.0
  70
0
   3
GMM001
 100
AcDbAlignedDimension
  13
 119.74999999990
  23
 343.60173427293
  33
0.0
  14
 153.24999999990
  24
 339.33356191406
  34
0.0
 100
AcDbRotatedDimension
   0
ARC
   5
4CF
 100
AcDbEntity
   8
LEVEL002
 370
30
   6
CONTINUOUS
  62
7
 100
AcDbCircle
  10
 218.92157287515
  20
 339.33356191406
  30
0.0
  40
 2.0000000000000
 100
AcDbArc
  50
 45.000000000001
  51
 89.999999999975
   0
LINE
   5
4D0
 100
AcDbEntity
   8
LEVEL002
 370
30
 100
AcDbLine
   6
CONTINUOUS
  62
7
  10
 220.33578643753
  20
 340.74777547643
  30
0.0
  11
 224.16421356227
  21
 336.91934835168
  31
0.0
   0
ARC
   5
4D1
 100
AcDbEntity
   8
LEVEL002
 370
30
   6
CONTINUOUS
  62
7
 100
AcDbCircle
  10
 218.83873016268
  20
 339.13356191406
  30
0.0
  40
 1.0000000000000
 100
AcDbArc
  50
 45.000000000083
  51
 90.000000000065
   0
LINE
   5
4D2
 100
AcDbEntity
   8
LEVEL002
 370
30
 100
AcDbLine
   6
CONTINUOUS
  62
7
  10
 219.54583694387
  20
 339.84066869524
  30
0.0
  11
 223.31568542485
  21
 336.07082021426
  31
0.0
   0
LINE
   5
4D3
 100
AcDbEntity
   8
LEVEL002
 370
30
 100
AcDbLine
   6
CONTINUOUS
  62
7
  10
 225.57842712465
  20
 336.33356191406
  30
0.0
  11
 233.92157287515
  21
 336.33356191406
  31
0.0
   0
ARC
   5
4D4
 100
AcDbEntity
   8
LEVEL002
 370
30
   6
CONTINUOUS
  62
7
 100
AcDbCircle
  10
 233.92157287515
  20
 338.33356191406
  30
0.0
  40
 2.0000000000000
 100
AcDbArc
  50
 270.00000000000
  51
 315.00000000001
   0
ARC
   5
4D5
 100
AcDbEntity
   8
LEVEL002
 370
30
   6
CONTINUOUS
  62
7
 100
AcDbCircle
  10
 233.92157287515
  20
 338.33356191406
  30
0.0
  40
 3.2000000000000
 100
AcDbArc
  50
 270.00000000001
  51
 315.00000000001
   0
LINE
   5
4D6
 100
AcDbEntity
   8
LEVEL002
 370
30
 100
AcDbLine
   6
CONTINUOUS
  62
7
  10
 225.57842712465
  20
 335.13356191406
  30
0.0
  11
 233.92157287515
  21
 335.13356191406
  31
0.0
   0
ARC
   5
4D7
 100
AcDbEntity
   8
LEVEL002
 370
30
   6
CONTINUOUS
  62
7
 100
AcDbCircle
  10
 225.57842712465
  20
 338.33356191406
  30
0.0
  40
 2.0000000000000
 100
AcDbArc
  50
 224.99999999998
  51
 270.00000000001
   0
ARC
   5
4D8
 100
AcDbEntity
   8
LEVEL002
 370
30
   6
CONTINUOUS
  62
7
 100
AcDbCircle
  10
 225.57842712465
  20
 338.33356191406
  30
0.0
  40
 3.2000000000000
 100
AcDbArc
  50
 224.99999999998
  51
 270.00000000000
   0
LINE
   5
4D9
 100
AcDbEntity
   8
LEVEL002
 370
30
 100
AcDbLine
   6
CONTINUOUS
  62
7
  10
 235.33578643753
  20
 336.91934835168
  30
0.0
  11
 239.16421356227
  21
 340.74777547643
  31
0.0
   0
ARC
   5
4DA
 100
AcDbEntity
   8
LEVEL002
 370
30
   6
CONTINUOUS
  62
7
 100
AcDbCircle
  10
 240.57842712465
  20
 339.33356191406
  30
0.0
  40
 2.0000000000000
 100
AcDbArc
  50
 90.000000000012
  51
 134.99999999998
   0
ARC
   5
4DB
 100
AcDbEntity
   8
LEVEL002
 370
30
   6
CONTINUOUS
  62
7
 100
AcDbCircle
  10
 240.66126983712
  20
 339.13356191406
  30
0.0
  40
 1.0000000000000
 100
AcDbArc
  50
 90.000000000000
  51
 135.00000000001
   0
LINE
   5
4DC
 100
AcDbEntity
   8
LEVEL002
 370
30
 100
AcDbLine
   6
CONTINUOUS
  62
7
  10
 236.18431457495
  20
 336.07082021426
  30
0.0
  11
 239.95416305594
  21
 339.84066869524
  31
0.0
   0
LINE
   5
4DD
 100
AcDbEntity
   8
LEVEL002
 370
15
 100
AcDbLine
   6
DASHDOT
  62
8
  10
 229.74999999990
  20
 329.06538955519
  30
0.0
  11
 229.74999999990
  21
 343.60173427293
  31
0.0
   0
ARC
   5
4DE
 100
AcDbEntity
   8
LEVEL002
 370
30
   6
CONTINUOUS
  62
7
 100
AcDbCircle
  10
 276.57842712465
  20
 339.33356191406
  30
0.0
  40
 2.0000000000000
 100
AcDbArc
  50
 90.000000000007
  51
 134.99999999998
   0
ARC
   5
4DF
 100
AcDbEntity
   8
LEVEL002
 370
30
   6
CONTINUOUS
  62
7
 100
AcDbCircle
  10
 276.66126983712
  20
 339.13356191406
  30
0.0
  40
 1.0000000000000
 100
AcDbArc
  50
 89.999999999870
  51
 134.99999999984
   0
LINE
   5
4E0
 100
AcDbEntity
   8
LEVEL002
 370
30
 100
AcDbLine
   6
CONTINUOUS
  62
7
  10
 275.95416305594
  20
 339.84066869524
  30
0.0
  11
 272.18431457495
  21
 336.07082021426
  31
0.0
   0
ARC
   5
4E1
 100
AcDbEntity
   8
LEVEL002
 370
30
   6
CONTINUOUS
  62
7
 100
AcDbCircle
  10
 254.92157287515
  20
 339.33356191406
  30
0.0
  40
 2.0000000000000
 100
AcDbArc
  50
 45.000000000010
  51
 89.999999999968
   0
ARC
   5
4E2
 100
AcDbEntity
   8
LEVEL002
 370
30
   6
CONTINUOUS
  62
7
 100
AcDbCircle
  10
 254.83873016268
  20
 339.13356191406
  30
0.0
  40
 1.0000000000000
 100
AcDbArc
  50
 44.999999999972
  51
 89.999999999974
   0
LINE
   5
4E3
 100
AcDbEntity
   8
LEVEL002
 370
30
 100
AcDbLine
   6
CONTINUOUS
  62
7
  10
 259.31568542485
  20
 336.07082021426
  30
0.0
  11
 255.54583694387
  21
 339.84066869524
  31
0.0
   0
LINE
   5
4E4
 100
AcDbEntity
   8
LEVEL002
 370
30
 100
AcDbLine
   6
CONTINUOUS
  62
7
  10
 275.16421356227
  20
 340.74777547643
  30
0.0
  11
 271.33578643753
  21
 336.91934835168
  31
0.0
   0
LINE
   5
4E5
 100
AcDbEntity
   8
LEVEL002
 370
30
 100
AcDbLine
   6
CONTINUOUS
  62
7
  10
 260.16421356227
  20
 336.91934835168
  30
0.0
  11
 256.33578643753
  21
 340.74777547643
  31
0.0
   0
LINE
   5
4E6
 100
AcDbEntity
   8
LEVEL002
 370
15
 100
AcDbLine
   6
DASHDOT
  62
8
  10
 265.74999999990
  20
 329.06538955519
  30
0.0
  11
 265.74999999990
  21
 343.60173427293
  31
0.0
   0
LINE
   5
4E7
 100
AcDbEntity
   8
LEVEL002
 370
30
 100
AcDbLine
   6
CONTINUOUS
  62
7
  10
 269.92157287515
  20
 336.33356191406
  30
0.0
  11
 261.57842712465
  21
 336.33356191406
  31
0.0
   0
ARC
   5
4E8
 100
AcDbEntity
   8
LEVEL002
 370
30
   6
CONTINUOUS
  62
7
 100
AcDbCircle
  10
 261.57842712465
  20
 338.33356191406
  30
0.0
  40
 2.0000000000000
 100
AcDbArc
  50
 225.00000000000
  51
 270.00000000000
   0
ARC
   5
4E9
 100
AcDbEntity
   8
LEVEL002
 370
30
   6
CONTINUOUS
  62
7
 100
AcDbCircle
  10
 261.57842712465
  20
 338.33356191406
  30
0.0
  40
 3.2000000000000
 100
AcDbArc
  50
 224.99999999999
  51
 269.99999999999
   0
LINE
   5
4EA
 100
AcDbEntity
   8
LEVEL002
 370
30
 100
AcDbLine
   6
CONTINUOUS
  62
7
  10
 269.92157287515
  20
 335.13356191406
  30
0.0
  11
 261.57842712465
  21
 335.13356191406
  31
0.0
   0
ARC
   5
4EB
 100
AcDbEntity
   8
LEVEL002
 370
30
   6
CONTINUOUS
  62
7
 100
AcDbCircle
  10
 269.92157287515
  20
 338.33356191406
  30
0.0
  40
 2.0000000000000
 100
AcDbArc
  50
 270.00000000003
  51
 315.00000000003
   0
ARC
   5
4EC
 100
AcDbEntity
   8
LEVEL002
 370
30
   6
CONTINUOUS
  62
7
 100
AcDbCircle
  10
 269.92157287515
  20
 338.33356191406
  30
0.0
  40
 3.2000000000000
 100
AcDbArc
  50
 270.00000000001
  51
 315.00000000002
   0
LINE
   5
4ED
 100
AcDbEntity
   8
LEVEL002
 370
30
 100
AcDbLine
   6
CONTINUOUS
  62
7
  10
 276.57842712465
  20
 341.33356191406
  30
0.0
  11
 295.92157287516
  21
 341.33356191406
  31
0.0
   0
LINE
   5
4EE
 100
AcDbEntity
   8
LEVEL002
 370
30
 100
AcDbLine
   6
CONTINUOUS
  62
7
  10
 276.66126983712
  20
 340.13356191406
  30
0.0
  11
 296.04999999990
  21
 340.13356191406
  31
0.0
   0
DIMENSION
   5
4EF
 100
AcDbEntity
   8
LEVEL001
 370
15
   6
CONTINUOUS
  62
8
 100
AcDbDimension
   2
*D47
  10
 307.74999999990
  20
 341.33356191406
  30
0.0
  11
 307.74999999990
  21
 344.34150393988
  31
0.0
  70
128
   3
GMM005
 100
AcDbAlignedDimension
  13
 269.92157287515
  23
 336.33356191406
  33
0.0
  14
 295.92157287516
  24
 341.33356191406
  34
0.0
  50
 90.000000000000
 100
AcDbRotatedDimension
   0
LINE
   5
4F0
 100
AcDbEntity
   8
LEVEL002
 370
30
 100
AcDbLine
   6
CONTINUOUS
  62
7
  10
 199.74999999990
  20
 341.33356191406
  30
0.0
  11
 218.92157287515
  21
 341.33356191406
  31
0.0
   0
LINE
   5
4F1
 100
AcDbEntity
   8
LEVEL002
 370
30
 100
AcDbLine
   6
CONTINUOUS
  62
7
  10
 199.44999999990
  20
 340.13356191406
  30
0.0
  11
 218.83873016268
  21
 340.13356191406
  31
0.0
   0
LINE
   5
4F2
 100
AcDbEntity
   8
LEVEL002
 370
30
 100
AcDbLine
   6
CONTINUOUS
  62
7
  10
 240.66126983712
  20
 340.13356191406
  30
0.0
  11
 254.83873016268
  21
 340.13356191406
  31
0.0
   0
LINE
   5
4F3
 100
AcDbEntity
   8
LEVEL002
 370
30
 100
AcDbLine
   6
CONTINUOUS
  62
7
  10
 240.57842712465
  20
 341.33356191406
  30
0.0
  11
 254.92157287515
  21
 341.33356191406
  31
0.0
   0
DIMENSION
   5
4F4
 100
AcDbEntity
   8
LEVEL001
 370
15
   6
CONTINUOUS
  62
8
 100
AcDbDimension
   2
*D48
  10
 229.74999999990
  20
 351.33356191406
  30
0.0
  11
 213.74999999990
  21
 351.33356191406
  31
0.0
  70
0
   3
GMM001
 100
AcDbAlignedDimension
  13
 197.74999999990
  23
 339.33356191406
  33
0.0
  14
 229.74999999990
  24
 343.60173427293
  34
0.0
 100
AcDbRotatedDimension
   0
DIMENSION
   5
4F5
 100
AcDbEntity
   8
LEVEL001
 370
15
   6
CONTINUOUS
  62
8
 100
AcDbDimension
   2
*D49
  10
 265.74999999990
  20
 351.33356191406
  30
0.0
  11
 247.74999999990
  21
 351.33356191406
  31
0.0
  70
0
   3
GMM001
 100
AcDbAlignedDimension
  13
 229.74999999990
  23
 343.60173427293
  33
0.0
  14
 265.74999999990
  24
 343.60173427293
  34
0.0
 100
AcDbRotatedDimension
   0
DIMENSION
   5
4F6
 100
AcDbEntity
   8
LEVEL001
 370
15
   6
CONTINUOUS
  62
8
 100
AcDbDimension
   2
*D50
  10
 297.74999999990
  20
 351.33356191406
  30
0.0
  11
 281.74999999990
  21
 351.33356191406
  31
0.0
  70
0
   3
GMM001
 100
AcDbAlignedDimension
  13
 265.74999999990
  23
 343.60173427293
  33
0.0
  14
 297.74999999990
  24
 339.33356191406
  34
0.0
 100
AcDbRotatedDimension
   0
ARC
   5
4F7
 100
AcDbEntity
   8
LEVEL002
 370
30
   6
CONTINUOUS
  62
7
 100
AcDbCircle
  10
 361.92157287515
  20
 339.33356191406
  30
0.0
  40
 2.0000000000000
 100
AcDbArc
  50
 45.000000000000
  51
 89.999999999974
   0
LINE
   5
4F8
 100
AcDbEntity
   8
LEVEL002
 370
30
 100
AcDbLine
   6
CONTINUOUS
  62
7
  10
 363.33578643753
  20
 340.74777547643
  30
0.0
  11
 367.16421356227
  21
 336.91934835168
  31
0.0
   0
ARC
   5
4F9
 100
AcDbEntity
   8
LEVEL002
 370
30
   6
CONTINUOUS
  62
7
 100
AcDbCircle
  10
 361.83873016268
  20
 339.13356191406
  30
0.0
  40
 1.0000000000000
 100
AcDbArc
  50
 45.000000000083
  51
 90.000000000065
   0
LINE
   5
4FA
 100
AcDbEntity
   8
LEVEL002
 370
30
 100
AcDbLine
   6
CONTINUOUS
  62
7
  10
 362.54583694387
  20
 339.84066869524
  30
0.0
  11
 366.31568542485
  21
 336.07082021426
  31
0.0
   0
LINE
   5
4FB
 100
AcDbEntity
   8
LEVEL002
 370
30
 100
AcDbLine
   6
CONTINUOUS
  62
7
  10
 368.57842712465
  20
 336.33356191406
  30
0.0
  11
 376.92157287515
  21
 336.33356191406
  31
0.0
   0
ARC
   5
4FC
 100
AcDbEntity
   8
LEVEL002
 370
30
   6
CONTINUOUS
  62
7
 100
AcDbCircle
  10
 376.92157287515
  20
 338.33356191406
  30
0.0
  40
 2.0000000000000
 100
AcDbArc
  50
 270.00000000000
  51
 315.00000000001
   0
ARC
   5
4FD
 100
AcDbEntity
   8
LEVEL002
 370
30
   6
CONTINUOUS
  62
7
 100
AcDbCircle
  10
 376.92157287515
  20
 338.33356191406
  30
0.0
  40
 3.2000000000000
 100
AcDbArc
  50
 270.00000000001
  51
 315.00000000001
   0
LINE
   5
4FE
 100
AcDbEntity
   8
LEVEL002
 370
30
 100
AcDbLine
   6
CONTINUOUS
  62
7
  10
 368.57842712465
  20
 335.13356191406
  30
0.0
  11
 376.92157287515
  21
 335.13356191406
  31
0.0
   0
ARC
   5
4FF
 100
AcDbEntity
   8
LEVEL002
 370
30
   6
CONTINUOUS
  62
7
 100
AcDbCircle
  10
 368.57842712465
  20
 338.33356191406
  30
0.0
  40
 2.0000000000000
 100
AcDbArc
  50
 224.99999999998
  51
 270.00000000001
   0
ARC
   5
500
 100
AcDbEntity
   8
LEVEL002
 370
30
   6
CONTINUOUS
  62
7
 100
AcDbCircle
  10
 368.57842712465
  20
 338.33356191406
  30
0.0
  40
 3.2000000000000
 100
AcDbArc
  50
 224.99999999998
  51
 270.00000000000
   0
LINE
   5
501
 100
AcDbEntity
   8
LEVEL002
 370
30
 100
AcDbLine
   6
CONTINUOUS
  62
7
  10
 378.33578643753
  20
 336.91934835168
  30
0.0
  11
 382.16421356227
  21
 340.74777547643
  31
0.0
   0
ARC
   5
502
 100
AcDbEntity
   8
LEVEL002
 370
30
   6
CONTINUOUS
  62
7
 100
AcDbCircle
  10
 383.57842712465
  20
 339.33356191406
  30
0.0
  40
 2.0000000000000
 100
AcDbArc
  50
 90.000000000013
  51
 134.99999999998
   0
ARC
   5
503
 100
AcDbEntity
   8
LEVEL002
 370
30
   6
CONTINUOUS
  62
7
 100
AcDbCircle
  10
 383.66126983712
  20
 339.13356191406
  30
0.0
  40
 1.0000000000000
 100
AcDbArc
  50
 90.000000000000
  51
 135.00000000001
   0
LINE
   5
504
 100
AcDbEntity
   8
LEVEL002
 370
30
 100
AcDbLine
   6
CONTINUOUS
  62
7
  10
 379.18431457495
  20
 336.07082021426
  30
0.0
  11
 382.95416305594
  21
 339.84066869524
  31
0.0
   0
LINE
   5
505
 100
AcDbEntity
   8
LEVEL002
 370
15
 100
AcDbLine
   6
DASHDOT
  62
8
  10
 372.74999999990
  20
 329.06538955519
  30
0.0
  11
 372.74999999990
  21
 343.60173427293
  31
0.0
   0
ARC
   5
506
 100
AcDbEntity
   8
LEVEL002
 370
30
   6
CONTINUOUS
  62
7
 100
AcDbCircle
  10
 422.57842712465
  20
 339.33356191406
  30
0.0
  40
 2.0000000000000
 100
AcDbArc
  50
 90.000000000007
  51
 134.99999999998
   0
ARC
   5
507
 100
AcDbEntity
   8
LEVEL002
 370
30
   6
CONTINUOUS
  62
7
 100
AcDbCircle
  10
 422.66126983712
  20
 339.13356191406
  30
0.0
  40
 1.0000000000000
 100
AcDbArc
  50
 89.999999999870
  51
 134.99999999984
   0
LINE
   5
508
 100
AcDbEntity
   8
LEVEL002
 370
30
 100
AcDbLine
   6
CONTINUOUS
  62
7
  10
 421.95416305594
  20
 339.84066869524
  30
0.0
  11
 418.18431457495
  21
 336.07082021426
  31
0.0
   0
ARC
   5
509
 100
AcDbEntity
   8
LEVEL002
 370
30
   6
CONTINUOUS
  62
7
 100
AcDbCircle
  10
 400.92157287515
  20
 339.33356191406
  30
0.0
  40
 2.0000000000000
 100
AcDbArc
  50
 45.000000000009
  51
 89.999999999967
   0
LINE
   5
50A
 100
AcDbEntity
   8
LEVEL002
 370
30
 100
AcDbLine
   6
CONTINUOUS
  62
7
  10
 405.31568542485
  20
 336.07082021426
  30
0.0
  11
 401.54583694387
  21
 339.84066869524
  31
0.0
   0
LINE
   5
50B
 100
AcDbEntity
   8
LEVEL002
 370
30
 100
AcDbLine
   6
CONTINUOUS
  62
7
  10
 415.92157287515
  20
 336.33356191406
  30
0.0
  11
 407.57842712465
  21
 336.33356191406
  31
0.0
   0
ARC
   5
50C
 100
AcDbEntity
   8
LEVEL002
 370
30
   6
CONTINUOUS
  62
7
 100
AcDbCircle
  10
 407.57842712465
  20
 338.33356191406
  30
0.0
  40
 2.0000000000000
 100
AcDbArc
  50
 225.00000000000
  51
 270.00000000000
   0
ARC
   5
50D
 100
AcDbEntity
   8
LEVEL002
 370
30
   6
CONTINUOUS
  62
7
 100
AcDbCircle
  10
 407.57842712465
  20
 338.33356191406
  30
0.0
  40
 3.2000000000000
 100
AcDbArc
  50
 224.99999999999
  51
 269.99999999999
   0
LINE
   5
50E
 100
AcDbEntity
   8
LEVEL002
 370
30
 100
AcDbLine
   6
CONTINUOUS
  62
7
  10
 415.92157287515
  20
 335.13356191406
  30
0.0
  11
 407.57842712465
  21
 335.13356191406
  31
0.0
   0
LINE
   5
50F
 100
AcDbEntity
   8
LEVEL002
 370
30
 100
AcDbLine
   6
CONTINUOUS
  62
7
  10
 421.16421356227
  20
 340.74777547643
  30
0.0
  11
 417.33578643753
  21
 336.91934835168
  31
0.0
   0
ARC
   5
510
 100
AcDbEntity
   8
LEVEL002
 370
30
   6
CONTINUOUS
  62
7
 100
AcDbCircle
  10
 415.92157287515
  20
 338.33356191406
  30
0.0
  40
 2.0000000000000
 100
AcDbArc
  50
 270.00000000003
  51
 315.00000000003
   0
ARC
   5
511
 100
AcDbEntity
   8
LEVEL002
 370
30
   6
CONTINUOUS
  62
7
 100
AcDbCircle
  10
 415.92157287515
  20
 338.33356191406
  30
0.0
  40
 3.2000000000000
 100
AcDbArc
  50
 270.00000000001
  51
 315.00000000002
   0
LINE
   5
512
 100
AcDbEntity
   8
LEVEL002
 370
30
 100
AcDbLine
   6
CONTINUOUS
  62
7
  10
 406.16421356227
  20
 336.91934835168
  30
0.0
  11
 402.33578643753
  21
 340.74777547643
  31
0.0
   0
LINE
   5
513
 100
AcDbEntity
   8
LEVEL002
 370
15
 100
AcDbLine
   6
DASHDOT
  62
8
  10
 411.74999999990
  20
 329.06538955519
  30
0.0
  11
 411.74999999990
  21
 343.60173427293
  31
0.0
   0
DIMENSION
   5
514
 100
AcDbEntity
   8
LEVEL001
 370
15
   6
CONTINUOUS
  62
8
 100
AcDbDimension
   2
*D51
  10
 372.74999999990
  20
 351.33356191406
  30
0.0
  11
 357.49999999990
  21
 351.33356191406
  31
0.0
  70
0
   3
GMM001
 100
AcDbAlignedDimension
  13
 342.24999999990
  23
 339.33356191406
  33
0.0
  14
 372.74999999990
  24
 343.60173427293
  34
0.0
 100
AcDbRotatedDimension
   0
DIMENSION
   5
515
 100
AcDbEntity
   8
LEVEL001
 370
15
   6
CONTINUOUS
  62
8
 100
AcDbDimension
   2
*D52
  10
 411.74999999990
  20
 351.33356191406
  30
0.0
  11
 392.24999999990
  21
 351.33356191406
  31
0.0
  70
0
   3
GMM001
 100
AcDbAlignedDimension
  13
 372.74999999990
  23
 343.60173427293
  33
0.0
  14
 411.74999999990
  24
 343.60173427293
  34
0.0
 100
AcDbRotatedDimension
   0
DIMENSION
   5
516
 100
AcDbEntity
   8
LEVEL001
 370
15
   6
CONTINUOUS
  62
8
 100
AcDbDimension
   2
*D53
  10
 442.24999999990
  20
 351.33356191406
  30
0.0
  11
 426.99999999990
  21
 351.33356191406
  31
0.0
  70
0
   3
GMM001
 100
AcDbAlignedDimension
  13
 411.74999999990
  23
 343.60173427293
  33
0.0
  14
 442.24999999990
  24
 339.33356191406
  34
0.0
 100
AcDbRotatedDimension
   0
ARC
   5
517
 100
AcDbEntity
   8
LEVEL002
 370
30
   6
CONTINUOUS
  62
7
 100
AcDbCircle
  10
 400.83873016268
  20
 339.13356191406
  30
0.0
  40
 1.0000000000000
 100
AcDbArc
  50
 44.999999999972
  51
 89.999999999974
   0
LINE
   5
518
 100
AcDbEntity
   8
LEVEL002
 370
30
 100
AcDbLine
   6
CONTINUOUS
  62
7
  10
 422.57842712465
  20
 341.33356191406
  30
0.0
  11
 440.42157287516
  21
 341.33356191406
  31
0.0
   0
LINE
   5
519
 100
AcDbEntity
   8
LEVEL002
 370
30
 100
AcDbLine
   6
CONTINUOUS
  62
7
  10
 422.66126983712
  20
 340.13356191406
  30
0.0
  11
 440.54999999990
  21
 340.13356191406
  31
0.0
   0
LINE
   5
51A
 100
AcDbEntity
   8
LEVEL002
 370
30
 100
AcDbLine
   6
CONTINUOUS
  62
7
  10
 383.66126983712
  20
 340.13356191406
  30
0.0
  11
 400.83873016268
  21
 340.13356191406
  31
0.0
   0
LINE
   5
51B
 100
AcDbEntity
   8
LEVEL002
 370
30
 100
AcDbLine
   6
CONTINUOUS
  62
7
  10
 383.57842712465
  20
 341.33356191406
  30
0.0
  11
 400.92157287515
  21
 341.33356191406
  31
0.0
   0
LINE
   5
51C
 100
AcDbEntity
   8
LEVEL002
 370
30
 100
AcDbLine
   6
CONTINUOUS
  62
7
  10
 344.24999999990
  20
 341.33356191406
  30
0.0
  11
 361.92157287515
  21
 341.33356191406
  31
0.0
   0
LINE
   5
51D
 100
AcDbEntity
   8
LEVEL002
 370
30
 100
AcDbLine
   6
CONTINUOUS
  62
7
  10
 343.94999999990
  20
 340.13356191406
  30
0.0
  11
 361.83873016268
  21
 340.13356191406
  31
0.0
   0
MTEXT
   5
51F
 100
AcDbEntity
   8
LEVEL002
 370
30
  62
7
 100
AcDbMText
  10
 31.599999999900
  20
 423.50000000000
  30
0.0
  40
 6.0000000000000
  41
0.0
  71
4
  72
1
   1
\W1.000000;\T1.000000;　ＳＷ１００\W0.500000;\T1.000000;(\W1.000000;\T1.000000;芯３３\W0.500000;\T1.000000;)
   7
GMM001
  44
 0.79999984000003
   0
MTEXT
   5
521
 100
AcDbEntity
   8
LEVEL002
 370
30
  62
7
 100
AcDbMText
  10
 176.09999999990
  20
 423.50000000000
  30
0.0
  40
 6.0000000000000
  41
0.0
  71
4
  72
1
   1
\W1.000000;\T1.000000;　ＳＷ１００\W0.500000;\T1.000000;(\W1.000000;\T1.000000;芯３６\W0.500000;\T1.000000;)
   7
GMM001
  44
 0.79999984000003
   0
MTEXT
   5
523
 100
AcDbEntity
   8
LEVEL002
 370
30
  62
7
 100
AcDbMText
  10
 320.59999999990
  20
 423.50000000000
  30
0.0
  40
 6.0000000000000
  41
0.0
  71
4
  72
1
   1
\W1.000000;\T1.000000;　ＳＷ１００\W0.500000;\T1.000000;(\W1.000000;\T1.000000;芯３９\W0.500000;\T1.000000;)
   7
GMM001
  44
 0.79999984000003
   0
MTEXT
   5
525
 100
AcDbEntity
   8
LEVEL002
 370
30
  62
7
 100
AcDbMText
  10
 465.09999999990
  20
 423.50000000000
  30
0.0
  40
 6.0000000000000
  41
0.0
  71
4
  72
1
   1
\W1.000000;\T1.000000;　ＳＷ１００\W0.500000;\T1.000000;(\W1.000000;\T1.000000;芯４３\W0.500000;\T1.000000;)
   7
GMM001
  44
 0.79999984000003
   0
MTEXT
   5
527
 100
AcDbEntity
   8
LEVEL002
 370
15
  62
8
 100
AcDbMText
  10
 758.99999999990
  20
 40.166666666690
  30
0.0
  40
 5.0000000000000
  41
0.0
  71
5
  72
1
   1
\T1.000000;パルステン敷居レール－Ｓ型
   7
GMM001
  44
 0.79999984000003
   0
MTEXT
   5
529
 100
AcDbEntity
   8
LEVEL002
 370
30
  62
7
 100
AcDbMText
  10
 31.599999999900
  20
 560.00000000000
  30
0.0
  40
 6.0000000000000
  41
0.0
  71
4
  72
1
   1
\T1.000000;　ＳＳ５０
   7
GMM001
  44
 0.79999984000003
   0
MTEXT
   5
52B
 100
AcDbEntity
   8
LEVEL002
 370
15
  62
8
 100
AcDbMText
  10
 700.22115562877
  20
 171.59954361476
  30
0.0
  40
 6.5000000000000
  41
0.0
  71
2
  72
1
   1
{\T1.000000;　※掲載は既製品のみでございます。}\P{\T1.000000;　　別注品に関しましてはお問い合わせお願い致します。　}\P{\T1.000000;　※本製品は予告無しに変更する事があります。}
   7
GMM001
  44
 0.79999984000003
   0
MTEXT
   5
52D
 100
AcDbEntity
   8
LEVEL002
 370
15
  62
8
 100
AcDbMText
  10
 774.43016912150
  20
 97.333333333360
  30
0.0
  40
 6.0000000000000
  41
0.0
  71
5
  72
1
   1
\T1.000000;令和　４年　１月１１日
   7
GMM003
  44
 0.79999984000003
   0
MTEXT
   5
52F
 100
AcDbEntity
   8
LEVEL002
 370
15
  62
8
 100
AcDbMText
  10
 774.43016912150
  20
 84.000000000020
  30
0.0
  40
 6.0000000000000
  41
0.0
  71
5
  72
1
   1
\T1.000000;令和　　年　　月　　日
   7
GMM003
  44
 0.79999984000003
   0
MTEXT
   5
531
 100
AcDbEntity
   8
LEVEL002
 370
15
  62
8
 100
AcDbMText
  10
 774.43016912150
  20
 70.666666666690
  30
0.0
  40
 6.0000000000000
  41
0.0
  71
5
  72
1
   1
\T1.000000;令和　　年　　月　　日
   7
GMM003
  44
 0.79999984000003
   0
MTEXT
   5
533
 100
AcDbEntity
   8
LEVEL002
 370
15
  62
8
 100
AcDbMText
  10
 608.99999999990
  20
 429.00000000000
  30
0.0
  40
 6.0000000000000
  41
0.0
  71
1
  72
1
   3
{\W1.000000;\T1.000000;仕様}\P{\W1.000000;\T1.000000;　材質：ステンレス製}\P{\W1.000000;\T1.000000;　　　　\W0.500000;\T1.000000;(\W1.000000;\T1.000000;ＳＵＳ３０４／\W0.500000;\T1.000000;t\W1.000000;\T1.000000;１\W0.500000;\T1.000000;.\W1.000000;\T1
   3
.000000;２\W0.500000;\T1.000000;)}\P{\W1.000000;\T1.000000;　仕上：ＨＬ}\P{\W1.000000;\T1.000000;　}\P\P{\W1.000000;\T1.000000;　用途：コンクリート用}\P{\W1.000000;\T1.000000;　　　　}\P{\W1.000000;\T1.000000;　ＳＳ５０／ＳＳ１００／ＳＷ１００}\P{\W1
   3
.000000;\T1.000000;　長さ（定尺）：１８２９\W0.500000;\T1.000000;mm}\P{\W1.000000;\T1.000000;　　　　　　　　２４３０\W0.500000;\T1.000000;mm}\P{\W1.000000;\T1.000000;　　　　　　　　３６６０\W0.500000;\T1.000000;mm}\P{\W1.000000;\T1.000000;　　　　
   3
　　　　２０００\W0.500000;\T1.000000;mm}\P{\W1.000000;\T1.000000;　　　　　　　　３０００\W0.500000;\T1.000000;mm}\P{\W1.000000;\T1.000000;　　　　　　　　４０００\W0.500000;\T1.000000;mm}\P{\W1.000000;\T1.000000;　}\P{\W1.000000;\T1.000000;　ＳＷ６
   3
８／ＳＷ７０}\P{\W1.000000;\T1.000000;　長さ（定尺）：１８２９\W0.500000;\T1.000000;mm}\P{\W1.000000;\T1.000000;　　　　　　　　３６６０\W0.500000;\T1.000000;mm}\P{\W1.000000;\T1.000000;　　　　　　　　２０００\W0.500000;\T1.000000;mm}\P{\W1.000000;\
   3
T1.000000;　　　　　　　　３０００\W0.500000;\T1.000000;mm}\P{\W1.000000;\T1.000000;　　　　　　　　４０００\W0.500000;\T1.000000;mm}\P{\W1.000000;\T1.000000;　※ＳＷ６８\W0.500000;\T1.000000;･\W1.000000;\T1.000000;７０は３６６０\W0.500000;\T1.000000
   1
;mm\W1.000000;\T1.000000;と４０００\W0.500000;\T1.000000;mm\W1.000000;\T1.000000;継加工}\P\P{\W1.000000;\T1.000000;　　}
   7
GMM001
  44
 0.79999984000003
   0
ENDSEC
  0
SECTION
  2
OBJECTS
  0
DICTIONARY
  5
C
100
AcDbDictionary
  3
ACAD_GROUP
350
D
  3
ACAD_MLINESTYLE
350
1B
  3
DWGPROPS
350
1C
  0
DICTIONARY
  5
D
102
{ACAD_REACTORS
330
C
102
}
100
AcDbDictionary
  0
DICTIONARY
  5
1B
102
{ACAD_REACTORS
330
C
102
}
100
AcDbDictionary
  3
STANDARD
350
1D
  0
MLINESTYLE
  5
1D
102
{ACAD_REACTORS
330
1B
102
}
100
AcDbMlineStyle
  2
STANDARD
 70
     0
  3

 62
   256
 51
90.0
 52
90.0
 71
     2
 49
0.5
 62
   256
  6
BYLAYER
 49
-0.5
 62
   256
  6
BYLAYER
   0
XRECORD
   5
1C
 102
{ACAD_REACTORS
 330
C
 102
}
 330
C
 100
AcDbXrecord
 280
1
   1
DWGPROPS COOKIE
   2
 
   3
 
   4
haruna
   6
 
   7
4-敷居ﾚｰﾙ(S型)
   8
haruna
   9

 300
 = 
 301
 = 
 302
 = 
 303
 = 
 304
 = 
 305
 = 
 306
 = 
 307
 = 
 308
 = 
 309
 = 
  40
0.0
  41
 2459590.5000000
  42
 2459970.5000000
   1

  90
10
   0
ENDSEC
   0
EOF
