   0
SECTION
   2
HEADER
   9
$ACADVER
   1
AC1015
   9
$DWGCODEPAGE
   3
ANSI_932
   9
$LIMMIN
  10
0.0
  20
0.0
   9
$LIMMAX
  10
 420.00000000000
  20
 297.00000000000
   9
$EXTMIN
  10
0.0
  20
0.0
  30
0.0
   9
$EXTMAX
  10
 420.00000000000
  20
 297.00000000000
  30
0.0
   9
$LTSCALE
  40
 8.4000000000000
   9
$HANDSEED
   5
3B2
   0
ENDSEC
   0
SECTION
   2
TABLES
  0
TABLE
  2
VPORT
  5
8
100
AcDbSymbolTable
 70
     1
  0
VPORT
  5
3B1
100
AcDbSymbolTableRecord
100
AcDbViewportTableRecord
  2
*ACTIVE
 70
     0
 10
0.0
 20
0.0
 11
1.0
 21
1.0
  12
 210.00000000000
  22
 148.50000000000
 13
0.0
 23
0.0
 14
1.0
 24
1.0
 15
0.0
 25
0.0
 16
0.0
 26
0.0
 36
1.0
 17
0.0
 27
0.0
 37
0.0
  40
 420.00000000000
  41
 1.4787878787879
 42
50.0
 43
0.0
 44
0.0
 50
0.0
 51
0.0
 71
     0
 72
   100
 73
     1
 74
     1
 75
     0
 76
     0
 77
     0
 78
     0
  0
ENDTAB
  0
TABLE
  2
LTYPE
  5
5
100
AcDbSymbolTable
 70
    25
  0
LTYPE
  5
12
100
AcDbSymbolTableRecord
100
AcDbLinetypeTableRecord
  2
BYBLOCK
 70
     0
  3

 72
    65
 73
     0
 40
0.0
  0
LTYPE
  5
13
100
AcDbSymbolTableRecord
100
AcDbLinetypeTableRecord
  2
BYLAYER
 70
     0
  3

 72
    65
 73
     0
 40
0.0
  0
LTYPE
  5
14
100
AcDbSymbolTableRecord
100
AcDbLinetypeTableRecord
  2
CONTINUOUS
 70
     0
  3
Solid line
 72
    65
 73
     0
 40
0.0
  0
LTYPE
  5
20
100
AcDbSymbolTableRecord
100
AcDbLinetypeTableRecord
  2
BORDER
 70
     0
  3
__ __ . __ __ . __ __ . __ __ . __ __ . __ __ .
 72
    65
 73
     6
 40
1.75
 49
0.5
 74
     0
 49
-0.25
 74
     0
 49
0.5
 74
     0
 49
-0.25
 74
     0
 49
0.0
 74
     0
 49
-0.25
 74
     0
  0
LTYPE
  5
21
100
AcDbSymbolTableRecord
100
AcDbLinetypeTableRecord
  2
BORDER2
 70
     0
  3
__.__.__.__.__.__.__.__.__.__.__.__.__.__.__.__
 72
    65
 73
     6
 40
0.875
 49
0.25
 74
     0
 49
-0.125
 74
     0
 49
0.25
 74
     0
 49
-0.125
 74
     0
 49
0.0
 74
     0
 49
-0.125
 74
     0
  0
LTYPE
  5
22
100
AcDbSymbolTableRecord
100
AcDbLinetypeTableRecord
  2
BORDERX2
 70
     0
  3
____  ____  .  ____  ____  .  ____  ____  .  __
 72
    65
 73
     6
 40
3.5
 49
1.0
 74
     0
 49
-0.5
 74
     0
 49
1.0
 74
     0
 49
-0.5
 74
     0
 49
0.0
 74
     0
 49
-0.5
 74
     0
  0
LTYPE
  5
23
100
AcDbSymbolTableRecord
100
AcDbLinetypeTableRecord
  2
CENTER
 70
     0
  3
____ _ ____ _ ____ _ ____ _ ____ _ ____ _ ____ 
 72
    65
 73
     4
 40
2.0
 49
1.25
 74
     0
 49
-0.25
 74
     0
 49
0.25
 74
     0
 49
-0.25
 74
     0
  0
LTYPE
  5
24
100
AcDbSymbolTableRecord
100
AcDbLinetypeTableRecord
  2
CENTER2
 70
     0
  3
___ _ ___ _ ___ _ ___ _ ___ _ ___ _ ___ _ ___ _
 72
    65
 73
     4
 40
1.125
 49
0.75
 74
     0
 49
-0.125
 74
     0
 49
0.125
 74
     0
 49
-0.125
 74
     0
  0
LTYPE
  5
25
100
AcDbSymbolTableRecord
100
AcDbLinetypeTableRecord
  2
CENTERX2
 70
     0
  3
________  __  ________  __  ________  __  _____
 72
    65
 73
     4
 40
4.0
 49
2.5
 74
     0
 49
-0.5
 74
     0
 49
0.5
 74
     0
 49
-0.5
 74
     0
  0
LTYPE
  5
26
100
AcDbSymbolTableRecord
100
AcDbLinetypeTableRecord
  2
DASHDOT
 70
     0
  3
__ . __ . __ . __ . __ . __ . __ . __ . __ . __
 72
    65
 73
     4
 40
1.0
 49
0.5
 74
     0
 49
-0.25
 74
     0
 49
0.0
 74
     0
 49
-0.25
 74
     0
  0
LTYPE
  5
27
100
AcDbSymbolTableRecord
100
AcDbLinetypeTableRecord
  2
DASHDOT2
 70
     0
  3
_._._._._._._._._._._._._._._._._._._._._._._._
 72
    65
 73
     4
 40
0.5
 49
0.25
 74
     0
 49
-0.125
 74
     0
 49
0.0
 74
     0
 49
-0.125
 74
     0
  0
LTYPE
  5
28
100
AcDbSymbolTableRecord
100
AcDbLinetypeTableRecord
  2
DASHDOTX2
 70
     0
  3
____  .  ____  .  ____  .  ____  .  ____  .  __
 72
    65
 73
     4
 40
2.0
 49
1.0
 74
     0
 49
-0.5
 74
     0
 49
0.0
 74
     0
 49
-0.5
 74
     0
  0
LTYPE
  5
29
100
AcDbSymbolTableRecord
100
AcDbLinetypeTableRecord
  2
DASHED
 70
     0
  3
__ __ __ __ __ __ __ __ __ __ __ __ __ __ __ __
 72
    65
 73
     2
 40
0.75
 49
0.5
 74
     0
 49
-0.25
 74
     0
  0
LTYPE
  5
2A
100
AcDbSymbolTableRecord
100
AcDbLinetypeTableRecord
  2
DASHED2
 70
     0
  3
_ _ _ _ _ _ _ _ _ _ _ _ _ _ _ _ _ _ _ _ _ _ _ _
 72
    65
 73
     2
 40
0.375
 49
0.25
 74
     0
 49
-0.125
 74
     0
  0
LTYPE
  5
2B
100
AcDbSymbolTableRecord
100
AcDbLinetypeTableRecord
  2
DASHEDX2
 70
     0
  3
____  ____  ____  ____  ____  ____  ____  ____ 
 72
    65
 73
     2
 40
1.5
 49
1.0
 74
     0
 49
-0.5
 74
     0
  0
LTYPE
  5
2C
100
AcDbSymbolTableRecord
100
AcDbLinetypeTableRecord
  2
DIVIDE
 70
     0
  3
____ . . ____ . . ____ . . ____ . . ____ . . __
 72
    65
 73
     6
 40
1.25
 49
0.5
 74
     0
 49
-0.25
 74
     0
 49
0.0
 74
     0
 49
-0.25
 74
     0
 49
0.0
 74
     0
 49
-0.25
 74
     0
  0
LTYPE
  5
2D
100
AcDbSymbolTableRecord
100
AcDbLinetypeTableRecord
  2
DIVIDE2
 70
     0
  3
__..__..__..__..__..__..__..__..__..__..__..__.
 72
    65
 73
     6
 40
0.625
 49
0.25
 74
     0
 49
-0.125
 74
     0
 49
0.0
 74
     0
 49
-0.125
 74
     0
 49
0.0
 74
     0
 49
-0.125
 74
     0
  0
LTYPE
  5
2E
100
AcDbSymbolTableRecord
100
AcDbLinetypeTableRecord
  2
DIVIDEX2
 70
     0
  3
________  .  .  ________  .  .  ________  .  . 
 72
    65
 73
     6
 40
2.5
 49
1.0
 74
     0
 49
-0.5
 74
     0
 49
0.0
 74
     0
 49
-0.5
 74
     0
 49
0.0
 74
     0
 49
-0.5
 74
     0
  0
LTYPE
  5
2F
100
AcDbSymbolTableRecord
100
AcDbLinetypeTableRecord
  2
DOT
 70
     0
  3
. . . . . . . . . . . . . . . . . . . . . . . .
 72
    65
 73
     2
 40
0.25
 49
0.0
 74
     0
 49
-0.25
 74
     0
  0
LTYPE
  5
30
100
AcDbSymbolTableRecord
100
AcDbLinetypeTableRecord
  2
DOT2
 70
     0
  3
...............................................
 72
    65
 73
     2
 40
0.125
 49
0.0
 74
     0
 49
-0.125
 74
     0
  0
LTYPE
  5
31
100
AcDbSymbolTableRecord
100
AcDbLinetypeTableRecord
  2
DOTX2
 70
     0
  3
.  .  .  .  .  .  .  .  .  .  .  .  .  .  .  . 
 72
    65
 73
     2
 40
0.5
 49
0.0
 74
     0
 49
-0.5
 74
     0
  0
LTYPE
  5
32
100
AcDbSymbolTableRecord
100
AcDbLinetypeTableRecord
  2
HIDDEN
 70
     0
  3
__ __ __ __ __ __ __ __ __ __ __ __ __ __ __ __
 72
    65
 73
     2
 40
0.375
 49
0.25
 74
     0
 49
-0.125
 74
     0
  0
LTYPE
  5
33
100
AcDbSymbolTableRecord
100
AcDbLinetypeTableRecord
  2
HIDDEN2
 70
     0
  3
_ _ _ _ _ _ _ _ _ _ _ _ _ _ _ _ _ _ _ _ _ _ _ _
 72
    65
 73
     2
 40
0.1875
 49
0.125
 74
     0
 49
-0.0625
 74
     0
  0
LTYPE
  5
34
100
AcDbSymbolTableRecord
100
AcDbLinetypeTableRecord
  2
HIDDENX2
 70
     0
  3
____ ____ ____ ____ ____ ____ ____ ____ ____ __
 72
    65
 73
     2
 40
0.75
 49
0.5
 74
     0
 49
-0.25
 74
     0
  0
LTYPE
  5
35
100
AcDbSymbolTableRecord
100
AcDbLinetypeTableRecord
  2
PHANTOM
 70
     0
  3
______  __  __  ______  __  __  ______  __  __ 
 72
    65
 73
     6
 40
2.5
 49
1.25
 74
     0
 49
-0.25
 74
     0
 49
0.25
 74
     0
 49
-0.25
 74
     0
 49
0.25
 74
     0
 49
-0.25
 74
     0
  0
LTYPE
  5
36
100
AcDbSymbolTableRecord
100
AcDbLinetypeTableRecord
  2
PHANTOM2
 70
     0
  3
___ _ _ ___ _ _ ___ _ _ ___ _ _ ___ _ _ ___ _ _
 72
    65
 73
     6
 40
1.25
 49
0.625
 74
     0
 49
-0.125
 74
     0
 49
0.125
 74
     0
 49
-0.125
 74
     0
 49
0.125
 74
     0
 49
-0.125
 74
     0
  0
LTYPE
  5
37
100
AcDbSymbolTableRecord
100
AcDbLinetypeTableRecord
  2
PHANTOMX2
 70
     0
  3
____________    ____    ____    ____________   
 72
    65
 73
     6
 40
5.0
 49
2.5
 74
     0
 49
-0.5
 74
     0
 49
0.5
 74
     0
 49
-0.5
 74
     0
 49
0.5
 74
     0
 49
-0.5
 74
     0
  0
ENDTAB
   0
TABLE
   2
LAYER
   5
2
 100
AcDbSymbolTable
  70
4
   0
LAYER
   5
E
 100
AcDbSymbolTableRecord
 100
AcDbLayerTableRecord
   2
0
  70
0
  62
7
   6
CONTINUOUS
 390
30
   0
LAYER
   5
39
 100
AcDbSymbolTableRecord
 100
AcDbLayerTableRecord
   2
LEVEL001
  70
0
  62
7
   6
CONTINUOUS
 390
30
   0
LAYER
   5
3A
 100
AcDbSymbolTableRecord
 100
AcDbLayerTableRecord
   2
LEVEL002
  70
0
  62
7
   6
CONTINUOUS
 390
30
   0
LAYER
   5
3B
 100
AcDbSymbolTableRecord
 100
AcDbLayerTableRecord
   2
LEVEL003
  70
0
  62
7
   6
CONTINUOUS
 390
30
   0
ENDTAB
  0
TABLE
  2
STYLE
  5
3
100
AcDbSymbolTable
  70
6
  0
STYLE
  5
F
100
AcDbSymbolTableRecord
100
AcDbTextStyleTableRecord
  2
STANDARD
 70
     0
 40
0.0
 41
1.0
 50
0.0
 71
     0
 42
0.2
  3
TXT
  4
BIGFONT
  0
STYLE
  5
38
100
AcDbSymbolTableRecord
100
AcDbTextStyleTableRecord
  2
STANDARD1
 70
     4
 40
0.0
 41
1.0
 50
0.0
 71
     0
 42
0.2
  3
TXT
  4
BIGFONT
   0
STYLE
   5
3C
 100
AcDbSymbolTableRecord
 100
AcDbTextStyleTableRecord
   2
GMM001
  70
0
  40
0.0
  41
 0.80000000000000
  50
0.0
  71
     0
  42
1.0
   3
txt.shx
   4
bigfont.shx
   0
STYLE
   5
3D
 100
AcDbSymbolTableRecord
 100
AcDbTextStyleTableRecord
   2
GMM002
  70
0
  40
0.0
  41
 1.0000000000000
  50
0.0
  71
     0
  42
1.0
   3
txt.shx
   4
bigfont.shx
   0
STYLE
   5
3E
 100
AcDbSymbolTableRecord
 100
AcDbTextStyleTableRecord
   2
GMM003
  70
0
  40
0.0
  41
 1.0714285714286
  50
0.0
  71
     0
  42
1.0
   3
txt.shx
   4
bigfont.shx
   0
STYLE
   5
3F
 100
AcDbSymbolTableRecord
 100
AcDbTextStyleTableRecord
   2
GMM004
  70
0
  40
0.0
  41
 0.88888888888889
  50
0.0
  71
     0
  42
1.0
   3
txt.shx
   4
bigfont.shx
   0
ENDTAB
  0
TABLE
  2
VIEW
  5
6
100
AcDbSymbolTable
 70
     0
  0
ENDTAB
  0
TABLE
  2
UCS
  5
7
100
AcDbSymbolTable
 70
     0
  0
ENDTAB
  0
TABLE
  2
APPID
  5
9
100
AcDbSymbolTable
 70
     1
  0
APPID
  5
10
100
AcDbSymbolTableRecord
100
AcDbRegAppTableRecord
  2
ACAD
 70
     0
  0
ENDTAB
   0
TABLE
   2
DIMSTYLE
   5
A
 100
AcDbSymbolTable
  70
5
 100
AcDbDimStyleTable
  0
DIMSTYLE
105
1D
100
AcDbSymbolTableRecord
100
AcDbDimStyleTableRecord
  2
STANDARD
 70
     0
  3

  4

  5

  6

  7

 40
1.0
 41
0.18
 42
0.0625
 43
0.38
 44
0.18
 45
0.0
 46
0.0
 47
0.0
 48
0.0
140
0.18
141
0.09
142
0.0
143
25.4
144
1.0
145
0.0
146
1.0
147
0.09
 71
     0
 72
     0
 73
     1
 74
     1
 75
     0
 76
     0
 77
     0
 78
     0
170
     0
171
     2
172
     0
173
     0
174
     0
175
     0
176
     0
177
     0
178
     0
270
     2
271
     4
272
     4
273
     2
274
     2
340
F
275
     0
280
     0
281
     0
282
     0
283
     1
284
     0
285
     0
286
     0
287
     3
288
     0
   0
DIMSTYLE
 105
40
 100
AcDbSymbolTableRecord
 100
AcDbDimStyleTableRecord
   2
GMM001
  70
0
   3

   4

   5

   6

   7

  40
 1.0000000000000
  41
 2.0000000000000
  42
 1.0000000000000
  43
 8.0000000000000
  44
 1.0000000000000
  45
0.0
  46
0.0
  47
0.0
  48
0.0
 140
 2.5000000000000
 141
 1.0000000000000
 142
0.0
 143
 0.39400000000000E-1
 144
 1.0000000000000
 145
0.0
 146
 1.0000000000000
 147
 1.0000000000000
  71
0
  72
0
  73
0
  74
0
  75
0
  76
0
  77
3
  78
8
 170
0
 171
2
 172
1
 173
1
 174
0
 175
0
 176
8
 177
8
 178
8
 270
2
 271
6
 272
0
 273
2
 274
2
 340
3D
 275
0
 280
0
 281
0
 282
0
 283
1
 284
0
 285
0
 286
0
 287
3
 288
0
   0
DIMSTYLE
 105
41
 100
AcDbSymbolTableRecord
 100
AcDbDimStyleTableRecord
   2
GMM002
  70
0
   3

   4

   5

   6

   7

  40
 1.0000000000000
  41
 2.0000000000000
  42
 1.0000000000000
  43
 8.0000000000000
  44
 1.0000000000000
  45
0.0
  46
0.0
  47
0.0
  48
0.0
 140
 2.5000000000000
 141
 1.0000000000000
 142
0.0
 143
 0.39400000000000E-1
 144
 1.0000000000000
 145
0.0
 146
 1.0000000000000
 147
 0.84715900000000
  71
0
  72
0
  73
0
  74
0
  75
0
  76
0
  77
3
  78
8
 170
0
 171
2
 172
1
 173
1
 174
0
 175
0
 176
8
 177
8
 178
8
 270
2
 271
6
 272
0
 273
2
 274
2
 340
3D
 275
0
 280
0
 281
0
 282
0
 283
1
 284
0
 285
0
 286
0
 287
3
 288
1
   0
DIMSTYLE
 105
42
 100
AcDbSymbolTableRecord
 100
AcDbDimStyleTableRecord
   2
GMM003
  70
0
   3

   4

   5

   6

   7

  40
 1.0000000000000
  41
 2.0000000000000
  42
 1.0000000000000
  43
 8.0000000000000
  44
 1.0000000000000
  45
0.0
  46
0.0
  47
0.0
  48
0.0
 140
 2.5000000000000
 141
 1.0000000000000
 142
0.0
 143
 0.39400000000000E-1
 144
 1.0000000000000
 145
0.0
 146
 1.0000000000000
 147
 1.0292397660819
  71
0
  72
0
  73
0
  74
0
  75
0
  76
0
  77
3
  78
8
 170
0
 171
2
 172
1
 173
1
 174
0
 175
0
 176
8
 177
8
 178
8
 270
2
 271
6
 272
0
 273
2
 274
2
 340
3D
 275
0
 280
0
 281
0
 282
0
 283
1
 284
0
 285
0
 286
0
 287
3
 288
1
   0
ENDTAB
  0
TABLE
  2
BLOCK_RECORD
  5
1
100
AcDbSymbolTable
 70
     0
  0
BLOCK_RECORD
  5
18
100
AcDbSymbolTableRecord
100
AcDbBlockTableRecord
  2
*MODEL_SPACE
  0
BLOCK_RECORD
  5
15
100
AcDbSymbolTableRecord
100
AcDbBlockTableRecord
  2
*PAPER_SPACE
   0
BLOCK_RECORD
   5
43
 100
AcDbSymbolTableRecord
 100
AcDbBlockTableRecord
   2
*D1
   0
BLOCK_RECORD
   5
44
 100
AcDbSymbolTableRecord
 100
AcDbBlockTableRecord
   2
*D2
   0
BLOCK_RECORD
   5
45
 100
AcDbSymbolTableRecord
 100
AcDbBlockTableRecord
   2
*D3
   0
BLOCK_RECORD
   5
46
 100
AcDbSymbolTableRecord
 100
AcDbBlockTableRecord
   2
*D4
   0
BLOCK_RECORD
   5
47
 100
AcDbSymbolTableRecord
 100
AcDbBlockTableRecord
   2
*D5
   0
BLOCK_RECORD
   5
48
 100
AcDbSymbolTableRecord
 100
AcDbBlockTableRecord
   2
*D6
   0
BLOCK_RECORD
   5
49
 100
AcDbSymbolTableRecord
 100
AcDbBlockTableRecord
   2
*D7
   0
BLOCK_RECORD
   5
4A
 100
AcDbSymbolTableRecord
 100
AcDbBlockTableRecord
   2
*D8
   0
BLOCK_RECORD
   5
4B
 100
AcDbSymbolTableRecord
 100
AcDbBlockTableRecord
   2
*D9
   0
BLOCK_RECORD
   5
4C
 100
AcDbSymbolTableRecord
 100
AcDbBlockTableRecord
   2
*D10
   0
BLOCK_RECORD
   5
4D
 100
AcDbSymbolTableRecord
 100
AcDbBlockTableRecord
   2
*D11
   0
BLOCK_RECORD
   5
4E
 100
AcDbSymbolTableRecord
 100
AcDbBlockTableRecord
   2
*D12
   0
BLOCK_RECORD
   5
4F
 100
AcDbSymbolTableRecord
 100
AcDbBlockTableRecord
   2
*D13
   0
BLOCK_RECORD
   5
50
 100
AcDbSymbolTableRecord
 100
AcDbBlockTableRecord
   2
*D14
   0
BLOCK_RECORD
   5
51
 100
AcDbSymbolTableRecord
 100
AcDbBlockTableRecord
   2
*D15
   0
BLOCK_RECORD
   5
52
 100
AcDbSymbolTableRecord
 100
AcDbBlockTableRecord
   2
_ARCHTICK
   0
BLOCK_RECORD
   5
53
 100
AcDbSymbolTableRecord
 100
AcDbBlockTableRecord
   2
_BOXBLANK
   0
BLOCK_RECORD
   5
54
 100
AcDbSymbolTableRecord
 100
AcDbBlockTableRecord
   2
_BOXFILLED
   0
BLOCK_RECORD
   5
55
 100
AcDbSymbolTableRecord
 100
AcDbBlockTableRecord
   2
_CLOSED
   0
BLOCK_RECORD
   5
56
 100
AcDbSymbolTableRecord
 100
AcDbBlockTableRecord
   2
_CLOSEDBLANK
   0
BLOCK_RECORD
   5
57
 100
AcDbSymbolTableRecord
 100
AcDbBlockTableRecord
   2
_DATUMBLANK
   0
BLOCK_RECORD
   5
58
 100
AcDbSymbolTableRecord
 100
AcDbBlockTableRecord
   2
_DATUMFILLED
   0
BLOCK_RECORD
   5
59
 100
AcDbSymbolTableRecord
 100
AcDbBlockTableRecord
   2
_DOT
   0
BLOCK_RECORD
   5
5A
 100
AcDbSymbolTableRecord
 100
AcDbBlockTableRecord
   2
_DOTBLANK
   0
BLOCK_RECORD
   5
5B
 100
AcDbSymbolTableRecord
 100
AcDbBlockTableRecord
   2
_DOTSMALL
   0
BLOCK_RECORD
   5
5C
 100
AcDbSymbolTableRecord
 100
AcDbBlockTableRecord
   2
_INTEGRAL
   0
BLOCK_RECORD
   5
5D
 100
AcDbSymbolTableRecord
 100
AcDbBlockTableRecord
   2
_NONE
   0
BLOCK_RECORD
   5
5E
 100
AcDbSymbolTableRecord
 100
AcDbBlockTableRecord
   2
_OBLIQUE
   0
BLOCK_RECORD
   5
5F
 100
AcDbSymbolTableRecord
 100
AcDbBlockTableRecord
   2
_OPEN
   0
BLOCK_RECORD
   5
60
 100
AcDbSymbolTableRecord
 100
AcDbBlockTableRecord
   2
_OPEN30
   0
BLOCK_RECORD
   5
61
 100
AcDbSymbolTableRecord
 100
AcDbBlockTableRecord
   2
_OPEN90
   0
BLOCK_RECORD
   5
62
 100
AcDbSymbolTableRecord
 100
AcDbBlockTableRecord
   2
_ORIGIN
   0
ENDTAB
   0
ENDSEC
  0
SECTION
  2
BLOCKS
  0
BLOCK
  5
19
100
AcDbEntity
  8
0
100
AcDbBlockBegin
  2
*MODEL_SPACE
 70
     0
 10
0.0
 20
0.0
 30
0.0
  3
*MODEL_SPACE
  1

  0
ENDBLK
  5
1A
100
AcDbEntity
  8
0
100
AcDbBlockEnd
  0
BLOCK
  5
16
100
AcDbEntity
 67
     1
  8
0
100
AcDbBlockBegin
  2
*PAPER_SPACE
 70
     0
 10
0.0
 20
0.0
 30
0.0
  3
*PAPER_SPACE
  1

  0
ENDBLK
  5
17
100
AcDbEntity
 67
     1
  8
0
100
AcDbBlockEnd
   0
BLOCK
   5
63
 100
AcDbEntity
   8
0
 100
AcDbBlockBegin
   2
_ARCHTICK
  70
0
  10
0.0
  20
0.0
  30
0.0
   3
_ARCHTICK
   0
POLYLINE
   5
64
 100
AcDbEntity
   8
0
 370
-2
   6
BYBLOCK
  62
0
 100
AcDb2dPolyline
  66
1
  10
0.0
  20
0.0
  30
0.0
  70
1
  40
 0.15000000000000
  41
 0.15000000000000
   0
VERTEX
   5
65
 100
AcDbEntity
   8
0
   6
BYBLOCK
  62
0
 100
AcDbVertex
 100
AcDb2dVertex
  10
-0.50000000000000
  20
-0.50000000000000
  30
0.0
  40
 0.15000000000000
  41
 0.15000000000000
   0
VERTEX
   5
66
 100
AcDbEntity
   8
0
   6
BYBLOCK
  62
0
 100
AcDbVertex
 100
AcDb2dVertex
  10
 0.50000000000000
  20
 0.50000000000000
  30
0.0
  40
 0.15000000000000
  41
 0.15000000000000
   0
SEQEND
   5
67
 100
AcDbEntity
   8
0
   6
BYBLOCK
  62
0
   0
ENDBLK
   5
68
 100
AcDbEntity
   8
0
 100
AcDbBlockEnd
   0
BLOCK
   5
69
 100
AcDbEntity
   8
0
 100
AcDbBlockBegin
   2
_OBLIQUE
  70
0
  10
0.0
  20
0.0
  30
0.0
   3
_OBLIQUE
   0
LINE
   5
6A
 100
AcDbEntity
   8
0
 370
-2
 100
AcDbLine
   6
BYBLOCK
  62
0
  10
-0.50000000000000
  20
-0.50000000000000
  30
0.0
  11
 0.50000000000000
  21
 0.50000000000000
  31
0.0
   0
ENDBLK
   5
6B
 100
AcDbEntity
   8
0
 100
AcDbBlockEnd
   0
BLOCK
   5
6C
 100
AcDbEntity
   8
0
 100
AcDbBlockBegin
   2
_BOXBLANK
  70
0
  10
0.0
  20
0.0
  30
0.0
   3
_BOXBLANK
   0
LINE
   5
6D
 100
AcDbEntity
   8
0
 370
-2
 100
AcDbLine
   6
BYBLOCK
  62
0
  10
-0.50000000000000
  20
-0.50000000000000
  30
0.0
  11
 0.50000000000000
  21
-0.50000000000000
  31
0.0
   0
LINE
   5
6E
 100
AcDbEntity
   8
0
 370
-2
 100
AcDbLine
   6
BYBLOCK
  62
0
  10
 0.50000000000000
  20
-0.50000000000000
  30
0.0
  11
 0.50000000000000
  21
 0.50000000000000
  31
0.0
   0
LINE
   5
6F
 100
AcDbEntity
   8
0
 370
-2
 100
AcDbLine
   6
BYBLOCK
  62
0
  10
 0.50000000000000
  20
 0.50000000000000
  30
0.0
  11
-0.50000000000000
  21
 0.50000000000000
  31
0.0
   0
LINE
   5
70
 100
AcDbEntity
   8
0
 370
-2
 100
AcDbLine
   6
BYBLOCK
  62
0
  10
-0.50000000000000
  20
 0.50000000000000
  30
0.0
  11
-0.50000000000000
  21
-0.50000000000000
  31
0.0
   0
LINE
   5
71
 100
AcDbEntity
   8
0
 370
-2
 100
AcDbLine
   6
BYBLOCK
  62
0
  10
-0.50000000000000
  20
0.0
  30
0.0
  11
-1.0000000000000
  21
0.0
  31
0.0
   0
ENDBLK
   5
72
 100
AcDbEntity
   8
0
 100
AcDbBlockEnd
   0
BLOCK
   5
73
 100
AcDbEntity
   8
0
 100
AcDbBlockBegin
   2
_BOXFILLED
  70
0
  10
0.0
  20
0.0
  30
0.0
   3
_BOXFILLED
   0
SOLID
   5
74
 100
AcDbEntity
   8
0
 100
AcDbTrace
   6
BYBLOCK
  62
0
  10
-0.50000000000000
  20
 0.50000000000000
  30
0.0
  11
 0.50000000000000
  21
 0.50000000000000
  31
0.0
  12
-0.50000000000000
  22
-0.50000000000000
  32
0.0
  13
 0.50000000000000
  23
-0.50000000000000
  33
0.0
   0
LINE
   5
75
 100
AcDbEntity
   8
0
 370
-2
 100
AcDbLine
   6
BYBLOCK
  62
0
  10
-0.50000000000000
  20
0.0
  30
0.0
  11
-1.0000000000000
  21
0.0
  31
0.0
   0
ENDBLK
   5
76
 100
AcDbEntity
   8
0
 100
AcDbBlockEnd
   0
BLOCK
   5
77
 100
AcDbEntity
   8
0
 100
AcDbBlockBegin
   2
_CLOSED
  70
0
  10
0.0
  20
0.0
  30
0.0
   3
_CLOSED
   0
LINE
   5
78
 100
AcDbEntity
   8
0
 370
-2
 100
AcDbLine
   6
BYBLOCK
  62
0
  10
-1.0000000000000
  20
 0.16666666666667
  30
0.0
  11
0.0
  21
0.0
  31
0.0
   0
LINE
   5
79
 100
AcDbEntity
   8
0
 370
-2
 100
AcDbLine
   6
BYBLOCK
  62
0
  10
0.0
  20
0.0
  30
0.0
  11
-1.0000000000000
  21
-0.16666666666667
  31
0.0
   0
LINE
   5
7A
 100
AcDbEntity
   8
0
 370
-2
 100
AcDbLine
   6
BYBLOCK
  62
0
  10
-1.0000000000000
  20
 0.16666666666667
  30
0.0
  11
-1.0000000000000
  21
-0.16666666666667
  31
0.0
   0
LINE
   5
7B
 100
AcDbEntity
   8
0
 370
-2
 100
AcDbLine
   6
BYBLOCK
  62
0
  10
0.0
  20
0.0
  30
0.0
  11
-1.0000000000000
  21
0.0
  31
0.0
   0
ENDBLK
   5
7C
 100
AcDbEntity
   8
0
 100
AcDbBlockEnd
   0
BLOCK
   5
7D
 100
AcDbEntity
   8
0
 100
AcDbBlockBegin
   2
_OPEN
  70
0
  10
0.0
  20
0.0
  30
0.0
   3
_OPEN
   0
LINE
   5
7E
 100
AcDbEntity
   8
0
 370
-2
 100
AcDbLine
   6
BYBLOCK
  62
0
  10
-1.0000000000000
  20
 0.16666666666667
  30
0.0
  11
0.0
  21
0.0
  31
0.0
   0
LINE
   5
7F
 100
AcDbEntity
   8
0
 370
-2
 100
AcDbLine
   6
BYBLOCK
  62
0
  10
0.0
  20
0.0
  30
0.0
  11
-1.0000000000000
  21
-0.16666666666667
  31
0.0
   0
LINE
   5
80
 100
AcDbEntity
   8
0
 370
-2
 100
AcDbLine
   6
BYBLOCK
  62
0
  10
0.0
  20
0.0
  30
0.0
  11
-1.0000000000000
  21
0.0
  31
0.0
   0
ENDBLK
   5
81
 100
AcDbEntity
   8
0
 100
AcDbBlockEnd
   0
BLOCK
   5
82
 100
AcDbEntity
   8
0
 100
AcDbBlockBegin
   2
_OPEN30
  70
0
  10
0.0
  20
0.0
  30
0.0
   3
_OPEN30
   0
LINE
   5
83
 100
AcDbEntity
   8
0
 370
-2
 100
AcDbLine
   6
BYBLOCK
  62
0
  10
-1.0000000000000
  20
 0.26794919243110
  30
0.0
  11
0.0
  21
0.0
  31
0.0
   0
LINE
   5
84
 100
AcDbEntity
   8
0
 370
-2
 100
AcDbLine
   6
BYBLOCK
  62
0
  10
0.0
  20
0.0
  30
0.0
  11
-1.0000000000000
  21
-0.26794919243110
  31
0.0
   0
LINE
   5
85
 100
AcDbEntity
   8
0
 370
-2
 100
AcDbLine
   6
BYBLOCK
  62
0
  10
0.0
  20
0.0
  30
0.0
  11
-1.0000000000000
  21
0.0
  31
0.0
   0
ENDBLK
   5
86
 100
AcDbEntity
   8
0
 100
AcDbBlockEnd
   0
BLOCK
   5
87
 100
AcDbEntity
   8
0
 100
AcDbBlockBegin
   2
_OPEN90
  70
0
  10
0.0
  20
0.0
  30
0.0
   3
_OPEN90
   0
LINE
   5
88
 100
AcDbEntity
   8
0
 370
-2
 100
AcDbLine
   6
BYBLOCK
  62
0
  10
-0.50000000000000
  20
 0.50000000000000
  30
0.0
  11
0.0
  21
0.0
  31
0.0
   0
LINE
   5
89
 100
AcDbEntity
   8
0
 370
-2
 100
AcDbLine
   6
BYBLOCK
  62
0
  10
0.0
  20
0.0
  30
0.0
  11
-0.50000000000000
  21
-0.50000000000000
  31
0.0
   0
LINE
   5
8A
 100
AcDbEntity
   8
0
 370
-2
 100
AcDbLine
   6
BYBLOCK
  62
0
  10
0.0
  20
0.0
  30
0.0
  11
-1.0000000000000
  21
0.0
  31
0.0
   0
ENDBLK
   5
8B
 100
AcDbEntity
   8
0
 100
AcDbBlockEnd
   0
BLOCK
   5
8C
 100
AcDbEntity
   8
0
 100
AcDbBlockBegin
   2
_CLOSEDBLANK
  70
0
  10
0.0
  20
0.0
  30
0.0
   3
_CLOSEDBLANK
   0
LINE
   5
8D
 100
AcDbEntity
   8
0
 370
-2
 100
AcDbLine
   6
BYBLOCK
  62
0
  10
-1.0000000000000
  20
 0.16666666666667
  30
0.0
  11
0.0
  21
0.0
  31
0.0
   0
LINE
   5
8E
 100
AcDbEntity
   8
0
 370
-2
 100
AcDbLine
   6
BYBLOCK
  62
0
  10
0.0
  20
0.0
  30
0.0
  11
-1.0000000000000
  21
-0.16666666666667
  31
0.0
   0
LINE
   5
8F
 100
AcDbEntity
   8
0
 370
-2
 100
AcDbLine
   6
BYBLOCK
  62
0
  10
-1.0000000000000
  20
 0.16666666666667
  30
0.0
  11
-1.0000000000000
  21
-0.16666666666667
  31
0.0
   0
ENDBLK
   5
90
 100
AcDbEntity
   8
0
 100
AcDbBlockEnd
   0
BLOCK
   5
91
 100
AcDbEntity
   8
0
 100
AcDbBlockBegin
   2
_DOT
  70
0
  10
0.0
  20
0.0
  30
0.0
   3
_DOT
   0
POLYLINE
   5
92
 100
AcDbEntity
   8
0
 370
-2
   6
BYBLOCK
  62
0
 100
AcDb2dPolyline
  66
1
  10
0.0
  20
0.0
  30
0.0
  70
1
  40
 0.50000000000000
  41
 0.50000000000000
   0
VERTEX
   5
93
 100
AcDbEntity
   8
0
   6
BYBLOCK
  62
0
 100
AcDbVertex
 100
AcDb2dVertex
  10
-0.25000000000000
  20
0.0
  30
0.0
  42
 1.0000000000000
  40
 0.50000000000000
  41
 0.50000000000000
   0
VERTEX
   5
94
 100
AcDbEntity
   8
0
   6
BYBLOCK
  62
0
 100
AcDbVertex
 100
AcDb2dVertex
  10
 0.25000000000000
  20
0.0
  30
0.0
  42
 1.0000000000000
  40
 0.50000000000000
  41
 0.50000000000000
   0
SEQEND
   5
95
 100
AcDbEntity
   8
0
   6
BYBLOCK
  62
0
   0
LINE
   5
96
 100
AcDbEntity
   8
0
 370
-2
 100
AcDbLine
   6
BYBLOCK
  62
0
  10
-0.50000000000000
  20
0.0
  30
0.0
  11
-1.0000000000000
  21
0.0
  31
0.0
   0
ENDBLK
   5
97
 100
AcDbEntity
   8
0
 100
AcDbBlockEnd
   0
BLOCK
   5
98
 100
AcDbEntity
   8
0
 100
AcDbBlockBegin
   2
_DOTSMALL
  70
0
  10
0.0
  20
0.0
  30
0.0
   3
_DOTSMALL
   0
POLYLINE
   5
99
 100
AcDbEntity
   8
0
 370
-2
   6
BYBLOCK
  62
0
 100
AcDb2dPolyline
  66
1
  10
0.0
  20
0.0
  30
0.0
  70
1
  40
 0.50000000000000
  41
 0.50000000000000
   0
VERTEX
   5
9A
 100
AcDbEntity
   8
0
   6
BYBLOCK
  62
0
 100
AcDbVertex
 100
AcDb2dVertex
  10
-0.62500000000000E-1
  20
0.0
  30
0.0
  42
 1.0000000000000
  40
 0.50000000000000
  41
 0.50000000000000
   0
VERTEX
   5
9B
 100
AcDbEntity
   8
0
   6
BYBLOCK
  62
0
 100
AcDbVertex
 100
AcDb2dVertex
  10
 0.62500000000000E-1
  20
0.0
  30
0.0
  42
 1.0000000000000
  40
 0.50000000000000
  41
 0.50000000000000
   0
SEQEND
   5
9C
 100
AcDbEntity
   8
0
   6
BYBLOCK
  62
0
   0
ENDBLK
   5
9D
 100
AcDbEntity
   8
0
 100
AcDbBlockEnd
   0
BLOCK
   5
9E
 100
AcDbEntity
   8
0
 100
AcDbBlockBegin
   2
_DATUMBLANK
  70
0
  10
0.0
  20
0.0
  30
0.0
   3
_DATUMBLANK
   0
LINE
   5
9F
 100
AcDbEntity
   8
0
 370
-2
 100
AcDbLine
   6
BYBLOCK
  62
0
  10
0.0
  20
 0.57735027000000
  30
0.0
  11
-1.0000000000000
  21
0.0
  31
0.0
   0
LINE
   5
A0
 100
AcDbEntity
   8
0
 370
-2
 100
AcDbLine
   6
BYBLOCK
  62
0
  10
-1.0000000000000
  20
0.0
  30
0.0
  11
0.0
  21
-0.57735027000000
  31
0.0
   0
LINE
   5
A1
 100
AcDbEntity
   8
0
 370
-2
 100
AcDbLine
   6
BYBLOCK
  62
0
  10
0.0
  20
-0.57735027000000
  30
0.0
  11
0.0
  21
 0.57735027000000
  31
0.0
   0
ENDBLK
   5
A2
 100
AcDbEntity
   8
0
 100
AcDbBlockEnd
   0
BLOCK
   5
A3
 100
AcDbEntity
   8
0
 100
AcDbBlockBegin
   2
_DATUMFILLED
  70
0
  10
0.0
  20
0.0
  30
0.0
   3
_DATUMFILLED
   0
SOLID
   5
A4
 100
AcDbEntity
   8
0
 100
AcDbTrace
   6
BYBLOCK
  62
0
  10
0.0
  20
 0.57735027000000
  30
0.0
  11
-1.0000000000000
  21
0.0
  31
0.0
  12
0.0
  22
-0.57735027000000
  32
0.0
  13
0.0
  23
-0.57735027000000
  33
0.0
   0
ENDBLK
   5
A5
 100
AcDbEntity
   8
0
 100
AcDbBlockEnd
   0
BLOCK
   5
A6
 100
AcDbEntity
   8
0
 100
AcDbBlockBegin
   2
_ORIGIN
  70
0
  10
0.0
  20
0.0
  30
0.0
   3
_ORIGIN
   0
CIRCLE
   5
A7
 100
AcDbEntity
   8
0
 370
-2
 100
AcDbCircle
   6
BYBLOCK
  62
0
  10
0.0
  20
0.0
  30
0.0
  40
 0.50000000000000
   0
LINE
   5
A8
 100
AcDbEntity
   8
0
 370
-2
 100
AcDbLine
   6
BYBLOCK
  62
0
  10
0.0
  20
0.0
  30
0.0
  11
-1.0000000000000
  21
0.0
  31
0.0
   0
ENDBLK
   5
A9
 100
AcDbEntity
   8
0
 100
AcDbBlockEnd
   0
BLOCK
   5
AA
 100
AcDbEntity
   8
0
 100
AcDbBlockBegin
   2
_NONE
  70
0
  10
0.0
  20
0.0
  30
0.0
   3
_NONE
   0
CIRCLE
   5
AB
 100
AcDbEntity
   8
0
 370
-2
 100
AcDbCircle
   6
BYBLOCK
  62
0
  10
0.0
  20
0.0
  30
0.0
  40
 0.25000000000000
   0
ENDBLK
   5
AC
 100
AcDbEntity
   8
0
 100
AcDbBlockEnd
   0
BLOCK
   5
AD
 100
AcDbEntity
   8
0
 100
AcDbBlockBegin
   2
_DOTBLANK
  70
0
  10
0.0
  20
0.0
  30
0.0
   3
_DOTBLANK
   0
CIRCLE
   5
AE
 100
AcDbEntity
   8
0
 370
-2
 100
AcDbCircle
   6
BYBLOCK
  62
0
  10
0.0
  20
0.0
  30
0.0
  40
 0.50000000000000
   0
LINE
   5
AF
 100
AcDbEntity
   8
0
 370
-2
 100
AcDbLine
   6
BYBLOCK
  62
0
  10
-0.50000000000000
  20
0.0
  30
0.0
  11
-1.0000000000000
  21
0.0
  31
0.0
   0
ENDBLK
   5
B0
 100
AcDbEntity
   8
0
 100
AcDbBlockEnd
   0
BLOCK
   5
B1
 100
AcDbEntity
   8
0
 100
AcDbBlockBegin
   2
_INTEGRAL
  70
0
  10
0.0
  20
0.0
  30
0.0
   3
_INTEGRAL
   0
ARC
   5
B2
 100
AcDbEntity
   8
0
 370
-2
   6
BYBLOCK
  62
0
 100
AcDbCircle
  10
 0.44488800000000
  20
-0.91335000000000E-1
  30
0.0
  40
 0.45416700000000
 100
AcDbArc
  50
 102.00000000000
  51
 168.00000000000
   0
ARC
   5
B3
 100
AcDbEntity
   8
0
 370
-2
   6
BYBLOCK
  62
0
 100
AcDbCircle
  10
-0.44488800000000
  20
 0.91335000000000E-1
  30
0.0
  40
 0.45416700000000
 100
AcDbArc
  50
 282.00000000000
  51
 348.00000000000
   0
ENDBLK
   5
B4
 100
AcDbEntity
   8
0
 100
AcDbBlockEnd
   0
BLOCK
   5
B5
 100
AcDbEntity
   8
0
 100
AcDbBlockBegin
   2
*D1
  70
65
  10
0.0
  20
0.0
  30
0.0
   3
*D1
   0
LINE
   5
B6
 100
AcDbEntity
   8
LEVEL001
 370
15
 100
AcDbLine
   6
CONTINUOUS
  62
8
  10
 32.206685606387
  20
 236.22580403461
  30
0.0
  11
 32.206685606387
  21
 253.65067516533
  31
0.0
   0
LINE
   5
B7
 100
AcDbEntity
   8
LEVEL001
 370
15
 100
AcDbLine
   6
CONTINUOUS
  62
8
  10
 138.20668560639
  20
 236.22580403482
  30
0.0
  11
 138.20668560639
  21
 253.65067516533
  31
0.0
   0
LINE
   5
B8
 100
AcDbEntity
   8
LEVEL001
 370
15
 100
AcDbLine
   6
CONTINUOUS
  62
8
  10
 32.206685606387
  20
 252.65067516533
  30
0.0
  11
 85.206685606387
  21
 252.65067516533
  31
0.0
   0
LINE
   5
B9
 100
AcDbEntity
   8
LEVEL001
 370
15
 100
AcDbLine
   6
CONTINUOUS
  62
8
  10
 138.20668560639
  20
 252.65067516533
  30
0.0
  11
 85.206685606387
  21
 252.65067516533
  31
0.0
   0
SOLID
   5
BA
 100
AcDbEntity
   8
LEVEL001
 100
AcDbTrace
   6
CONTINUOUS
  62
8
  10
 32.206685606387
  20
 252.65067516533
  30
0.0
  11
 34.206685606387
  21
 252.29802120391
  31
0.0
  12
 34.206685606387
  22
 253.00332912675
  32
0.0
  13
 34.206685606387
  23
 253.00332912675
  33
0.0
   0
SOLID
   5
BB
 100
AcDbEntity
   8
LEVEL001
 100
AcDbTrace
   6
CONTINUOUS
  62
8
  10
 138.20668560639
  20
 252.65067516533
  30
0.0
  11
 136.20668560639
  21
 253.00332912675
  31
0.0
  12
 136.20668560639
  22
 252.29802120391
  32
0.0
  13
 136.20668560639
  23
 252.29802120391
  33
0.0
   0
MTEXT
   5
BC
 100
AcDbEntity
   8
LEVEL001
 370
15
  62
8
 100
AcDbMText
  10
 85.206685606387
  20
 253.65067516533
  30
0.0
  40
 2.5000000000000
  41
0.0
  71
8
  72
1
   1
\A1;106
   7
GMM002
   0
ENDBLK
   5
BD
 100
AcDbEntity
   8
0
 100
AcDbBlockEnd
   0
BLOCK
   5
BE
 100
AcDbEntity
   8
0
 100
AcDbBlockBegin
   2
*D2
  70
65
  10
0.0
  20
0.0
  30
0.0
   3
*D2
   0
LINE
   5
BF
 100
AcDbEntity
   8
LEVEL001
 370
15
 100
AcDbLine
   6
CONTINUOUS
  62
8
  10
 45.706685606388
  20
 238.40067516533
  30
0.0
  11
 45.706685606388
  21
 243.65067516533
  31
0.0
   0
LINE
   5
C0
 100
AcDbEntity
   8
LEVEL001
 370
15
 100
AcDbLine
   6
CONTINUOUS
  62
8
  10
 52.706685606387
  20
 238.40067516533
  30
0.0
  11
 52.706685606387
  21
 243.65067516533
  31
0.0
   0
LINE
   5
C1
 100
AcDbEntity
   8
LEVEL001
 370
15
 100
AcDbLine
   6
CONTINUOUS
  62
8
  10
 41.319247385191
  20
 242.65067516533
  30
0.0
  11
 49.206685606387
  21
 242.65067516533
  31
0.0
   0
LINE
   5
C2
 100
AcDbEntity
   8
LEVEL001
 370
15
 100
AcDbLine
   6
CONTINUOUS
  62
8
  10
 55.206685606387
  20
 242.65067516533
  30
0.0
  11
 49.206685606387
  21
 242.65067516533
  31
0.0
   0
SOLID
   5
C3
 100
AcDbEntity
   8
LEVEL001
 100
AcDbTrace
   6
CONTINUOUS
  62
8
  10
 45.706685606388
  20
 242.65067516533
  30
0.0
  11
 43.706685606388
  21
 243.00332912675
  31
0.0
  12
 43.706685606388
  22
 242.29802120391
  32
0.0
  13
 43.706685606388
  23
 242.29802120391
  33
0.0
   0
SOLID
   5
C4
 100
AcDbEntity
   8
LEVEL001
 100
AcDbTrace
   6
CONTINUOUS
  62
8
  10
 52.706685606387
  20
 242.65067516533
  30
0.0
  11
 54.706685606387
  21
 242.29802120391
  31
0.0
  12
 54.706685606387
  22
 243.00332912675
  32
0.0
  13
 54.706685606387
  23
 243.00332912675
  33
0.0
   0
MTEXT
   5
C5
 100
AcDbEntity
   8
LEVEL001
 370
15
  62
8
 100
AcDbMText
  10
 43.819247385191
  20
 243.49783416533
  30
0.0
  40
 2.5000000000000
  41
0.0
  71
9
  72
1
   1
\A1;7
   7
GMM002
   0
ENDBLK
   5
C6
 100
AcDbEntity
   8
0
 100
AcDbBlockEnd
   0
BLOCK
   5
C7
 100
AcDbEntity
   8
0
 100
AcDbBlockBegin
   2
*D3
  70
65
  10
0.0
  20
0.0
  30
0.0
   3
*D3
   0
LINE
   5
C8
 100
AcDbEntity
   8
LEVEL001
 370
15
 100
AcDbLine
   6
CONTINUOUS
  62
8
  10
 49.206685606387
  20
 241.29973857912
  30
0.0
  11
 49.206685606387
  21
 248.65067516533
  31
0.0
   0
LINE
   5
C9
 100
AcDbEntity
   8
LEVEL001
 370
15
 100
AcDbLine
   6
CONTINUOUS
  62
8
  10
 49.206685606387
  20
 247.65067516533
  30
0.0
  11
 67.206685606387
  21
 247.65067516533
  31
0.0
   0
LINE
   5
CA
 100
AcDbEntity
   8
LEVEL001
 370
15
 100
AcDbLine
   6
CONTINUOUS
  62
8
  10
 85.206685606387
  20
 247.65067516533
  30
0.0
  11
 67.206685606387
  21
 247.65067516533
  31
0.0
   0
SOLID
   5
CB
 100
AcDbEntity
   8
LEVEL001
 100
AcDbTrace
   6
CONTINUOUS
  62
8
  10
 49.206685606387
  20
 247.65067516533
  30
0.0
  11
 51.206685606387
  21
 247.29802120391
  31
0.0
  12
 51.206685606387
  22
 248.00332912675
  32
0.0
  13
 51.206685606387
  23
 248.00332912675
  33
0.0
   0
SOLID
   5
CC
 100
AcDbEntity
   8
LEVEL001
 100
AcDbTrace
   6
CONTINUOUS
  62
8
  10
 85.206685606387
  20
 247.65067516533
  30
0.0
  11
 83.206685606387
  21
 248.00332912675
  31
0.0
  12
 83.206685606387
  22
 247.29802120391
  32
0.0
  13
 83.206685606387
  23
 247.29802120391
  33
0.0
   0
MTEXT
   5
CD
 100
AcDbEntity
   8
LEVEL001
 370
15
  62
8
 100
AcDbMText
  10
 67.206685606387
  20
 248.65067516533
  30
0.0
  40
 2.5000000000000
  41
0.0
  71
8
  72
1
   1
\A1;36
   7
GMM002
   0
ENDBLK
   5
CE
 100
AcDbEntity
   8
0
 100
AcDbBlockEnd
   0
BLOCK
   5
CF
 100
AcDbEntity
   8
0
 100
AcDbBlockBegin
   2
*D4
  70
65
  10
0.0
  20
0.0
  30
0.0
   3
*D4
   0
LINE
   5
D0
 100
AcDbEntity
   8
LEVEL001
 370
15
 100
AcDbLine
   6
CONTINUOUS
  62
8
  10
 85.206685606387
  20
 241.79973857912
  30
0.0
  11
 85.206685606387
  21
 248.65067516533
  31
0.0
   0
LINE
   5
D1
 100
AcDbEntity
   8
LEVEL001
 370
15
 100
AcDbLine
   6
CONTINUOUS
  62
8
  10
 121.20668560639
  20
 242.99860553818
  30
0.0
  11
 121.20668560639
  21
 248.65067516533
  31
0.0
   0
LINE
   5
D2
 100
AcDbEntity
   8
LEVEL001
 370
15
 100
AcDbLine
   6
CONTINUOUS
  62
8
  10
 85.206685606387
  20
 247.65067516533
  30
0.0
  11
 103.20668560639
  21
 247.65067516533
  31
0.0
   0
LINE
   5
D3
 100
AcDbEntity
   8
LEVEL001
 370
15
 100
AcDbLine
   6
CONTINUOUS
  62
8
  10
 121.20668560639
  20
 247.65067516533
  30
0.0
  11
 103.20668560639
  21
 247.65067516533
  31
0.0
   0
SOLID
   5
D4
 100
AcDbEntity
   8
LEVEL001
 100
AcDbTrace
   6
CONTINUOUS
  62
8
  10
 85.206685606387
  20
 247.65067516533
  30
0.0
  11
 87.206685606387
  21
 247.29802120391
  31
0.0
  12
 87.206685606387
  22
 248.00332912675
  32
0.0
  13
 87.206685606387
  23
 248.00332912675
  33
0.0
   0
SOLID
   5
D5
 100
AcDbEntity
   8
LEVEL001
 100
AcDbTrace
   6
CONTINUOUS
  62
8
  10
 121.20668560639
  20
 247.65067516533
  30
0.0
  11
 119.20668560639
  21
 248.00332912675
  31
0.0
  12
 119.20668560639
  22
 247.29802120391
  32
0.0
  13
 119.20668560639
  23
 247.29802120391
  33
0.0
   0
MTEXT
   5
D6
 100
AcDbEntity
   8
LEVEL001
 370
15
  62
8
 100
AcDbMText
  10
 103.20668560639
  20
 248.65067516533
  30
0.0
  40
 2.5000000000000
  41
0.0
  71
8
  72
1
   1
\A1;36
   7
GMM002
   0
ENDBLK
   5
D7
 100
AcDbEntity
   8
0
 100
AcDbBlockEnd
   0
BLOCK
   5
D8
 100
AcDbEntity
   8
0
 100
AcDbBlockBegin
   2
*D5
  70
65
  10
0.0
  20
0.0
  30
0.0
   3
*D5
   0
LINE
   5
D9
 100
AcDbEntity
   8
LEVEL001
 370
15
 100
AcDbLine
   6
CONTINUOUS
  62
8
  10
 139.00668560639
  20
 234.65067516533
  30
0.0
  11
 145.07809841486
  21
 234.65067516533
  31
0.0
   0
LINE
   5
DA
 100
AcDbEntity
   8
LEVEL001
 370
15
 100
AcDbLine
   6
CONTINUOUS
  62
8
  10
 135.20668560639
  20
 237.65067516542
  30
0.0
  11
 145.07809841486
  21
 237.65067516542
  31
0.0
   0
LINE
   5
DB
 100
AcDbEntity
   8
LEVEL001
 370
15
 100
AcDbLine
   6
CONTINUOUS
  62
8
  10
 144.07809841486
  20
 232.15067516533
  30
0.0
  11
 144.07809841486
  21
 236.15067516537
  31
0.0
   0
LINE
   5
DC
 100
AcDbEntity
   8
LEVEL001
 370
15
 100
AcDbLine
   6
CONTINUOUS
  62
8
  10
 144.07809841486
  20
 242.86072692668
  30
0.0
  11
 144.07809841486
  21
 236.15067516537
  31
0.0
   0
SOLID
   5
DD
 100
AcDbEntity
   8
LEVEL001
 100
AcDbTrace
   6
CONTINUOUS
  62
8
  10
 144.07809841486
  20
 234.65067516533
  30
0.0
  11
 143.72544445345
  21
 232.65067516533
  31
0.0
  12
 144.43075237628
  22
 232.65067516533
  32
0.0
  13
 144.43075237628
  23
 232.65067516533
  33
0.0
   0
SOLID
   5
DE
 100
AcDbEntity
   8
LEVEL001
 100
AcDbTrace
   6
CONTINUOUS
  62
8
  10
 144.07809841486
  20
 237.65067516542
  30
0.0
  11
 144.43075237628
  21
 239.65067516542
  31
0.0
  12
 143.72544445345
  22
 239.65067516542
  32
0.0
  13
 143.72544445345
  23
 239.65067516542
  33
0.0
   0
MTEXT
   5
DF
 100
AcDbEntity
   8
LEVEL001
 370
15
  62
8
 100
AcDbMText
  10
 143.04885864878
  20
 240.36072692668
  30
0.0
  40
 2.5000000000000
  41
0.0
  71
7
  72
1
   1
\A1;3
   7
GMM002
  11
0.0
  21
 1.0000000000000
  31
0.0
   0
ENDBLK
   5
E0
 100
AcDbEntity
   8
0
 100
AcDbBlockEnd
   0
BLOCK
   5
E1
 100
AcDbEntity
   8
0
 100
AcDbBlockBegin
   2
*D6
  70
65
  10
0.0
  20
0.0
  30
0.0
   3
*D6
   0
LINE
   5
E2
 100
AcDbEntity
   8
LEVEL001
 370
15
 100
AcDbLine
   6
CONTINUOUS
  62
8
  10
 74.388792057118
  20
 72.579741551742
  30
0.0
  11
 74.388792057118
  21
 62.579741551742
  31
0.0
   0
LINE
   5
E3
 100
AcDbEntity
   8
LEVEL001
 370
15
 100
AcDbLine
   6
CONTINUOUS
  62
8
  10
 78.388792057118
  20
 75.879741551742
  30
0.0
  11
 78.388792057118
  21
 62.579741551742
  31
0.0
   0
LINE
   5
E4
 100
AcDbEntity
   8
LEVEL001
 370
15
 100
AcDbLine
   6
CONTINUOUS
  62
8
  10
 71.888792057118
  20
 63.579741551742
  30
0.0
  11
 76.388792057118
  21
 63.579741551742
  31
0.0
   0
LINE
   5
E5
 100
AcDbEntity
   8
LEVEL001
 370
15
 100
AcDbLine
   6
CONTINUOUS
  62
8
  10
 80.888792057118
  20
 63.579741551742
  30
0.0
  11
 76.388792057118
  21
 63.579741551742
  31
0.0
   0
SOLID
   5
E6
 100
AcDbEntity
   8
LEVEL001
 100
AcDbTrace
   6
CONTINUOUS
  62
8
  10
 74.388792057118
  20
 63.579741551742
  30
0.0
  11
 72.388792057118
  21
 63.932395513159
  31
0.0
  12
 72.388792057118
  22
 63.227087590325
  32
0.0
  13
 72.388792057118
  23
 63.227087590325
  33
0.0
   0
SOLID
   5
E7
 100
AcDbEntity
   8
LEVEL001
 100
AcDbTrace
   6
CONTINUOUS
  62
8
  10
 78.388792057118
  20
 63.579741551742
  30
0.0
  11
 80.388792057118
  21
 63.227087590325
  31
0.0
  12
 80.388792057118
  22
 63.932395513159
  32
0.0
  13
 80.388792057118
  23
 63.932395513159
  33
0.0
   0
MTEXT
   5
E8
 100
AcDbEntity
   8
LEVEL001
 370
15
  62
8
 100
AcDbMText
  10
 76.388792057118
  20
 64.579741551742
  30
0.0
  40
 2.5000000000000
  41
0.0
  71
8
  72
1
   1
\A1;4
   7
GMM002
   0
ENDBLK
   5
E9
 100
AcDbEntity
   8
0
 100
AcDbBlockEnd
   0
BLOCK
   5
EA
 100
AcDbEntity
   8
0
 100
AcDbBlockBegin
   2
*D7
  70
65
  10
0.0
  20
0.0
  30
0.0
   3
*D7
   0
LINE
   5
EB
 100
AcDbEntity
   8
LEVEL001
 370
15
 100
AcDbLine
   6
CONTINUOUS
  62
8
  10
 73.388792057118
  20
 76.579741551742
  30
0.0
  11
 66.388792057118
  21
 76.579741551742
  31
0.0
   0
LINE
   5
EC
 100
AcDbEntity
   8
LEVEL001
 370
15
 100
AcDbLine
   6
CONTINUOUS
  62
8
  10
 73.388792057118
  20
 188.57974155174
  30
0.0
  11
 66.388792057118
  21
 188.57974155174
  31
0.0
   0
LINE
   5
ED
 100
AcDbEntity
   8
LEVEL001
 370
15
 100
AcDbLine
   6
CONTINUOUS
  62
8
  10
 67.388792057118
  20
 76.579741551742
  30
0.0
  11
 67.388792057118
  21
 132.57974155174
  31
0.0
   0
LINE
   5
EE
 100
AcDbEntity
   8
LEVEL001
 370
15
 100
AcDbLine
   6
CONTINUOUS
  62
8
  10
 67.388792057118
  20
 188.57974155174
  30
0.0
  11
 67.388792057118
  21
 132.57974155174
  31
0.0
   0
SOLID
   5
EF
 100
AcDbEntity
   8
LEVEL001
 100
AcDbTrace
   6
CONTINUOUS
  62
8
  10
 67.388792057118
  20
 76.579741551742
  30
0.0
  11
 67.741446018535
  21
 78.579741551742
  31
0.0
  12
 67.036138095701
  22
 78.579741551742
  32
0.0
  13
 67.036138095701
  23
 78.579741551742
  33
0.0
   0
SOLID
   5
F0
 100
AcDbEntity
   8
LEVEL001
 100
AcDbTrace
   6
CONTINUOUS
  62
8
  10
 67.388792057118
  20
 188.57974155174
  30
0.0
  11
 67.036138095701
  21
 186.57974155174
  31
0.0
  12
 67.741446018535
  22
 186.57974155174
  32
0.0
  13
 67.741446018535
  23
 186.57974155174
  33
0.0
   0
MTEXT
   5
F1
 100
AcDbEntity
   8
LEVEL001
 370
15
  62
8
 100
AcDbMText
  10
 66.388792057118
  20
 132.57974155174
  30
0.0
  40
 2.5000000000000
  41
0.0
  71
8
  72
1
   1
\A1;112
   7
GMM002
  11
0.0
  21
 1.0000000000000
  31
0.0
   0
ENDBLK
   5
F2
 100
AcDbEntity
   8
0
 100
AcDbBlockEnd
   0
BLOCK
   5
F3
 100
AcDbEntity
   8
0
 100
AcDbBlockBegin
   2
*D8
  70
65
  10
0.0
  20
0.0
  30
0.0
   3
*D8
   0
LINE
   5
F4
 100
AcDbEntity
   8
LEVEL001
 370
15
 100
AcDbLine
   6
CONTINUOUS
  62
8
  10
 99.984610560501
  20
 79.579741551467
  30
0.0
  11
 99.984610560501
  21
 62.579741551742
  31
0.0
   0
LINE
   5
F5
 100
AcDbEntity
   8
LEVEL001
 370
15
 100
AcDbLine
   6
CONTINUOUS
  62
8
  10
 99.984610560501
  20
 63.579741551742
  30
0.0
  11
 110.98461056035
  21
 63.579741551742
  31
0.0
   0
LINE
   5
F6
 100
AcDbEntity
   8
LEVEL001
 370
15
 100
AcDbLine
   6
CONTINUOUS
  62
8
  10
 121.98461056021
  20
 63.579741551742
  30
0.0
  11
 110.98461056035
  21
 63.579741551742
  31
0.0
   0
SOLID
   5
F7
 100
AcDbEntity
   8
LEVEL001
 100
AcDbTrace
   6
CONTINUOUS
  62
8
  10
 99.984610560501
  20
 63.579741551742
  30
0.0
  11
 101.98461056050
  21
 63.227087590325
  31
0.0
  12
 101.98461056050
  22
 63.932395513159
  32
0.0
  13
 101.98461056050
  23
 63.932395513159
  33
0.0
   0
SOLID
   5
F8
 100
AcDbEntity
   8
LEVEL001
 100
AcDbTrace
   6
CONTINUOUS
  62
8
  10
 121.98461056021
  20
 63.579741551742
  30
0.0
  11
 119.98461056021
  21
 63.932395513159
  31
0.0
  12
 119.98461056021
  22
 63.227087590325
  32
0.0
  13
 119.98461056021
  23
 63.227087590325
  33
0.0
   0
MTEXT
   5
F9
 100
AcDbEntity
   8
LEVEL001
 370
15
  62
8
 100
AcDbMText
  10
 110.98461056035
  20
 64.579741551742
  30
0.0
  40
 2.5000000000000
  41
0.0
  71
8
  72
1
   1
\A1;22
   7
GMM002
   0
ENDBLK
   5
FA
 100
AcDbEntity
   8
0
 100
AcDbBlockEnd
   0
BLOCK
   5
FB
 100
AcDbEntity
   8
0
 100
AcDbBlockBegin
   2
*D9
  70
65
  10
0.0
  20
0.0
  30
0.0
   3
*D9
   0
LINE
   5
FC
 100
AcDbEntity
   8
LEVEL001
 370
15
 100
AcDbLine
   6
CONTINUOUS
  62
8
  10
 121.98461056021
  20
 75.579741552042
  30
0.0
  11
 121.98461056021
  21
 62.579741551742
  31
0.0
   0
LINE
   5
FD
 100
AcDbEntity
   8
LEVEL001
 370
15
 100
AcDbLine
   6
CONTINUOUS
  62
8
  10
 121.98461056021
  20
 63.579741551742
  30
0.0
  11
 139.98461056021
  21
 63.579741551742
  31
0.0
   0
LINE
   5
FE
 100
AcDbEntity
   8
LEVEL001
 370
15
 100
AcDbLine
   6
CONTINUOUS
  62
8
  10
 157.98461056021
  20
 63.579741551742
  30
0.0
  11
 139.98461056021
  21
 63.579741551742
  31
0.0
   0
SOLID
   5
FF
 100
AcDbEntity
   8
LEVEL001
 100
AcDbTrace
   6
CONTINUOUS
  62
8
  10
 121.98461056021
  20
 63.579741551742
  30
0.0
  11
 123.98461056021
  21
 63.227087590325
  31
0.0
  12
 123.98461056021
  22
 63.932395513159
  32
0.0
  13
 123.98461056021
  23
 63.932395513159
  33
0.0
   0
SOLID
   5
100
 100
AcDbEntity
   8
LEVEL001
 100
AcDbTrace
   6
CONTINUOUS
  62
8
  10
 157.98461056021
  20
 63.579741551742
  30
0.0
  11
 155.98461056021
  21
 63.932395513159
  31
0.0
  12
 155.98461056021
  22
 63.227087590325
  32
0.0
  13
 155.98461056021
  23
 63.227087590325
  33
0.0
   0
MTEXT
   5
101
 100
AcDbEntity
   8
LEVEL001
 370
15
  62
8
 100
AcDbMText
  10
 139.98461056021
  20
 64.579741551742
  30
0.0
  40
 2.5000000000000
  41
0.0
  71
8
  72
1
   1
\A1;36
   7
GMM002
   0
ENDBLK
   5
102
 100
AcDbEntity
   8
0
 100
AcDbBlockEnd
   0
BLOCK
   5
103
 100
AcDbEntity
   8
0
 100
AcDbBlockBegin
   2
*D10
  70
65
  10
0.0
  20
0.0
  30
0.0
   3
*D10
   0
LINE
   5
104
 100
AcDbEntity
   8
LEVEL001
 370
15
 100
AcDbLine
   6
CONTINUOUS
  62
8
  10
 157.98461056021
  20
 75.579741552042
  30
0.0
  11
 157.98461056021
  21
 62.579741551742
  31
0.0
   0
LINE
   5
105
 100
AcDbEntity
   8
LEVEL001
 370
15
 100
AcDbLine
   6
CONTINUOUS
  62
8
  10
 157.98461056021
  20
 63.579741551742
  30
0.0
  11
 175.98461056021
  21
 63.579741551742
  31
0.0
   0
LINE
   5
106
 100
AcDbEntity
   8
LEVEL001
 370
15
 100
AcDbLine
   6
CONTINUOUS
  62
8
  10
 193.98461056021
  20
 63.579741551742
  30
0.0
  11
 175.98461056021
  21
 63.579741551742
  31
0.0
   0
SOLID
   5
107
 100
AcDbEntity
   8
LEVEL001
 100
AcDbTrace
   6
CONTINUOUS
  62
8
  10
 157.98461056021
  20
 63.579741551742
  30
0.0
  11
 159.98461056021
  21
 63.227087590325
  31
0.0
  12
 159.98461056021
  22
 63.932395513159
  32
0.0
  13
 159.98461056021
  23
 63.932395513159
  33
0.0
   0
SOLID
   5
108
 100
AcDbEntity
   8
LEVEL001
 100
AcDbTrace
   6
CONTINUOUS
  62
8
  10
 193.98461056021
  20
 63.579741551742
  30
0.0
  11
 191.98461056021
  21
 63.932395513159
  31
0.0
  12
 191.98461056021
  22
 63.227087590325
  32
0.0
  13
 191.98461056021
  23
 63.227087590325
  33
0.0
   0
MTEXT
   5
109
 100
AcDbEntity
   8
LEVEL001
 370
15
  62
8
 100
AcDbMText
  10
 175.98461056021
  20
 64.579741551742
  30
0.0
  40
 2.5000000000000
  41
0.0
  71
8
  72
1
   1
\A1;36
   7
GMM002
   0
ENDBLK
   5
10A
 100
AcDbEntity
   8
0
 100
AcDbBlockEnd
   0
BLOCK
   5
10B
 100
AcDbEntity
   8
0
 100
AcDbBlockBegin
   2
*D11
  70
65
  10
0.0
  20
0.0
  30
0.0
   3
*D11
   0
LINE
   5
10C
 100
AcDbEntity
   8
LEVEL001
 370
15
 100
AcDbLine
   6
CONTINUOUS
  62
8
  10
 193.98461056021
  20
 75.579741552042
  30
0.0
  11
 193.98461056021
  21
 62.579741551742
  31
0.0
   0
LINE
   5
10D
 100
AcDbEntity
   8
LEVEL001
 370
15
 100
AcDbLine
   6
CONTINUOUS
  62
8
  10
 211.98461056021
  20
 75.579741551767
  30
0.0
  11
 211.98461056021
  21
 62.579741551742
  31
0.0
   0
LINE
   5
10E
 100
AcDbEntity
   8
LEVEL001
 370
15
 100
AcDbLine
   6
CONTINUOUS
  62
8
  10
 193.98461056021
  20
 63.579741551742
  30
0.0
  11
 202.98461056021
  21
 63.579741551742
  31
0.0
   0
LINE
   5
10F
 100
AcDbEntity
   8
LEVEL001
 370
15
 100
AcDbLine
   6
CONTINUOUS
  62
8
  10
 211.98461056021
  20
 63.579741551742
  30
0.0
  11
 202.98461056021
  21
 63.579741551742
  31
0.0
   0
SOLID
   5
110
 100
AcDbEntity
   8
LEVEL001
 100
AcDbTrace
   6
CONTINUOUS
  62
8
  10
 193.98461056021
  20
 63.579741551742
  30
0.0
  11
 195.98461056021
  21
 63.227087590325
  31
0.0
  12
 195.98461056021
  22
 63.932395513159
  32
0.0
  13
 195.98461056021
  23
 63.932395513159
  33
0.0
   0
SOLID
   5
111
 100
AcDbEntity
   8
LEVEL001
 100
AcDbTrace
   6
CONTINUOUS
  62
8
  10
 211.98461056021
  20
 63.579741551742
  30
0.0
  11
 209.98461056021
  21
 63.932395513159
  31
0.0
  12
 209.98461056021
  22
 63.227087590325
  32
0.0
  13
 209.98461056021
  23
 63.227087590325
  33
0.0
   0
MTEXT
   5
112
 100
AcDbEntity
   8
LEVEL001
 370
15
  62
8
 100
AcDbMText
  10
 202.98461056021
  20
 64.579741551742
  30
0.0
  40
 2.5000000000000
  41
0.0
  71
8
  72
1
   1
\A1;18
   7
GMM002
   0
ENDBLK
   5
113
 100
AcDbEntity
   8
0
 100
AcDbBlockEnd
   0
BLOCK
   5
114
 100
AcDbEntity
   8
0
 100
AcDbBlockBegin
   2
*D12
  70
65
  10
0.0
  20
0.0
  30
0.0
   3
*D12
   0
LINE
   5
115
 100
AcDbEntity
   8
LEVEL001
 370
15
 100
AcDbLine
   6
CONTINUOUS
  62
8
  10
 99.984610560501
  20
 62.579741551742
  30
0.0
  11
 99.984610560501
  21
 52.579741551742
  31
0.0
   0
LINE
   5
116
 100
AcDbEntity
   8
LEVEL001
 370
15
 100
AcDbLine
   6
CONTINUOUS
  62
8
  10
 211.98461056021
  20
 62.579741551742
  30
0.0
  11
 211.98461056021
  21
 52.579741551742
  31
0.0
   0
LINE
   5
117
 100
AcDbEntity
   8
LEVEL001
 370
15
 100
AcDbLine
   6
CONTINUOUS
  62
8
  10
 99.984610560501
  20
 53.579741551742
  30
0.0
  11
 155.98461056035
  21
 53.579741551742
  31
0.0
   0
LINE
   5
118
 100
AcDbEntity
   8
LEVEL001
 370
15
 100
AcDbLine
   6
CONTINUOUS
  62
8
  10
 211.98461056021
  20
 53.579741551742
  30
0.0
  11
 155.98461056035
  21
 53.579741551742
  31
0.0
   0
SOLID
   5
119
 100
AcDbEntity
   8
LEVEL001
 100
AcDbTrace
   6
CONTINUOUS
  62
8
  10
 99.984610560501
  20
 53.579741551742
  30
0.0
  11
 101.98461056050
  21
 53.227087590325
  31
0.0
  12
 101.98461056050
  22
 53.932395513159
  32
0.0
  13
 101.98461056050
  23
 53.932395513159
  33
0.0
   0
SOLID
   5
11A
 100
AcDbEntity
   8
LEVEL001
 100
AcDbTrace
   6
CONTINUOUS
  62
8
  10
 211.98461056021
  20
 53.579741551742
  30
0.0
  11
 209.98461056021
  21
 53.932395513159
  31
0.0
  12
 209.98461056021
  22
 53.227087590325
  32
0.0
  13
 209.98461056021
  23
 53.227087590325
  33
0.0
   0
MTEXT
   5
11B
 100
AcDbEntity
   8
LEVEL001
 370
15
  62
8
 100
AcDbMText
  10
 155.98461056035
  20
 54.579741551742
  30
0.0
  40
 2.5000000000000
  41
0.0
  71
8
  72
1
   1
\A1;112
   7
GMM002
   0
ENDBLK
   5
11C
 100
AcDbEntity
   8
0
 100
AcDbBlockEnd
   0
BLOCK
   5
11D
 100
AcDbEntity
   8
0
 100
AcDbBlockBegin
   2
*D13
  70
65
  10
0.0
  20
0.0
  30
0.0
   3
*D13
   0
LINE
   5
11E
 100
AcDbEntity
   8
LEVEL001
 370
15
 100
AcDbLine
   6
CONTINUOUS
  62
8
  10
 238.15507740137
  20
 76.579741552042
  30
0.0
  11
 248.15507740137
  21
 76.579741552042
  31
0.0
   0
LINE
   5
11F
 100
AcDbEntity
   8
LEVEL001
 370
15
 100
AcDbLine
   6
CONTINUOUS
  62
8
  10
 238.15507740137
  20
 188.57974155174
  30
0.0
  11
 248.15507740137
  21
 188.57974155174
  31
0.0
   0
LINE
   5
120
 100
AcDbEntity
   8
LEVEL001
 370
15
 100
AcDbLine
   6
CONTINUOUS
  62
8
  10
 247.15507740137
  20
 76.579741552042
  30
0.0
  11
 247.15507740137
  21
 132.57974155189
  31
0.0
   0
LINE
   5
121
 100
AcDbEntity
   8
LEVEL001
 370
15
 100
AcDbLine
   6
CONTINUOUS
  62
8
  10
 247.15507740137
  20
 188.57974155174
  30
0.0
  11
 247.15507740137
  21
 132.57974155189
  31
0.0
   0
SOLID
   5
122
 100
AcDbEntity
   8
LEVEL001
 100
AcDbTrace
   6
CONTINUOUS
  62
8
  10
 247.15507740137
  20
 76.579741552042
  30
0.0
  11
 247.50773136278
  21
 78.579741552042
  31
0.0
  12
 246.80242343995
  22
 78.579741552042
  32
0.0
  13
 246.80242343995
  23
 78.579741552042
  33
0.0
   0
SOLID
   5
123
 100
AcDbEntity
   8
LEVEL001
 100
AcDbTrace
   6
CONTINUOUS
  62
8
  10
 247.15507740137
  20
 188.57974155174
  30
0.0
  11
 246.80242343995
  21
 186.57974155174
  31
0.0
  12
 247.50773136278
  22
 186.57974155174
  32
0.0
  13
 247.50773136278
  23
 186.57974155174
  33
0.0
   0
MTEXT
   5
124
 100
AcDbEntity
   8
LEVEL001
 370
15
  62
8
 100
AcDbMText
  10
 246.15507740137
  20
 132.57974155189
  30
0.0
  40
 2.5000000000000
  41
0.0
  71
8
  72
1
   1
\A1;112
   7
GMM002
  11
0.0
  21
 1.0000000000000
  31
0.0
   0
ENDBLK
   5
125
 100
AcDbEntity
   8
0
 100
AcDbBlockEnd
   0
BLOCK
   5
126
 100
AcDbEntity
   8
0
 100
AcDbBlockBegin
   2
*D14
  70
65
  10
0.0
  20
0.0
  30
0.0
   3
*D14
   0
LINE
   5
127
 100
AcDbEntity
   8
LEVEL001
 370
15
 100
AcDbLine
   6
CONTINUOUS
  62
8
  10
 118.48461056021
  20
 39.205656233510
  30
0.0
  11
 118.48461056021
  21
 44.792166792285
  31
0.0
   0
LINE
   5
128
 100
AcDbEntity
   8
LEVEL001
 370
15
 100
AcDbLine
   6
CONTINUOUS
  62
8
  10
 125.48461056021
  20
 39.134588421645
  30
0.0
  11
 125.48461056021
  21
 44.792166792285
  31
0.0
   0
LINE
   5
129
 100
AcDbEntity
   8
LEVEL001
 370
15
 100
AcDbLine
   6
CONTINUOUS
  62
8
  10
 118.48461056021
  20
 43.792166792285
  30
0.0
  11
 121.98461056021
  21
 43.792166792285
  31
0.0
   0
LINE
   5
12A
 100
AcDbEntity
   8
LEVEL001
 370
15
 100
AcDbLine
   6
CONTINUOUS
  62
8
  10
 125.48461056021
  20
 43.792166792285
  30
0.0
  11
 121.98461056021
  21
 43.792166792285
  31
0.0
   0
SOLID
   5
12B
 100
AcDbEntity
   8
LEVEL001
 100
AcDbTrace
   6
CONTINUOUS
  62
8
  10
 118.48461056021
  20
 43.792166792285
  30
0.0
  11
 120.48461056021
  21
 43.439512830868
  31
0.0
  12
 120.48461056021
  22
 44.144820753702
  32
0.0
  13
 120.48461056021
  23
 44.144820753702
  33
0.0
   0
SOLID
   5
12C
 100
AcDbEntity
   8
LEVEL001
 100
AcDbTrace
   6
CONTINUOUS
  62
8
  10
 125.48461056021
  20
 43.792166792285
  30
0.0
  11
 123.48461056021
  21
 44.144820753702
  31
0.0
  12
 123.48461056021
  22
 43.439512830868
  32
0.0
  13
 123.48461056021
  23
 43.439512830868
  33
0.0
   0
MTEXT
   5
12D
 100
AcDbEntity
   8
LEVEL001
 370
15
  62
8
 100
AcDbMText
  10
 121.98461056021
  20
 44.792166792285
  30
0.0
  40
 2.5000000000000
  41
0.0
  71
8
  72
1
   1
\A1;7
   7
GMM002
   0
ENDBLK
   5
12E
 100
AcDbEntity
   8
0
 100
AcDbBlockEnd
   0
BLOCK
   5
12F
 100
AcDbEntity
   8
0
 100
AcDbBlockBegin
   2
*D15
  70
65
  10
0.0
  20
0.0
  30
0.0
   3
*D15
   0
LINE
   5
130
 100
AcDbEntity
   8
LEVEL001
 370
15
 100
AcDbLine
   6
CONTINUOUS
  62
8
  10
 119.98461056021
  20
 35.610223444500
  30
0.0
  11
 109.83354266525
  21
 35.610223444500
  31
0.0
   0
LINE
   5
131
 100
AcDbEntity
   8
LEVEL001
 370
15
 100
AcDbLine
   6
CONTINUOUS
  62
8
  10
 113.48461056021
  20
 38.610223444500
  30
0.0
  11
 109.83354266525
  21
 38.610223444500
  31
0.0
   0
LINE
   5
132
 100
AcDbEntity
   8
LEVEL001
 370
15
 100
AcDbLine
   6
CONTINUOUS
  62
8
  10
 110.83354266525
  20
 33.110223444500
  30
0.0
  11
 110.83354266525
  21
 37.110223444500
  31
0.0
   0
LINE
   5
133
 100
AcDbEntity
   8
LEVEL001
 370
15
 100
AcDbLine
   6
CONTINUOUS
  62
8
  10
 110.83354266525
  20
 41.110223444500
  30
0.0
  11
 110.83354266525
  21
 37.110223444500
  31
0.0
   0
SOLID
   5
134
 100
AcDbEntity
   8
LEVEL001
 100
AcDbTrace
   6
CONTINUOUS
  62
8
  10
 110.83354266525
  20
 35.610223444500
  30
0.0
  11
 110.48088870383
  21
 33.610223444500
  31
0.0
  12
 111.18619662666
  22
 33.610223444500
  32
0.0
  13
 111.18619662666
  23
 33.610223444500
  33
0.0
   0
SOLID
   5
135
 100
AcDbEntity
   8
LEVEL001
 100
AcDbTrace
   6
CONTINUOUS
  62
8
  10
 110.83354266525
  20
 38.610223444500
  30
0.0
  11
 111.18619662666
  21
 40.610223444500
  31
0.0
  12
 110.48088870383
  22
 40.610223444500
  32
0.0
  13
 110.48088870383
  23
 40.610223444500
  33
0.0
   0
MTEXT
   5
136
 100
AcDbEntity
   8
LEVEL001
 370
15
  62
8
 100
AcDbMText
  10
 109.83354266525
  20
 37.110223444500
  30
0.0
  40
 2.5000000000000
  41
0.0
  71
8
  72
1
   1
\A1;3
   7
GMM002
  11
0.0
  21
 1.0000000000000
  31
0.0
   0
ENDBLK
   5
137
 100
AcDbEntity
   8
0
 100
AcDbBlockEnd
   0
ENDSEC
   0
SECTION
   2
ENTITIES
   0
LINE
   5
138
 100
AcDbEntity
   8
LEVEL002
 370
30
 100
AcDbLine
   6
CONTINUOUS
  62
7
  10
 344.15000000000
  20
 272.07500000000
  30
0.0
  11
 336.95000000000
  21
 272.07500000000
  31
0.0
   0
LINE
   5
139
 100
AcDbEntity
   8
LEVEL002
 370
30
 100
AcDbLine
   6
CONTINUOUS
  62
7
  10
 336.95000000000
  20
 272.07500000000
  30
0.0
  11
 336.95000000000
  21
 261.27500000000
  31
0.0
   0
LINE
   5
13A
 100
AcDbEntity
   8
LEVEL002
 370
30
 100
AcDbLine
   6
CONTINUOUS
  62
7
  10
 336.95000000000
  20
 261.27500000000
  30
0.0
  11
 340.55000000000
  21
 261.27500000000
  31
0.0
   0
LINE
   5
13B
 100
AcDbEntity
   8
LEVEL002
 370
30
 100
AcDbLine
   6
CONTINUOUS
  62
7
  10
 340.55000000000
  20
 261.27500000000
  30
0.0
  11
 340.55000000000
  21
 263.07500000000
  31
0.0
   0
LINE
   5
13C
 100
AcDbEntity
   8
LEVEL002
 370
30
 100
AcDbLine
   6
CONTINUOUS
  62
7
  10
 340.55000000000
  20
 263.07500000000
  30
0.0
  11
 344.15000000000
  21
 263.07500000000
  31
0.0
   0
ARC
   5
13D
 100
AcDbEntity
   8
LEVEL002
 370
30
   6
CONTINUOUS
  62
7
 100
AcDbCircle
  10
 344.15000000000
  20
 267.57500000000
  30
0.0
  40
 4.5000000000000
 100
AcDbArc
  50
 270.00000000000
  51
 90.000000000000
   0
LINE
   5
13E
 100
AcDbEntity
   8
LEVEL002
 370
30
 100
AcDbLine
   6
CONTINUOUS
  62
7
  10
 340.55000000000
  20
 266.67500000000
  30
0.0
  11
 344.15000000000
  21
 266.67500000000
  31
0.0
   0
ARC
   5
13F
 100
AcDbEntity
   8
LEVEL002
 370
30
   6
CONTINUOUS
  62
7
 100
AcDbCircle
  10
 344.15000000000
  20
 267.57500000000
  30
0.0
  40
 0.90000000000000
 100
AcDbArc
  50
 270.00000000000
  51
 90.000000000000
   0
LINE
   5
140
 100
AcDbEntity
   8
LEVEL002
 370
30
 100
AcDbLine
   6
CONTINUOUS
  62
7
  10
 344.15000000000
  20
 268.47500000000
  30
0.0
  11
 340.55000000000
  21
 268.47500000000
  31
0.0
   0
LINE
   5
141
 100
AcDbEntity
   8
LEVEL002
 370
30
 100
AcDbLine
   6
CONTINUOUS
  62
7
  10
 340.55000000000
  20
 268.47500000000
  30
0.0
  11
 340.55000000000
  21
 266.67500000000
  31
0.0
   0
LINE
   5
142
 100
AcDbEntity
   8
LEVEL002
 370
30
 100
AcDbLine
   6
CONTINUOUS
  62
7
  10
 345.95000000000
  20
 261.27500000000
  30
0.0
  11
 353.15000000000
  21
 272.07500000000
  31
0.0
   0
LINE
   5
143
 100
AcDbEntity
   8
LEVEL002
 370
30
 100
AcDbLine
   6
CONTINUOUS
  62
7
  10
 353.15000000000
  20
 272.07500000000
  30
0.0
  11
 362.15000000000
  21
 272.07500000000
  31
0.0
   0
LINE
   5
144
 100
AcDbEntity
   8
LEVEL002
 370
30
 100
AcDbLine
   6
CONTINUOUS
  62
7
  10
 362.15000000000
  20
 272.07500000000
  30
0.0
  11
 362.15000000000
  21
 264.87500000000
  31
0.0
   0
LINE
   5
145
 100
AcDbEntity
   8
LEVEL002
 370
30
 100
AcDbLine
   6
CONTINUOUS
  62
7
  10
 362.15000000000
  20
 264.87500000000
  30
0.0
  11
 367.55000000000
  21
 264.87500000000
  31
0.0
   0
LINE
   5
146
 100
AcDbEntity
   8
LEVEL002
 370
30
 100
AcDbLine
   6
CONTINUOUS
  62
7
  10
 367.55000000000
  20
 264.87500000000
  30
0.0
  11
 367.55000000000
  21
 268.47500000000
  31
0.0
   0
LINE
   5
147
 100
AcDbEntity
   8
LEVEL002
 370
30
 100
AcDbLine
   6
CONTINUOUS
  62
7
  10
 367.55000000000
  20
 268.47500000000
  30
0.0
  11
 363.95000000000
  21
 268.47500000000
  31
0.0
   0
LINE
   5
148
 100
AcDbEntity
   8
LEVEL002
 370
30
 100
AcDbLine
   6
CONTINUOUS
  62
7
  10
 363.95000000000
  20
 268.47500000000
  30
0.0
  11
 363.95000000000
  21
 272.07500000000
  31
0.0
   0
LINE
   5
149
 100
AcDbEntity
   8
LEVEL002
 370
30
 100
AcDbLine
   6
CONTINUOUS
  62
7
  10
 363.95000000000
  20
 272.07500000000
  30
0.0
  11
 385.55000000000
  21
 272.07500000000
  31
0.0
   0
LINE
   5
14A
 100
AcDbEntity
   8
LEVEL002
 370
30
 100
AcDbLine
   6
CONTINUOUS
  62
7
  10
 385.55000000000
  20
 272.07500000000
  30
0.0
  11
 385.55000000000
  21
 268.47500000000
  31
0.0
   0
LINE
   5
14B
 100
AcDbEntity
   8
LEVEL002
 370
30
 100
AcDbLine
   6
CONTINUOUS
  62
7
  10
 385.55000000000
  20
 268.47500000000
  30
0.0
  11
 378.35000000000
  21
 268.47500000000
  31
0.0
   0
LINE
   5
14C
 100
AcDbEntity
   8
LEVEL002
 370
30
 100
AcDbLine
   6
CONTINUOUS
  62
7
  10
 378.35000000000
  20
 268.47500000000
  30
0.0
  11
 378.35000000000
  21
 267.57500000000
  31
0.0
   0
LINE
   5
14D
 100
AcDbEntity
   8
LEVEL002
 370
30
 100
AcDbLine
   6
CONTINUOUS
  62
7
  10
 378.35000000000
  20
 267.57500000000
  30
0.0
  11
 384.65000000000
  21
 267.57500000000
  31
0.0
   0
LINE
   5
14E
 100
AcDbEntity
   8
LEVEL002
 370
30
 100
AcDbLine
   6
CONTINUOUS
  62
7
  10
 384.65000000000
  20
 267.57500000000
  30
0.0
  11
 384.65000000000
  21
 265.77500000000
  31
0.0
   0
LINE
   5
14F
 100
AcDbEntity
   8
LEVEL002
 370
30
 100
AcDbLine
   6
CONTINUOUS
  62
7
  10
 384.65000000000
  20
 265.77500000000
  30
0.0
  11
 378.35000000000
  21
 265.77500000000
  31
0.0
   0
LINE
   5
150
 100
AcDbEntity
   8
LEVEL002
 370
30
 100
AcDbLine
   6
CONTINUOUS
  62
7
  10
 378.35000000000
  20
 265.77500000000
  30
0.0
  11
 378.35000000000
  21
 264.87500000000
  31
0.0
   0
LINE
   5
151
 100
AcDbEntity
   8
LEVEL002
 370
30
 100
AcDbLine
   6
CONTINUOUS
  62
7
  10
 378.35000000000
  20
 264.87500000000
  30
0.0
  11
 385.55000000000
  21
 264.87500000000
  31
0.0
   0
LINE
   5
152
 100
AcDbEntity
   8
LEVEL002
 370
30
 100
AcDbLine
   6
CONTINUOUS
  62
7
  10
 385.55000000000
  20
 264.87500000000
  30
0.0
  11
 385.55000000000
  21
 261.27500000000
  31
0.0
   0
LINE
   5
153
 100
AcDbEntity
   8
LEVEL002
 370
30
 100
AcDbLine
   6
CONTINUOUS
  62
7
  10
 385.55000000000
  20
 261.27500000000
  30
0.0
  11
 374.75000000000
  21
 261.27500000000
  31
0.0
   0
LINE
   5
154
 100
AcDbEntity
   8
LEVEL002
 370
30
 100
AcDbLine
   6
CONTINUOUS
  62
7
  10
 374.75000000000
  20
 261.27500000000
  30
0.0
  11
 374.75000000000
  21
 268.47500000000
  31
0.0
   0
LINE
   5
155
 100
AcDbEntity
   8
LEVEL002
 370
30
 100
AcDbLine
   6
CONTINUOUS
  62
7
  10
 374.75000000000
  20
 268.47500000000
  30
0.0
  11
 371.15000000000
  21
 268.47500000000
  31
0.0
   0
LINE
   5
156
 100
AcDbEntity
   8
LEVEL002
 370
30
 100
AcDbLine
   6
CONTINUOUS
  62
7
  10
 371.15000000000
  20
 268.47500000000
  30
0.0
  11
 371.15000000000
  21
 261.27500000000
  31
0.0
   0
LINE
   5
157
 100
AcDbEntity
   8
LEVEL002
 370
30
 100
AcDbLine
   6
CONTINUOUS
  62
7
  10
 371.15000000000
  20
 261.27500000000
  30
0.0
  11
 358.55000000000
  21
 261.27500000000
  31
0.0
   0
LINE
   5
158
 100
AcDbEntity
   8
LEVEL002
 370
30
 100
AcDbLine
   6
CONTINUOUS
  62
7
  10
 358.55000000000
  20
 261.27500000000
  30
0.0
  11
 358.55000000000
  21
 272.07500000000
  31
0.0
   0
LINE
   5
159
 100
AcDbEntity
   8
LEVEL002
 370
30
 100
AcDbLine
   6
CONTINUOUS
  62
7
  10
 358.55000000000
  20
 272.07500000000
  30
0.0
  11
 351.35000000000
  21
 261.27500000000
  31
0.0
   0
LINE
   5
15A
 100
AcDbEntity
   8
LEVEL002
 370
30
 100
AcDbLine
   6
CONTINUOUS
  62
7
  10
 351.35000000000
  20
 261.27500000000
  30
0.0
  11
 345.95000000000
  21
 261.27500000000
  31
0.0
   0
LINE
   5
15B
 100
AcDbEntity
   8
LEVEL002
 370
30
 100
AcDbLine
   6
CONTINUOUS
  62
7
  10
 357.35000000000
  20
 268.11166923470
  30
0.0
  11
 352.79222051020
  21
 261.27500000000
  31
0.0
   0
LINE
   5
15C
 100
AcDbEntity
   8
LEVEL002
 370
30
 100
AcDbLine
   6
CONTINUOUS
  62
7
  10
 352.79222051020
  20
 261.27500000000
  30
0.0
  11
 357.35000000000
  21
 261.27500000000
  31
0.0
   0
LINE
   5
15D
 100
AcDbEntity
   8
LEVEL002
 370
30
 100
AcDbLine
   6
CONTINUOUS
  62
7
  10
 357.35000000000
  20
 261.27500000000
  30
0.0
  11
 357.35000000000
  21
 268.11166923470
  31
0.0
   0
ARC
   5
15E
 100
AcDbEntity
   8
LEVEL002
 370
30
   6
CONTINUOUS
  62
7
 100
AcDbCircle
  10
 390.95000000000
  20
 266.67500000000
  30
0.0
  40
 5.4000000000000
 100
AcDbArc
  50
 90.000000000000
  51
 270.00000000000
   0
ARC
   5
15F
 100
AcDbEntity
   8
LEVEL002
 370
30
   6
CONTINUOUS
  62
7
 100
AcDbCircle
  10
 390.95000000000
  20
 266.67500000000
  30
0.0
  40
 1.8000000000000
 100
AcDbArc
  50
 90.000000000000
  51
 270.00000000000
   0
LINE
   5
160
 100
AcDbEntity
   8
LEVEL002
 370
30
 100
AcDbLine
   6
CONTINUOUS
  62
7
  10
 390.95000000000
  20
 272.07500000000
  30
0.0
  11
 396.35000000000
  21
 272.07500000000
  31
0.0
   0
LINE
   5
161
 100
AcDbEntity
   8
LEVEL002
 370
30
 100
AcDbLine
   6
CONTINUOUS
  62
7
  10
 396.35000000000
  20
 272.07500000000
  30
0.0
  11
 396.35000000000
  21
 268.47500000000
  31
0.0
   0
LINE
   5
162
 100
AcDbEntity
   8
LEVEL002
 370
30
 100
AcDbLine
   6
CONTINUOUS
  62
7
  10
 396.35000000000
  20
 268.47500000000
  30
0.0
  11
 390.95000000000
  21
 268.47500000000
  31
0.0
   0
LINE
   5
163
 100
AcDbEntity
   8
LEVEL002
 370
30
 100
AcDbLine
   6
CONTINUOUS
  62
7
  10
 336.95000000000
  20
 272.07500000000
  30
0.0
  11
 336.95000000000
  21
 261.27500000000
  31
0.0
   0
LINE
   5
164
 100
AcDbEntity
   8
LEVEL002
 370
30
 100
AcDbLine
   6
CONTINUOUS
  62
7
  10
 336.95000000000
  20
 261.27500000000
  30
0.0
  11
 340.55000000000
  21
 261.27500000000
  31
0.0
   0
LINE
   5
165
 100
AcDbEntity
   8
LEVEL002
 370
30
 100
AcDbLine
   6
CONTINUOUS
  62
7
  10
 340.55000000000
  20
 261.27500000000
  30
0.0
  11
 340.55000000000
  21
 263.07500000000
  31
0.0
   0
LINE
   5
166
 100
AcDbEntity
   8
LEVEL002
 370
30
 100
AcDbLine
   6
CONTINUOUS
  62
7
  10
 340.55000000000
  20
 263.07500000000
  30
0.0
  11
 344.15000000000
  21
 263.07500000000
  31
0.0
   0
ARC
   5
167
 100
AcDbEntity
   8
LEVEL002
 370
30
   6
CONTINUOUS
  62
7
 100
AcDbCircle
  10
 344.15000000000
  20
 267.57500000000
  30
0.0
  40
 4.5000000000000
 100
AcDbArc
  50
 270.00000000000
  51
 90.000000000000
   0
LINE
   5
168
 100
AcDbEntity
   8
LEVEL002
 370
30
 100
AcDbLine
   6
CONTINUOUS
  62
7
  10
 344.15000000000
  20
 272.07500000000
  30
0.0
  11
 336.95000000000
  21
 272.07500000000
  31
0.0
   0
LINE
   5
169
 100
AcDbEntity
   8
LEVEL002
 370
30
 100
AcDbLine
   6
CONTINUOUS
  62
7
  10
 340.55000000000
  20
 268.47500000000
  30
0.0
  11
 340.55000000000
  21
 266.67500000000
  31
0.0
   0
LINE
   5
16A
 100
AcDbEntity
   8
LEVEL002
 370
30
 100
AcDbLine
   6
CONTINUOUS
  62
7
  10
 340.55000000000
  20
 266.67500000000
  30
0.0
  11
 344.15000000000
  21
 266.67500000000
  31
0.0
   0
ARC
   5
16B
 100
AcDbEntity
   8
LEVEL002
 370
30
   6
CONTINUOUS
  62
7
 100
AcDbCircle
  10
 344.15000000000
  20
 267.57500000000
  30
0.0
  40
 0.90000000000000
 100
AcDbArc
  50
 270.00000000000
  51
 90.000000000000
   0
LINE
   5
16C
 100
AcDbEntity
   8
LEVEL002
 370
30
 100
AcDbLine
   6
CONTINUOUS
  62
7
  10
 344.15000000000
  20
 268.47500000000
  30
0.0
  11
 340.55000000000
  21
 268.47500000000
  31
0.0
   0
LINE
   5
16D
 100
AcDbEntity
   8
LEVEL002
 370
30
 100
AcDbLine
   6
CONTINUOUS
  62
7
  10
 353.15000000000
  20
 272.07500000000
  30
0.0
  11
 345.95000000000
  21
 261.27500000000
  31
0.0
   0
LINE
   5
16E
 100
AcDbEntity
   8
LEVEL002
 370
30
 100
AcDbLine
   6
CONTINUOUS
  62
7
  10
 345.95000000000
  20
 261.27500000000
  30
0.0
  11
 351.35000000000
  21
 261.27500000000
  31
0.0
   0
LINE
   5
16F
 100
AcDbEntity
   8
LEVEL002
 370
30
 100
AcDbLine
   6
CONTINUOUS
  62
7
  10
 351.35000000000
  20
 261.27500000000
  30
0.0
  11
 358.55000000000
  21
 272.07500000000
  31
0.0
   0
LINE
   5
170
 100
AcDbEntity
   8
LEVEL002
 370
30
 100
AcDbLine
   6
CONTINUOUS
  62
7
  10
 358.55000000000
  20
 272.07500000000
  30
0.0
  11
 353.15000000000
  21
 272.07500000000
  31
0.0
   0
LINE
   5
171
 100
AcDbEntity
   8
LEVEL002
 370
30
 100
AcDbLine
   6
CONTINUOUS
  62
7
  10
 357.35000000000
  20
 261.27500000000
  30
0.0
  11
 357.35000000000
  21
 268.11166923470
  31
0.0
   0
LINE
   5
172
 100
AcDbEntity
   8
LEVEL002
 370
30
 100
AcDbLine
   6
CONTINUOUS
  62
7
  10
 357.35000000000
  20
 268.11166923470
  30
0.0
  11
 352.79222051020
  21
 261.27500000000
  31
0.0
   0
LINE
   5
173
 100
AcDbEntity
   8
LEVEL002
 370
30
 100
AcDbLine
   6
CONTINUOUS
  62
7
  10
 352.79222051020
  20
 261.27500000000
  30
0.0
  11
 357.35000000000
  21
 261.27500000000
  31
0.0
   0
LINE
   5
174
 100
AcDbEntity
   8
LEVEL002
 370
30
 100
AcDbLine
   6
CONTINUOUS
  62
7
  10
 358.55000000000
  20
 261.27500000000
  30
0.0
  11
 371.15000000000
  21
 261.27500000000
  31
0.0
   0
LINE
   5
175
 100
AcDbEntity
   8
LEVEL002
 370
30
 100
AcDbLine
   6
CONTINUOUS
  62
7
  10
 371.15000000000
  20
 261.27500000000
  30
0.0
  11
 371.15000000000
  21
 268.47500000000
  31
0.0
   0
LINE
   5
176
 100
AcDbEntity
   8
LEVEL002
 370
30
 100
AcDbLine
   6
CONTINUOUS
  62
7
  10
 371.15000000000
  20
 268.47500000000
  30
0.0
  11
 374.75000000000
  21
 268.47500000000
  31
0.0
   0
LINE
   5
177
 100
AcDbEntity
   8
LEVEL002
 370
30
 100
AcDbLine
   6
CONTINUOUS
  62
7
  10
 374.75000000000
  20
 268.47500000000
  30
0.0
  11
 374.75000000000
  21
 261.27500000000
  31
0.0
   0
LINE
   5
178
 100
AcDbEntity
   8
LEVEL002
 370
30
 100
AcDbLine
   6
CONTINUOUS
  62
7
  10
 374.75000000000
  20
 261.27500000000
  30
0.0
  11
 385.55000000000
  21
 261.27500000000
  31
0.0
   0
LINE
   5
179
 100
AcDbEntity
   8
LEVEL002
 370
30
 100
AcDbLine
   6
CONTINUOUS
  62
7
  10
 385.55000000000
  20
 261.27500000000
  30
0.0
  11
 385.55000000000
  21
 264.87500000000
  31
0.0
   0
LINE
   5
17A
 100
AcDbEntity
   8
LEVEL002
 370
30
 100
AcDbLine
   6
CONTINUOUS
  62
7
  10
 385.55000000000
  20
 264.87500000000
  30
0.0
  11
 378.35000000000
  21
 264.87500000000
  31
0.0
   0
LINE
   5
17B
 100
AcDbEntity
   8
LEVEL002
 370
30
 100
AcDbLine
   6
CONTINUOUS
  62
7
  10
 378.35000000000
  20
 264.87500000000
  30
0.0
  11
 378.35000000000
  21
 265.77500000000
  31
0.0
   0
LINE
   5
17C
 100
AcDbEntity
   8
LEVEL002
 370
30
 100
AcDbLine
   6
CONTINUOUS
  62
7
  10
 378.35000000000
  20
 265.77500000000
  30
0.0
  11
 384.65000000000
  21
 265.77500000000
  31
0.0
   0
LINE
   5
17D
 100
AcDbEntity
   8
LEVEL002
 370
30
 100
AcDbLine
   6
CONTINUOUS
  62
7
  10
 384.65000000000
  20
 265.77500000000
  30
0.0
  11
 384.65000000000
  21
 267.57500000000
  31
0.0
   0
LINE
   5
17E
 100
AcDbEntity
   8
LEVEL002
 370
30
 100
AcDbLine
   6
CONTINUOUS
  62
7
  10
 384.65000000000
  20
 267.57500000000
  30
0.0
  11
 378.35000000000
  21
 267.57500000000
  31
0.0
   0
LINE
   5
17F
 100
AcDbEntity
   8
LEVEL002
 370
30
 100
AcDbLine
   6
CONTINUOUS
  62
7
  10
 378.35000000000
  20
 267.57500000000
  30
0.0
  11
 378.35000000000
  21
 268.47500000000
  31
0.0
   0
LINE
   5
180
 100
AcDbEntity
   8
LEVEL002
 370
30
 100
AcDbLine
   6
CONTINUOUS
  62
7
  10
 378.35000000000
  20
 268.47500000000
  30
0.0
  11
 385.55000000000
  21
 268.47500000000
  31
0.0
   0
LINE
   5
181
 100
AcDbEntity
   8
LEVEL002
 370
30
 100
AcDbLine
   6
CONTINUOUS
  62
7
  10
 385.55000000000
  20
 268.47500000000
  30
0.0
  11
 385.55000000000
  21
 272.07500000000
  31
0.0
   0
LINE
   5
182
 100
AcDbEntity
   8
LEVEL002
 370
30
 100
AcDbLine
   6
CONTINUOUS
  62
7
  10
 385.55000000000
  20
 272.07500000000
  30
0.0
  11
 363.95000000000
  21
 272.07500000000
  31
0.0
   0
LINE
   5
183
 100
AcDbEntity
   8
LEVEL002
 370
30
 100
AcDbLine
   6
CONTINUOUS
  62
7
  10
 363.95000000000
  20
 272.07500000000
  30
0.0
  11
 363.95000000000
  21
 268.47500000000
  31
0.0
   0
LINE
   5
184
 100
AcDbEntity
   8
LEVEL002
 370
30
 100
AcDbLine
   6
CONTINUOUS
  62
7
  10
 363.95000000000
  20
 268.47500000000
  30
0.0
  11
 367.55000000000
  21
 268.47500000000
  31
0.0
   0
LINE
   5
185
 100
AcDbEntity
   8
LEVEL002
 370
30
 100
AcDbLine
   6
CONTINUOUS
  62
7
  10
 367.55000000000
  20
 268.47500000000
  30
0.0
  11
 367.55000000000
  21
 264.87500000000
  31
0.0
   0
LINE
   5
186
 100
AcDbEntity
   8
LEVEL002
 370
30
 100
AcDbLine
   6
CONTINUOUS
  62
7
  10
 367.55000000000
  20
 264.87500000000
  30
0.0
  11
 362.15000000000
  21
 264.87500000000
  31
0.0
   0
LINE
   5
187
 100
AcDbEntity
   8
LEVEL002
 370
30
 100
AcDbLine
   6
CONTINUOUS
  62
7
  10
 362.15000000000
  20
 264.87500000000
  30
0.0
  11
 362.15000000000
  21
 272.07500000000
  31
0.0
   0
LINE
   5
188
 100
AcDbEntity
   8
LEVEL002
 370
30
 100
AcDbLine
   6
CONTINUOUS
  62
7
  10
 362.15000000000
  20
 272.07500000000
  30
0.0
  11
 358.55000000000
  21
 272.07500000000
  31
0.0
   0
LINE
   5
189
 100
AcDbEntity
   8
LEVEL002
 370
30
 100
AcDbLine
   6
CONTINUOUS
  62
7
  10
 358.55000000000
  20
 272.07500000000
  30
0.0
  11
 358.55000000000
  21
 261.27500000000
  31
0.0
   0
LINE
   5
18A
 100
AcDbEntity
   8
LEVEL002
 370
30
 100
AcDbLine
   6
CONTINUOUS
  62
7
  10
 390.95000000000
  20
 261.27500000000
  30
0.0
  11
 396.35000000000
  21
 261.27500000000
  31
0.0
   0
LINE
   5
18B
 100
AcDbEntity
   8
LEVEL002
 370
30
 100
AcDbLine
   6
CONTINUOUS
  62
7
  10
 396.35000000000
  20
 261.27500000000
  30
0.0
  11
 396.35000000000
  21
 264.87500000000
  31
0.0
   0
LINE
   5
18C
 100
AcDbEntity
   8
LEVEL002
 370
30
 100
AcDbLine
   6
CONTINUOUS
  62
7
  10
 396.35000000000
  20
 264.87500000000
  30
0.0
  11
 390.95000000000
  21
 264.87500000000
  31
0.0
   0
ARC
   5
18D
 100
AcDbEntity
   8
LEVEL002
 370
30
   6
CONTINUOUS
  62
7
 100
AcDbCircle
  10
 390.95000000000
  20
 266.67500000000
  30
0.0
  40
 1.8000000000000
 100
AcDbArc
  50
 90.000000000000
  51
 270.00000000000
   0
LINE
   5
18E
 100
AcDbEntity
   8
LEVEL002
 370
30
 100
AcDbLine
   6
CONTINUOUS
  62
7
  10
 390.95000000000
  20
 268.47500000000
  30
0.0
  11
 396.35000000000
  21
 268.47500000000
  31
0.0
   0
LINE
   5
18F
 100
AcDbEntity
   8
LEVEL002
 370
30
 100
AcDbLine
   6
CONTINUOUS
  62
7
  10
 396.35000000000
  20
 268.47500000000
  30
0.0
  11
 396.35000000000
  21
 272.07500000000
  31
0.0
   0
LINE
   5
190
 100
AcDbEntity
   8
LEVEL002
 370
30
 100
AcDbLine
   6
CONTINUOUS
  62
7
  10
 396.35000000000
  20
 272.07500000000
  30
0.0
  11
 390.95000000000
  21
 272.07500000000
  31
0.0
   0
ARC
   5
191
 100
AcDbEntity
   8
LEVEL002
 370
30
   6
CONTINUOUS
  62
7
 100
AcDbCircle
  10
 390.95000000000
  20
 266.67500000000
  30
0.0
  40
 5.4000000000000
 100
AcDbArc
  50
 90.000000000000
  51
 270.00000000000
   0
MTEXT
   5
193
 100
AcDbEntity
   8
LEVEL002
 370
30
  62
7
 100
AcDbMText
  10
 336.95000000000
  20
 273.87500000000
  30
0.0
  40
 3.7500000000000
  41
0.0
  71
7
  72
1
   1
\T1.000000;ケージーパルテック株式会社
   7
GMM001
  44
 0.79999984000003
   0
LINE
   5
194
 100
AcDbEntity
   8
LEVEL002
 370
30
 100
AcDbLine
   6
CONTINUOUS
  62
7
  10
 333.35000000000
  20
 263.67500000000
  30
0.0
  11
 328.85000000000
  21
 270.87500000000
  31
0.0
   0
LINE
   5
195
 100
AcDbEntity
   8
LEVEL002
 370
30
 100
AcDbLine
   6
CONTINUOUS
  62
7
  10
 328.85000000000
  20
 270.87500000000
  30
0.0
  11
 333.35000000000
  21
 270.87500000000
  31
0.0
   0
LINE
   5
196
 100
AcDbEntity
   8
LEVEL002
 370
30
 100
AcDbLine
   6
CONTINUOUS
  62
7
  10
 333.35000000000
  20
 270.87500000000
  30
0.0
  11
 333.35000000000
  21
 263.67500000000
  31
0.0
   0
LINE
   5
197
 100
AcDbEntity
   8
LEVEL002
 370
30
 100
AcDbLine
   6
CONTINUOUS
  62
7
  10
 328.85000000000
  20
 270.87500000000
  30
0.0
  11
 333.35000000000
  21
 263.67500000000
  31
0.0
   0
LINE
   5
198
 100
AcDbEntity
   8
LEVEL002
 370
30
 100
AcDbLine
   6
CONTINUOUS
  62
7
  10
 333.35000000000
  20
 263.67500000000
  30
0.0
  11
 333.35000000000
  21
 270.87500000000
  31
0.0
   0
LINE
   5
199
 100
AcDbEntity
   8
LEVEL002
 370
30
 100
AcDbLine
   6
CONTINUOUS
  62
7
  10
 333.35000000000
  20
 270.87500000000
  30
0.0
  11
 328.85000000000
  21
 270.87500000000
  31
0.0
   0
LINE
   5
19A
 100
AcDbEntity
   8
LEVEL002
 370
30
 100
AcDbLine
   6
CONTINUOUS
  62
7
  10
 319.05000000000
  20
 280.47500000000
  30
0.0
  11
 312.65000000000
  21
 270.87500000000
  31
0.0
   0
LINE
   5
19B
 100
AcDbEntity
   8
LEVEL002
 370
30
 100
AcDbLine
   6
CONTINUOUS
  62
7
  10
 312.65000000000
  20
 270.87500000000
  30
0.0
  11
 319.05000000000
  21
 261.27500000000
  31
0.0
   0
LINE
   5
19C
 100
AcDbEntity
   8
LEVEL002
 370
30
 100
AcDbLine
   6
CONTINUOUS
  62
7
  10
 324.45000000000
  20
 261.27500000000
  30
0.0
  11
 318.05000000000
  21
 270.87500000000
  31
0.0
   0
LINE
   5
19D
 100
AcDbEntity
   8
LEVEL002
 370
30
 100
AcDbLine
   6
CONTINUOUS
  62
7
  10
 318.05000000000
  20
 270.87500000000
  30
0.0
  11
 324.45000000000
  21
 280.47500000000
  31
0.0
   0
LINE
   5
19E
 100
AcDbEntity
   8
LEVEL002
 370
30
 100
AcDbLine
   6
CONTINUOUS
  62
7
  10
 327.15000000000
  20
 280.47500000000
  30
0.0
  11
 320.75000000000
  21
 270.87500000000
  31
0.0
   0
LINE
   5
19F
 100
AcDbEntity
   8
LEVEL002
 370
30
 100
AcDbLine
   6
CONTINUOUS
  62
7
  10
 320.75000000000
  20
 270.87500000000
  30
0.0
  11
 327.15000000000
  21
 261.27500000000
  31
0.0
   0
LINE
   5
1A0
 100
AcDbEntity
   8
LEVEL002
 370
30
 100
AcDbLine
   6
CONTINUOUS
  62
7
  10
 332.55000000000
  20
 261.27500000000
  30
0.0
  11
 326.15000000000
  21
 270.87500000000
  31
0.0
   0
LINE
   5
1A1
 100
AcDbEntity
   8
LEVEL002
 370
30
 100
AcDbLine
   6
CONTINUOUS
  62
7
  10
 326.15000000000
  20
 270.87500000000
  30
0.0
  11
 332.55000000000
  21
 280.47500000000
  31
0.0
   0
LINE
   5
1A2
 100
AcDbEntity
   8
LEVEL002
 370
30
 100
AcDbLine
   6
CONTINUOUS
  62
7
  10
 319.05000000000
  20
 261.27500000000
  30
0.0
  11
 312.65000000000
  21
 270.87500000000
  31
0.0
   0
LINE
   5
1A3
 100
AcDbEntity
   8
LEVEL002
 370
30
 100
AcDbLine
   6
CONTINUOUS
  62
7
  10
 312.65000000000
  20
 270.87500000000
  30
0.0
  11
 319.05000000000
  21
 280.47500000000
  31
0.0
   0
LINE
   5
1A4
 100
AcDbEntity
   8
LEVEL002
 370
30
 100
AcDbLine
   6
CONTINUOUS
  62
7
  10
 319.05000000000
  20
 280.47500000000
  30
0.0
  11
 324.45000000000
  21
 280.47500000000
  31
0.0
   0
LINE
   5
1A5
 100
AcDbEntity
   8
LEVEL002
 370
30
 100
AcDbLine
   6
CONTINUOUS
  62
7
  10
 324.45000000000
  20
 280.47500000000
  30
0.0
  11
 318.05000000000
  21
 270.87500000000
  31
0.0
   0
LINE
   5
1A6
 100
AcDbEntity
   8
LEVEL002
 370
30
 100
AcDbLine
   6
CONTINUOUS
  62
7
  10
 318.05000000000
  20
 270.87500000000
  30
0.0
  11
 324.45000000000
  21
 261.27500000000
  31
0.0
   0
LINE
   5
1A7
 100
AcDbEntity
   8
LEVEL002
 370
30
 100
AcDbLine
   6
CONTINUOUS
  62
7
  10
 324.45000000000
  20
 261.27500000000
  30
0.0
  11
 319.05000000000
  21
 261.27500000000
  31
0.0
   0
LINE
   5
1A8
 100
AcDbEntity
   8
LEVEL002
 370
30
 100
AcDbLine
   6
CONTINUOUS
  62
7
  10
 327.15000000000
  20
 261.27500000000
  30
0.0
  11
 320.75000000000
  21
 270.87500000000
  31
0.0
   0
LINE
   5
1A9
 100
AcDbEntity
   8
LEVEL002
 370
30
 100
AcDbLine
   6
CONTINUOUS
  62
7
  10
 320.75000000000
  20
 270.87500000000
  30
0.0
  11
 327.15000000000
  21
 280.47500000000
  31
0.0
   0
LINE
   5
1AA
 100
AcDbEntity
   8
LEVEL002
 370
30
 100
AcDbLine
   6
CONTINUOUS
  62
7
  10
 327.15000000000
  20
 280.47500000000
  30
0.0
  11
 332.55000000000
  21
 280.47500000000
  31
0.0
   0
LINE
   5
1AB
 100
AcDbEntity
   8
LEVEL002
 370
30
 100
AcDbLine
   6
CONTINUOUS
  62
7
  10
 332.55000000000
  20
 280.47500000000
  30
0.0
  11
 326.15000000000
  21
 270.87500000000
  31
0.0
   0
LINE
   5
1AC
 100
AcDbEntity
   8
LEVEL002
 370
30
 100
AcDbLine
   6
CONTINUOUS
  62
7
  10
 326.15000000000
  20
 270.87500000000
  30
0.0
  11
 332.55000000000
  21
 261.27500000000
  31
0.0
   0
LINE
   5
1AD
 100
AcDbEntity
   8
LEVEL002
 370
30
 100
AcDbLine
   6
CONTINUOUS
  62
7
  10
 332.55000000000
  20
 261.27500000000
  30
0.0
  11
 327.15000000000
  21
 261.27500000000
  31
0.0
   0
LINE
   5
1AE
 100
AcDbEntity
   8
LEVEL001
 370
30
 100
AcDbLine
   6
DOT
  62
7
  10
0.0
  20
0.0
  30
0.0
  11
 420.00000000000
  21
0.0
  31
0.0
   0
LINE
   5
1AF
 100
AcDbEntity
   8
LEVEL001
 370
30
 100
AcDbLine
   6
DOT
  62
7
  10
 420.00000000000
  20
0.0
  30
0.0
  11
 420.00000000000
  21
 297.00000000000
  31
0.0
   0
LINE
   5
1B0
 100
AcDbEntity
   8
LEVEL001
 370
30
 100
AcDbLine
   6
DOT
  62
7
  10
 420.00000000000
  20
 297.00000000000
  30
0.0
  11
0.0
  21
 297.00000000000
  31
0.0
   0
LINE
   5
1B1
 100
AcDbEntity
   8
LEVEL001
 370
30
 100
AcDbLine
   6
DOT
  62
7
  10
0.0
  20
 297.00000000000
  30
0.0
  11
0.0
  21
0.0
  31
0.0
   0
LINE
   5
1B2
 100
AcDbEntity
   8
LEVEL002
 370
40
 100
AcDbLine
   6
CONTINUOUS
  62
3
  10
 15.499999999950
  20
 275.00000000000
  30
0.0
  11
 304.49999999995
  21
 275.00000000000
  31
0.0
   0
LINE
   5
1B3
 100
AcDbEntity
   8
LEVEL002
 370
40
 100
AcDbLine
   6
CONTINUOUS
  62
3
  10
 304.49999999995
  20
 256.75000000000
  30
0.0
  11
 404.49999999995
  21
 256.75000000000
  31
0.0
   0
LINE
   5
1B4
 100
AcDbEntity
   8
LEVEL002
 370
40
 100
AcDbLine
   6
CONTINUOUS
  62
3
  10
 304.49999999995
  20
 236.75000000000
  30
0.0
  11
 404.49999999995
  21
 236.75000000000
  31
0.0
   0
LINE
   5
1B5
 100
AcDbEntity
   8
LEVEL002
 370
40
 100
AcDbLine
   6
CONTINUOUS
  62
3
  10
 304.49999999995
  20
 216.75000000000
  30
0.0
  11
 404.49999999995
  21
 216.75000000000
  31
0.0
   0
LINE
   5
1B6
 100
AcDbEntity
   8
LEVEL002
 370
40
 100
AcDbLine
   6
CONTINUOUS
  62
3
  10
 304.49999999995
  20
 72.000000000010
  30
0.0
  11
 404.49999999995
  21
 72.000000000010
  31
0.0
   0
LINE
   5
1B7
 100
AcDbEntity
   8
LEVEL002
 370
40
 100
AcDbLine
   6
CONTINUOUS
  62
3
  10
 304.49999999995
  20
 52.000000000010
  30
0.0
  11
 404.49999999995
  21
 52.000000000010
  31
0.0
   0
LINE
   5
1B8
 100
AcDbEntity
   8
LEVEL002
 370
40
 100
AcDbLine
   6
CONTINUOUS
  62
3
  10
 304.49999999995
  20
 32.000000000010
  30
0.0
  11
 404.49999999995
  21
 32.000000000010
  31
0.0
   0
LINE
   5
1B9
 100
AcDbEntity
   8
LEVEL002
 370
40
 100
AcDbLine
   6
CONTINUOUS
  62
3
  10
 354.49999999995
  20
 52.000000000010
  30
0.0
  11
 354.49999999995
  21
 12.000000000010
  31
0.0
   0
LINE
   5
1BA
 100
AcDbEntity
   8
LEVEL002
 370
40
 100
AcDbLine
   6
CONTINUOUS
  62
3
  10
 354.49999999995
  20
 38.666666666680
  30
0.0
  11
 404.49999999995
  21
 38.666666666680
  31
0.0
   0
LINE
   5
1BB
 100
AcDbEntity
   8
LEVEL002
 370
40
 100
AcDbLine
   6
CONTINUOUS
  62
3
  10
 354.49999999995
  20
 45.333333333345
  30
0.0
  11
 404.49999999995
  21
 45.333333333345
  31
0.0
   0
LINE
   5
1BC
 100
AcDbEntity
   8
LEVEL002
 370
50
 100
AcDbLine
   6
CONTINUOUS
  62
4
  10
 404.49999999995
  20
 285.00000000000
  30
0.0
  11
 15.499999999950
  21
 285.00000000000
  31
0.0
   0
LINE
   5
1BD
 100
AcDbEntity
   8
LEVEL002
 370
50
 100
AcDbLine
   6
CONTINUOUS
  62
4
  10
 304.49999999995
  20
 285.00000000000
  30
0.0
  11
 304.49999999995
  21
 12.000000000010
  31
0.0
   0
LINE
   5
1BE
 100
AcDbEntity
   8
LEVEL002
 370
50
 100
AcDbLine
   6
CONTINUOUS
  62
4
  10
 404.49999999995
  20
 12.000000000010
  30
0.0
  11
 404.49999999995
  21
 285.00000000000
  31
0.0
   0
LINE
   5
1BF
 100
AcDbEntity
   8
LEVEL002
 370
50
 100
AcDbLine
   6
CONTINUOUS
  62
4
  10
 15.499999999950
  20
 285.00000000000
  30
0.0
  11
 15.499999999950
  21
 12.000000000010
  31
0.0
   0
LINE
   5
1C0
 100
AcDbEntity
   8
LEVEL002
 370
50
 100
AcDbLine
   6
CONTINUOUS
  62
4
  10
 15.499999999950
  20
 12.000000000010
  30
0.0
  11
 404.49999999995
  21
 12.000000000010
  31
0.0
   0
HATCH
   5
1C1
 100
AcDbEntity
   8
LEVEL001
  62
1
 100
AcDbHatch
  10
0.0
  20
0.0
  30
0.0
 210
0.0
 220
0.0
 230
 1.0000000000000
   2
SOLID
  70
1
  71
1
  91
7
  92
1
  93
6
  72
1
  10
 324.45000000000
  20
 280.47500000000
  11
 318.05000000000
  21
 270.87500000000
  72
1
  10
 318.05000000000
  20
 270.87500000000
  11
 324.45000000000
  21
 261.27500000000
  72
1
  10
 324.45000000000
  20
 261.27500000000
  11
 319.05000000000
  21
 261.27500000000
  72
1
  10
 319.05000000000
  20
 261.27500000000
  11
 312.65000000000
  21
 270.87500000000
  72
1
  10
 312.65000000000
  20
 270.87500000000
  11
 319.05000000000
  21
 280.47500000000
  72
1
  10
 319.05000000000
  20
 280.47500000000
  11
 324.45000000000
  21
 280.47500000000
  97
1
 330

  92
16
  93
6
  72
1
  10
 327.15000000000
  20
 280.47500000000
  11
 332.55000000000
  21
 280.47500000000
  72
1
  10
 332.55000000000
  20
 280.47500000000
  11
 326.15000000000
  21
 270.87500000000
  72
1
  10
 326.15000000000
  20
 270.87500000000
  11
 332.55000000000
  21
 261.27500000000
  72
1
  10
 332.55000000000
  20
 261.27500000000
  11
 327.15000000000
  21
 261.27500000000
  72
1
  10
 327.15000000000
  20
 261.27500000000
  11
 320.75000000000
  21
 270.87500000000
  72
1
  10
 320.75000000000
  20
 270.87500000000
  11
 327.15000000000
  21
 280.47500000000
  97
1
 330

  92
16
  93
3
  72
1
  10
 333.35000000000
  20
 270.87500000000
  11
 328.85000000000
  21
 270.87500000000
  72
1
  10
 328.85000000000
  20
 270.87500000000
  11
 333.35000000000
  21
 263.67500000000
  72
1
  10
 333.35000000000
  20
 263.67500000000
  11
 333.35000000000
  21
 270.87500000000
  97
1
 330

  92
16
  93
6
  72
1
  10
 336.95000000000
  20
 272.07500000000
  11
 344.15000000000
  21
 272.07500000000
  72
2
  10
 344.15000000000
  20
 267.57500000000
  40
 4.5000000000000
  50
 270.00000000000
  51
 90.000000000000
  73
0
  72
1
  10
 344.15000000000
  20
 263.07500000000
  11
 340.55000000000
  21
 263.07500000000
  72
1
  10
 340.55000000000
  20
 263.07500000000
  11
 340.55000000000
  21
 261.27500000000
  72
1
  10
 340.55000000000
  20
 261.27500000000
  11
 336.95000000000
  21
 261.27500000000
  72
1
  10
 336.95000000000
  20
 261.27500000000
  11
 336.95000000000
  21
 272.07500000000
  97
1
 330

  92
16
  93
4
  72
1
  10
 344.15000000000
  20
 268.47500000000
  11
 340.55000000000
  21
 268.47500000000
  72
1
  10
 340.55000000000
  20
 268.47500000000
  11
 340.55000000000
  21
 266.67500000000
  72
1
  10
 340.55000000000
  20
 266.67500000000
  11
 344.15000000000
  21
 266.67500000000
  72
2
  10
 344.15000000000
  20
 267.57500000000
  40
 0.90000000000000
  50
 270.00000000000
  51
 90.000000000000
  73
1
  97
1
 330

  92
16
  93
4
  72
1
  10
 345.95000000000
  20
 261.27500000000
  11
 353.15000000000
  21
 272.07500000000
  72
1
  10
 353.15000000000
  20
 272.07500000000
  11
 358.55000000000
  21
 272.07500000000
  72
1
  10
 358.55000000000
  20
 272.07500000000
  11
 351.35000000000
  21
 261.27500000000
  72
1
  10
 351.35000000000
  20
 261.27500000000
  11
 345.95000000000
  21
 261.27500000000
  97
1
 330

  92
16
  93
3
  72
1
  10
 357.35000000000
  20
 268.11166923470
  11
 352.79222051020
  21
 261.27500000000
  72
1
  10
 352.79222051020
  20
 261.27500000000
  11
 357.35000000000
  21
 261.27500000000
  72
1
  10
 357.35000000000
  20
 261.27500000000
  11
 357.35000000000
  21
 268.11166923470
  97
1
 330

  75
0
  76
1
  98
1
  10
0.0
  20
0.0
   0
HATCH
   5
1C2
 100
AcDbEntity
   8
LEVEL001
  62
1
 100
AcDbHatch
  10
0.0
  20
0.0
  30
0.0
 210
0.0
 220
0.0
 230
 1.0000000000000
   2
SOLID
  70
1
  71
1
  91
1
  92
1
  93
22
  72
1
  10
 358.55000000000
  20
 272.07500000000
  11
 362.15000000000
  21
 272.07500000000
  72
1
  10
 362.15000000000
  20
 272.07500000000
  11
 362.15000000000
  21
 264.87500000000
  72
1
  10
 362.15000000000
  20
 264.87500000000
  11
 367.55000000000
  21
 264.87500000000
  72
1
  10
 367.55000000000
  20
 264.87500000000
  11
 367.55000000000
  21
 268.47500000000
  72
1
  10
 367.55000000000
  20
 268.47500000000
  11
 363.95000000000
  21
 268.47500000000
  72
1
  10
 363.95000000000
  20
 268.47500000000
  11
 363.95000000000
  21
 272.07500000000
  72
1
  10
 363.95000000000
  20
 272.07500000000
  11
 385.55000000000
  21
 272.07500000000
  72
1
  10
 385.55000000000
  20
 272.07500000000
  11
 385.55000000000
  21
 268.47500000000
  72
1
  10
 385.55000000000
  20
 268.47500000000
  11
 378.35000000000
  21
 268.47500000000
  72
1
  10
 378.35000000000
  20
 268.47500000000
  11
 378.35000000000
  21
 267.57500000000
  72
1
  10
 378.35000000000
  20
 267.57500000000
  11
 384.65000000000
  21
 267.57500000000
  72
1
  10
 384.65000000000
  20
 267.57500000000
  11
 384.65000000000
  21
 265.77500000000
  72
1
  10
 384.65000000000
  20
 265.77500000000
  11
 378.35000000000
  21
 265.77500000000
  72
1
  10
 378.35000000000
  20
 265.77500000000
  11
 378.35000000000
  21
 264.87500000000
  72
1
  10
 378.35000000000
  20
 264.87500000000
  11
 385.55000000000
  21
 264.87500000000
  72
1
  10
 385.55000000000
  20
 264.87500000000
  11
 385.55000000000
  21
 261.27500000000
  72
1
  10
 385.55000000000
  20
 261.27500000000
  11
 374.75000000000
  21
 261.27500000000
  72
1
  10
 374.75000000000
  20
 261.27500000000
  11
 374.75000000000
  21
 268.47500000000
  72
1
  10
 374.75000000000
  20
 268.47500000000
  11
 371.15000000000
  21
 268.47500000000
  72
1
  10
 371.15000000000
  20
 268.47500000000
  11
 371.15000000000
  21
 261.27500000000
  72
1
  10
 371.15000000000
  20
 261.27500000000
  11
 358.55000000000
  21
 261.27500000000
  72
1
  10
 358.55000000000
  20
 261.27500000000
  11
 358.55000000000
  21
 272.07500000000
  97
1
 330

  75
0
  76
1
  98
1
  10
0.0
  20
0.0
   0
HATCH
   5
1C3
 100
AcDbEntity
   8
LEVEL001
  62
1
 100
AcDbHatch
  10
0.0
  20
0.0
  30
0.0
 210
0.0
 220
0.0
 230
 1.0000000000000
   2
SOLID
  70
1
  71
1
  91
1
  92
1
  93
8
  72
1
  10
 396.35000000000
  20
 272.07500000000
  11
 390.95000000000
  21
 272.07500000000
  72
2
  10
 390.95000000000
  20
 266.67500000000
  40
 5.4000000000000
  50
 90.000000000000
  51
 270.00000000000
  73
1
  72
1
  10
 390.95000000000
  20
 261.27500000000
  11
 396.35000000000
  21
 261.27500000000
  72
1
  10
 396.35000000000
  20
 261.27500000000
  11
 396.35000000000
  21
 264.87500000000
  72
1
  10
 396.35000000000
  20
 264.87500000000
  11
 390.95000000000
  21
 264.87500000000
  72
2
  10
 390.95000000000
  20
 266.67500000000
  40
 1.8000000000000
  50
 90.000000000000
  51
 270.00000000000
  73
0
  72
1
  10
 390.95000000000
  20
 268.47500000000
  11
 396.35000000000
  21
 268.47500000000
  72
1
  10
 396.35000000000
  20
 268.47500000000
  11
 396.35000000000
  21
 272.07500000000
  97
1
 330

  75
0
  76
1
  98
1
  10
0.0
  20
0.0
   0
MTEXT
   5
1C5
 100
AcDbEntity
   8
LEVEL002
 370
15
  62
8
 100
AcDbMText
  10
 310.79999999995
  20
 28.250000000010
  30
0.0
  40
 3.0000000000000
  41
0.0
  71
5
  72
1
   1
\T1.000000;サイズ：
   7
GMM002
  44
 0.79999984000003
   0
MTEXT
   5
1C7
 100
AcDbEntity
   8
LEVEL002
 370
15
  62
8
 100
AcDbMText
  10
 309.29999999995
  20
 48.250000000010
  30
0.0
  40
 3.0000000000000
  41
0.0
  71
5
  72
1
   1
\T1.000000;縮尺：
   7
GMM002
  44
 0.79999984000003
   0
MTEXT
   5
1C9
 100
AcDbEntity
   8
LEVEL002
 370
15
  62
8
 100
AcDbMText
  10
 312.29999999995
  20
 68.250000000010
  30
0.0
  40
 3.0000000000000
  41
0.0
  71
5
  72
1
   1
\T1.000000;図面名称：
   7
GMM002
  44
 0.79999984000003
   0
MTEXT
   5
1CB
 100
AcDbEntity
   8
LEVEL002
 370
15
  62
8
 100
AcDbMText
  10
 363.79999999995
  20
 28.250000000010
  30
0.0
  40
 3.0000000000000
  41
0.0
  71
5
  72
1
   1
\T1.000000;ファイル名：
   7
GMM002
  44
 0.79999984000003
   0
MTEXT
   5
1CD
 100
AcDbEntity
   8
LEVEL002
 370
15
  62
8
 100
AcDbMText
  10
 362.29999999995
  20
 42.000000000010
  30
0.0
  40
 2.8000000000000
  41
0.0
  71
5
  72
1
   1
\T1.000000;変更日付：
   7
GMM003
  44
 0.79999984000003
   0
MTEXT
   5
1CF
 100
AcDbEntity
   8
LEVEL002
 370
15
  62
8
 100
AcDbMText
  10
 329.49999999995
  20
 18.250000000010
  30
0.0
  40
 3.7500000000000
  41
0.0
  71
5
  72
1
   1
\T1.000000;Ａ３
   7
GMM002
  44
 0.79999984000003
   0
MTEXT
   5
1D1
 100
AcDbEntity
   8
LEVEL002
 370
15
  62
8
 100
AcDbMText
  10
 309.29999999995
  20
 213.00000000000
  30
0.0
  40
 3.0000000000000
  41
0.0
  71
5
  72
1
   1
\T1.000000;仕様：
   7
GMM002
  44
 0.79999984000003
   0
MTEXT
   5
1D3
 100
AcDbEntity
   8
LEVEL002
 370
15
  62
8
 100
AcDbMText
  10
 309.29999999995
  20
 233.00000000000
  30
0.0
  40
 3.0000000000000
  41
0.0
  71
5
  72
1
   1
\T1.000000;形式：
   7
GMM002
  44
 0.79999984000003
   0
MTEXT
   5
1D5
 100
AcDbEntity
   8
LEVEL002
 370
15
  62
8
 100
AcDbMText
  10
 310.79999999995
  20
 253.00000000000
  30
0.0
  40
 3.0000000000000
  41
0.0
  71
5
  72
1
   1
\T1.000000;商品名：
   7
GMM002
  44
 0.79999984000003
   0
MTEXT
   5
1D7
 100
AcDbEntity
   8
LEVEL002
 370
15
  62
8
 100
AcDbMText
  10
 346.89999999995
  20
 76.870803459012
  30
0.0
  40
 4.0000000000000
  41
0.0
  71
5
  72
1
   1
\T1.000000;　※本製品は予告無しに変更する事があります。
   7
GMM002
  44
 0.79999984000003
   0
MTEXT
   5
1D9
 100
AcDbEntity
   8
LEVEL002
 370
15
  62
8
 100
AcDbMText
  10
 362.29999999995
  20
 48.666666666680
  30
0.0
  40
 2.8000000000000
  41
0.0
  71
5
  72
1
   1
\T1.000000;作成日付：
   7
GMM003
  44
 0.79999984000003
   0
MTEXT
   5
1DB
 100
AcDbEntity
   8
LEVEL002
 370
15
  62
8
 100
AcDbMText
  10
 387.21508456075
  20
 42.000000000010
  30
0.0
  40
 3.0000000000000
  41
0.0
  71
5
  72
1
   1
\T1.000000;令和　　年　　月　　日
   7
GMM002
  44
 0.79999984000003
   0
MTEXT
   5
1DD
 100
AcDbEntity
   8
LEVEL002
 370
15
  62
8
 100
AcDbMText
  10
 387.21508456075
  20
 35.333333333345
  30
0.0
  40
 3.0000000000000
  41
0.0
  71
5
  72
1
   1
\T1.000000;令和　　年　　月　　日
   7
GMM002
  44
 0.79999984000003
   0
MTEXT
   5
1DF
 100
AcDbEntity
   8
LEVEL002
 370
15
  62
8
 100
AcDbMText
  10
 334.49999999995
  20
 244.50000000000
  30
0.0
  40
 4.5000000000000
  41
0.0
  71
7
  72
1
   1
\T1.000000;　パルフラットレール
   7
GMM004
  44
 0.79999984000003
   0
MTEXT
   5
1E1
 100
AcDbEntity
   8
LEVEL002
 370
15
  62
8
 100
AcDbMText
  10
 354.49999999995
  20
 58.250000000010
  30
0.0
  40
 3.7500000000000
  41
0.0
  71
5
  72
1
   1
\T1.000000;断面図
   7
GMM002
  44
 0.79999984000003
   0
MTEXT
   5
1E3
 100
AcDbEntity
   8
LEVEL002
 370
15
  62
8
 100
AcDbMText
  10
 329.49999999995
  20
 38.250000000010
  30
0.0
  40
 3.7500000000000
  41
0.0
  71
5
  72
1
   1
\T1.000000;Ｓ＝１：１
   7
GMM002
  44
 0.79999984000003
   0
MTEXT
   5
1E5
 100
AcDbEntity
   8
LEVEL002
 370
15
  62
8
 100
AcDbMText
  10
 387.21508456075
  20
 48.666666666680
  30
0.0
  40
 3.0000000000000
  41
0.0
  71
5
  72
1
   1
\T1.000000;令和　４年　７月　６日
   7
GMM002
  44
 0.79999984000003
   0
MTEXT
   5
1E7
 100
AcDbEntity
   8
LEVEL001
 370
30
  62
7
 100
AcDbMText
  10
-91.312516292045
  20
 342.02773049041
  30
0.0
  40
 3.0000000000000
  41
0.0
  71
5
  72
1
   1
\W1.000000;\T0.916667;ＡＭＳ１７\W0.500000;\T0.833333;(\W1.000000;\T0.916667;Ｓ＝１／１\W0.500000;\T0.833333;)
   7
GMM002
  44
 0.79999984000003
   0
LINE
   5
1E8
 100
AcDbEntity
   8
LEVEL001
 370
30
 100
AcDbLine
   6
CONTINUOUS
  62
7
  10
-109.77805725333
  20
 339.64283050922
  30
0.0
  11
-72.846975330758
  21
 339.64283050922
  31
0.0
   0
MTEXT
   5
1EA
 100
AcDbEntity
   8
LEVEL002
 370
15
  62
8
 100
AcDbMText
  10
 354.49999999995
  20
 229.41666666667
  30
0.0
  40
 4.0000000000000
  41
0.0
  71
2
  72
1
   1
{\W1.000000;\T1.000000;アルミＶ溝レール（部品）}\P{\W0.500000;\T1.000000;(\W1.000000;\T1.000000;ＡＭＴ３６用コーナーパーツ\W0.500000;\T1.000000;)}
   7
GMM002
  44
 0.79999984000003
   0
MTEXT
   5
1EC
 100
AcDbEntity
   8
LEVEL002
 370
15
  62
8
 100
AcDbMText
  10
 319.49999999995
  20
 207.91666666670
  30
0.0
  40
 3.5000000000000
  41
0.0
  71
1
  72
1
   3
{\W1.000000;\T1.000000;材質：ＰＡ６}\P\P{\W1.000000;\T1.000000;　色：ＬＧ　ライトグレイ}\P{\W1.000000;\T1.000000;　　　ＵＢ　アーバンブラウン}\P\P{\W1.000000;\T1.000000;備考：ＡＭＴ３６のみ対応}\P{\W1.000000;\T1.000000;　　　ＳＵＳ皿木ネジ（３\W0.500
   1
000;\T1.000000;.\W1.000000;\T1.000000;１×１６×３本\W0.500000;\T1.000000;)}
   7
GMM002
  44
 0.79999984000003
   0
DIMENSION
   5
1ED
 100
AcDbEntity
   8
LEVEL001
 370
15
   6
CONTINUOUS
  62
8
 100
AcDbDimension
   2
*D1
  10
 138.20668560639
  20
 252.65067516533
  30
0.0
  11
 85.206685606387
  21
 252.65067516533
  31
0.0
  70
0
   3
GMM001
 100
AcDbAlignedDimension
  13
 32.206685606387
  23
 235.22580403461
  33
0.0
  14
 138.20668560639
  24
 235.22580403482
  34
0.0
 100
AcDbRotatedDimension
   0
DIMENSION
   5
1EE
 100
AcDbEntity
   8
LEVEL001
 370
15
   6
CONTINUOUS
  62
8
 100
AcDbDimension
   2
*D2
  10
 52.706685606387
  20
 242.65067516533
  30
0.0
  11
 43.819247385191
  21
 242.65067516533
  31
0.0
  70
128
   3
GMM002
 100
AcDbAlignedDimension
  13
 45.706685606388
  23
 237.40067516533
  33
0.0
  14
 52.706685606387
  24
 237.40067516533
  34
0.0
 100
AcDbRotatedDimension
   0
DIMENSION
   5
1EF
 100
AcDbEntity
   8
LEVEL001
 370
15
   6
CONTINUOUS
  62
8
 100
AcDbDimension
   2
*D3
  10
 85.206685606387
  20
 247.65067516533
  30
0.0
  11
 67.206685606387
  21
 247.65067516533
  31
0.0
  70
0
   3
GMM001
 100
AcDbAlignedDimension
  13
 49.206685606387
  23
 240.29973857912
  33
0.0
  14
 85.206685606387
  24
 240.79973857912
  34
0.0
 100
AcDbRotatedDimension
   0
DIMENSION
   5
1F0
 100
AcDbEntity
   8
LEVEL001
 370
15
   6
CONTINUOUS
  62
8
 100
AcDbDimension
   2
*D4
  10
 121.20668560639
  20
 247.65067516533
  30
0.0
  11
 103.20668560639
  21
 247.65067516533
  31
0.0
  70
0
   3
GMM001
 100
AcDbAlignedDimension
  13
 85.206685606387
  23
 240.79973857912
  33
0.0
  14
 121.20668560639
  24
 241.99860553818
  34
0.0
 100
AcDbRotatedDimension
   0
DIMENSION
   5
1F1
 100
AcDbEntity
   8
LEVEL001
 370
15
   6
CONTINUOUS
  62
8
 100
AcDbDimension
   2
*D5
  10
 144.07809841486
  20
 237.65067516542
  30
0.0
  11
 144.07809841486
  21
 240.36072692668
  31
0.0
  70
128
   3
GMM003
 100
AcDbAlignedDimension
  13
 138.00668560639
  23
 234.65067516533
  33
0.0
  14
 134.20668560639
  24
 237.65067516542
  34
0.0
  50
 90.000000000000
 100
AcDbRotatedDimension
   0
ARC
   5
1F2
 100
AcDbEntity
   8
LEVEL002
 370
30
   6
CONTINUOUS
  62
7
 100
AcDbCircle
  10
 138.00668560639
  20
 234.85067516533
  30
0.0
  40
 0.20000000000000
 100
AcDbArc
  50
 270.00000000000
  51
0.0
   0
ARC
   5
1F3
 100
AcDbEntity
   8
LEVEL002
 370
30
   6
CONTINUOUS
  62
7
 100
AcDbCircle
  10
 138.00668560639
  20
 235.22580403482
  30
0.0
  40
 0.20000000000000
 100
AcDbArc
  50
0.0
  51
 60.000000000010
   0
LINE
   5
1F4
 100
AcDbEntity
   8
LEVEL002
 370
30
 100
AcDbLine
   6
CONTINUOUS
  62
7
  10
 138.20668560639
  20
 235.22580403482
  30
0.0
  11
 138.20668560639
  21
 234.85067516533
  31
0.0
   0
ARC
   5
1F5
 100
AcDbEntity
   8
LEVEL002
 370
30
   6
CONTINUOUS
  62
7
 100
AcDbCircle
  10
 32.406685606387
  20
 235.22580403461
  30
0.0
  40
 0.20000000000000
 100
AcDbArc
  50
 119.99999999999
  51
 179.99999999998
   0
LINE
   5
1F6
 100
AcDbEntity
   8
LEVEL002
 370
30
 100
AcDbLine
   6
CONTINUOUS
  62
7
  10
 32.206685606387
  20
 235.22580403461
  30
0.0
  11
 32.206685606387
  21
 234.85067516533
  31
0.0
   0
ARC
   5
1F7
 100
AcDbEntity
   8
LEVEL002
 370
30
   6
CONTINUOUS
  62
7
 100
AcDbCircle
  10
 32.406685606387
  20
 234.85067516533
  30
0.0
  40
 0.20000000000000
 100
AcDbArc
  50
 180.00000000000
  51
 270.00000000000
   0
LINE
   5
1F8
 100
AcDbEntity
   8
LEVEL002
 370
30
 100
AcDbLine
   6
CONTINUOUS
  62
7
  10
 36.956685606387
  20
 235.05067516533
  30
0.0
  11
 36.956685606387
  21
 236.65067516533
  31
0.0
   0
LINE
   5
1F9
 100
AcDbEntity
   8
LEVEL002
 370
30
 100
AcDbLine
   6
CONTINUOUS
  62
7
  10
 36.956685606387
  20
 236.65067516533
  30
0.0
  11
 36.474634799147
  21
 236.65067516533
  31
0.0
   0
LINE
   5
1FA
 100
AcDbEntity
   8
LEVEL002
 370
30
 100
AcDbLine
   6
CONTINUOUS
  62
7
  10
 36.474634799147
  20
 236.65067516533
  30
0.0
  11
 33.010533184010
  21
 234.65067516533
  31
0.0
   0
LINE
   5
1FB
 100
AcDbEntity
   8
LEVEL002
 370
30
 100
AcDbLine
   6
CONTINUOUS
  62
7
  10
 33.010533184010
  20
 234.65067516533
  30
0.0
  11
 32.406685606387
  21
 234.65067516533
  31
0.0
   0
ARC
   5
1FC
 100
AcDbEntity
   8
LEVEL002
 370
30
   6
CONTINUOUS
  62
7
 100
AcDbCircle
  10
 37.356685606387
  20
 235.05067516533
  30
0.0
  40
 0.40000000000000
 100
AcDbArc
  50
 180.00000000003
  51
 270.00000000000
   0
LINE
   5
1FD
 100
AcDbEntity
   8
LEVEL002
 370
30
 100
AcDbLine
   6
CONTINUOUS
  62
7
  10
 37.556685606387
  20
 234.65067516533
  30
0.0
  11
 37.356685606387
  21
 234.65067516533
  31
0.0
   0
ARC
   5
1FE
 100
AcDbEntity
   8
LEVEL002
 370
30
   6
CONTINUOUS
  62
7
 100
AcDbCircle
  10
 37.556685606388
  20
 235.05067516533
  30
0.0
  40
 0.40000000000000
 100
AcDbArc
  50
 270.00000000000
  51
0.0
   0
LINE
   5
1FF
 100
AcDbEntity
   8
LEVEL002
 370
30
 100
AcDbLine
   6
CONTINUOUS
  62
7
  10
 43.956685606387
  20
 235.05067516533
  30
0.0
  11
 43.956685606387
  21
 236.65067516533
  31
0.0
   0
LINE
   5
200
 100
AcDbEntity
   8
LEVEL002
 370
30
 100
AcDbLine
   6
CONTINUOUS
  62
7
  10
 43.956685606387
  20
 236.65067516533
  30
0.0
  11
 41.256685606387
  21
 236.65067516533
  31
0.0
   0
LINE
   5
201
 100
AcDbEntity
   8
LEVEL002
 370
30
 100
AcDbLine
   6
CONTINUOUS
  62
7
  10
 41.256685606387
  20
 236.65067516533
  30
0.0
  11
 40.956685606387
  21
 236.95067516533
  31
0.0
   0
LINE
   5
202
 100
AcDbEntity
   8
LEVEL002
 370
30
 100
AcDbLine
   6
CONTINUOUS
  62
7
  10
 40.956685606387
  20
 236.95067516533
  30
0.0
  11
 40.656685606387
  21
 236.65067516533
  31
0.0
   0
LINE
   5
203
 100
AcDbEntity
   8
LEVEL002
 370
30
 100
AcDbLine
   6
CONTINUOUS
  62
7
  10
 40.656685606387
  20
 236.65067516533
  30
0.0
  11
 37.956685606387
  21
 236.65067516533
  31
0.0
   0
LINE
   5
204
 100
AcDbEntity
   8
LEVEL002
 370
30
 100
AcDbLine
   6
CONTINUOUS
  62
7
  10
 37.956685606387
  20
 236.65067516533
  30
0.0
  11
 37.956685606387
  21
 235.05067516533
  31
0.0
   0
ARC
   5
205
 100
AcDbEntity
   8
LEVEL002
 370
30
   6
CONTINUOUS
  62
7
 100
AcDbCircle
  10
 44.356685606387
  20
 235.05067516533
  30
0.0
  40
 0.40000000000000
 100
AcDbArc
  50
 180.00000000001
  51
 270.00000000000
   0
LINE
   5
206
 100
AcDbEntity
   8
LEVEL002
 370
30
 100
AcDbLine
   6
CONTINUOUS
  62
7
  10
 44.556685606387
  20
 234.65067516533
  30
0.0
  11
 44.356685606387
  21
 234.65067516533
  31
0.0
   0
ARC
   5
207
 100
AcDbEntity
   8
LEVEL002
 370
30
   6
CONTINUOUS
  62
7
 100
AcDbCircle
  10
 44.556685606388
  20
 235.05067516533
  30
0.0
  40
 0.40000000000000
 100
AcDbArc
  50
 270.00000000000
  51
0.0
   0
LINE
   5
208
 100
AcDbEntity
   8
LEVEL002
 370
30
 100
AcDbLine
   6
CONTINUOUS
  62
7
  10
 53.456685606387
  20
 235.05067516533
  30
0.0
  11
 53.456685606387
  21
 235.87364220394
  31
0.0
   0
LINE
   5
209
 100
AcDbEntity
   8
LEVEL002
 370
30
 100
AcDbLine
   6
CONTINUOUS
  62
7
  10
 53.456685606387
  20
 235.87364220394
  30
0.0
  11
 50.399268009857
  21
 234.65067516533
  31
0.0
   0
LINE
   5
20A
 100
AcDbEntity
   8
LEVEL002
 370
30
 100
AcDbLine
   6
CONTINUOUS
  62
7
  10
 50.399268009857
  20
 234.65067516533
  30
0.0
  11
 48.014103202797
  21
 234.65067516533
  31
0.0
   0
LINE
   5
20B
 100
AcDbEntity
   8
LEVEL002
 370
30
 100
AcDbLine
   6
CONTINUOUS
  62
7
  10
 48.014103202797
  20
 234.65067516533
  30
0.0
  11
 44.956685606387
  21
 235.87364220389
  31
0.0
   0
LINE
   5
20C
 100
AcDbEntity
   8
LEVEL002
 370
30
 100
AcDbLine
   6
CONTINUOUS
  62
7
  10
 44.956685606387
  20
 235.87364220389
  30
0.0
  11
 44.956685606387
  21
 235.05067516533
  31
0.0
   0
ARC
   5
20D
 100
AcDbEntity
   8
LEVEL002
 370
30
   6
CONTINUOUS
  62
7
 100
AcDbCircle
  10
 53.856685606387
  20
 235.05067516533
  30
0.0
  40
 0.40000000000000
 100
AcDbArc
  50
 180.00000000002
  51
 270.00000000000
   0
LINE
   5
20E
 100
AcDbEntity
   8
LEVEL002
 370
30
 100
AcDbLine
   6
CONTINUOUS
  62
7
  10
 54.056685606387
  20
 234.65067516533
  30
0.0
  11
 53.856685606387
  21
 234.65067516533
  31
0.0
   0
ARC
   5
20F
 100
AcDbEntity
   8
LEVEL002
 370
30
   6
CONTINUOUS
  62
7
 100
AcDbCircle
  10
 54.056685606387
  20
 235.05067516533
  30
0.0
  40
 0.40000000000000
 100
AcDbArc
  50
 270.00000000000
  51
0.0
   0
LINE
   5
210
 100
AcDbEntity
   8
LEVEL002
 370
30
 100
AcDbLine
   6
CONTINUOUS
  62
7
  10
 60.456685606387
  20
 235.05067516533
  30
0.0
  11
 60.456685606387
  21
 236.65067516533
  31
0.0
   0
LINE
   5
211
 100
AcDbEntity
   8
LEVEL002
 370
30
 100
AcDbLine
   6
CONTINUOUS
  62
7
  10
 60.456685606387
  20
 236.65067516533
  30
0.0
  11
 57.756685606387
  21
 236.65067516533
  31
0.0
   0
LINE
   5
212
 100
AcDbEntity
   8
LEVEL002
 370
30
 100
AcDbLine
   6
CONTINUOUS
  62
7
  10
 57.756685606387
  20
 236.65067516533
  30
0.0
  11
 57.456685606387
  21
 236.95067516533
  31
0.0
   0
LINE
   5
213
 100
AcDbEntity
   8
LEVEL002
 370
30
 100
AcDbLine
   6
CONTINUOUS
  62
7
  10
 57.456685606387
  20
 236.95067516533
  30
0.0
  11
 57.156685606387
  21
 236.65067516533
  31
0.0
   0
LINE
   5
214
 100
AcDbEntity
   8
LEVEL002
 370
30
 100
AcDbLine
   6
CONTINUOUS
  62
7
  10
 57.156685606387
  20
 236.65067516533
  30
0.0
  11
 54.456685606387
  21
 236.65067516533
  31
0.0
   0
LINE
   5
215
 100
AcDbEntity
   8
LEVEL002
 370
30
 100
AcDbLine
   6
CONTINUOUS
  62
7
  10
 54.456685606387
  20
 236.65067516533
  30
0.0
  11
 54.456685606387
  21
 235.05067516533
  31
0.0
   0
ARC
   5
216
 100
AcDbEntity
   8
LEVEL002
 370
30
   6
CONTINUOUS
  62
7
 100
AcDbCircle
  10
 60.856685606387
  20
 235.05067516533
  30
0.0
  40
 0.40000000000000
 100
AcDbArc
  50
 180.00000000000
  51
 270.00000000000
   0
LINE
   5
217
 100
AcDbEntity
   8
LEVEL002
 370
30
 100
AcDbLine
   6
CONTINUOUS
  62
7
  10
 61.056685606387
  20
 234.65067516533
  30
0.0
  11
 60.856685606387
  21
 234.65067516533
  31
0.0
   0
ARC
   5
218
 100
AcDbEntity
   8
LEVEL002
 370
30
   6
CONTINUOUS
  62
7
 100
AcDbCircle
  10
 61.056685606388
  20
 235.05067516533
  30
0.0
  40
 0.40000000000000
 100
AcDbArc
  50
 270.00000000000
  51
0.0
   0
LINE
   5
219
 100
AcDbEntity
   8
LEVEL002
 370
30
 100
AcDbLine
   6
CONTINUOUS
  62
7
  10
 79.956685606387
  20
 235.05067516533
  30
0.0
  11
 79.956685606387
  21
 236.65067516533
  31
0.0
   0
LINE
   5
21A
 100
AcDbEntity
   8
LEVEL002
 370
30
 100
AcDbLine
   6
CONTINUOUS
  62
7
  10
 79.956685606387
  20
 236.65067516533
  30
0.0
  11
 61.456685606387
  21
 236.65067516533
  31
0.0
   0
LINE
   5
21B
 100
AcDbEntity
   8
LEVEL002
 370
30
 100
AcDbLine
   6
CONTINUOUS
  62
7
  10
 61.456685606387
  20
 236.65067516533
  30
0.0
  11
 61.456685606387
  21
 235.05067516533
  31
0.0
   0
ARC
   5
21C
 100
AcDbEntity
   8
LEVEL002
 370
30
   6
CONTINUOUS
  62
7
 100
AcDbCircle
  10
 80.356685606387
  20
 235.05067516533
  30
0.0
  40
 0.40000000000000
 100
AcDbArc
  50
 180.00000000018
  51
 270.00000000000
   0
LINE
   5
21D
 100
AcDbEntity
   8
LEVEL002
 370
30
 100
AcDbLine
   6
CONTINUOUS
  62
7
  10
 80.556685606387
  20
 234.65067516533
  30
0.0
  11
 80.356685606387
  21
 234.65067516533
  31
0.0
   0
ARC
   5
21E
 100
AcDbEntity
   8
LEVEL002
 370
30
   6
CONTINUOUS
  62
7
 100
AcDbCircle
  10
 80.556685606388
  20
 235.05067516533
  30
0.0
  40
 0.40000000000000
 100
AcDbArc
  50
 270.00000000000
  51
0.0
   0
LINE
   5
21F
 100
AcDbEntity
   8
LEVEL002
 370
30
 100
AcDbLine
   6
CONTINUOUS
  62
7
  10
 89.456685606387
  20
 235.05067516533
  30
0.0
  11
 89.456685606387
  21
 235.87364220390
  31
0.0
   0
LINE
   5
220
 100
AcDbEntity
   8
LEVEL002
 370
30
 100
AcDbLine
   6
CONTINUOUS
  62
7
  10
 89.456685606387
  20
 235.87364220390
  30
0.0
  11
 86.399268009953
  21
 234.65067516533
  31
0.0
   0
LINE
   5
221
 100
AcDbEntity
   8
LEVEL002
 370
30
 100
AcDbLine
   6
CONTINUOUS
  62
7
  10
 86.399268009953
  20
 234.65067516533
  30
0.0
  11
 84.014103202894
  21
 234.65067516533
  31
0.0
   0
LINE
   5
222
 100
AcDbEntity
   8
LEVEL002
 370
30
 100
AcDbLine
   6
CONTINUOUS
  62
7
  10
 84.014103202894
  20
 234.65067516533
  30
0.0
  11
 80.956685606387
  21
 235.87364220393
  31
0.0
   0
LINE
   5
223
 100
AcDbEntity
   8
LEVEL002
 370
30
 100
AcDbLine
   6
CONTINUOUS
  62
7
  10
 80.956685606387
  20
 235.87364220393
  30
0.0
  11
 80.956685606387
  21
 235.05067516533
  31
0.0
   0
ARC
   5
224
 100
AcDbEntity
   8
LEVEL002
 370
30
   6
CONTINUOUS
  62
7
 100
AcDbCircle
  10
 89.856685606387
  20
 235.05067516533
  30
0.0
  40
 0.40000000000000
 100
AcDbArc
  50
 180.00000000013
  51
 270.00000000000
   0
LINE
   5
225
 100
AcDbEntity
   8
LEVEL002
 370
30
 100
AcDbLine
   6
CONTINUOUS
  62
7
  10
 90.056685606387
  20
 234.65067516533
  30
0.0
  11
 89.856685606387
  21
 234.65067516533
  31
0.0
   0
ARC
   5
226
 100
AcDbEntity
   8
LEVEL002
 370
30
   6
CONTINUOUS
  62
7
 100
AcDbCircle
  10
 90.056685606388
  20
 235.05067516533
  30
0.0
  40
 0.40000000000000
 100
AcDbArc
  50
 270.00000000000
  51
0.0
   0
LINE
   5
227
 100
AcDbEntity
   8
LEVEL002
 370
30
 100
AcDbLine
   6
CONTINUOUS
  62
7
  10
 108.95668560639
  20
 235.05067516533
  30
0.0
  11
 108.95668560639
  21
 236.65067516533
  31
0.0
   0
LINE
   5
228
 100
AcDbEntity
   8
LEVEL002
 370
30
 100
AcDbLine
   6
CONTINUOUS
  62
7
  10
 108.95668560639
  20
 236.65067516533
  30
0.0
  11
 90.456685606387
  21
 236.65067516533
  31
0.0
   0
LINE
   5
229
 100
AcDbEntity
   8
LEVEL002
 370
30
 100
AcDbLine
   6
CONTINUOUS
  62
7
  10
 90.456685606387
  20
 236.65067516533
  30
0.0
  11
 90.456685606387
  21
 235.05067516533
  31
0.0
   0
ARC
   5
22A
 100
AcDbEntity
   8
LEVEL002
 370
30
   6
CONTINUOUS
  62
7
 100
AcDbCircle
  10
 109.35668560639
  20
 235.05067516533
  30
0.0
  40
 0.40000000000000
 100
AcDbArc
  50
 180.00000000018
  51
 270.00000000000
   0
LINE
   5
22B
 100
AcDbEntity
   8
LEVEL002
 370
30
 100
AcDbLine
   6
CONTINUOUS
  62
7
  10
 109.55668560639
  20
 234.65067516533
  30
0.0
  11
 109.35668560639
  21
 234.65067516533
  31
0.0
   0
ARC
   5
22C
 100
AcDbEntity
   8
LEVEL002
 370
30
   6
CONTINUOUS
  62
7
 100
AcDbCircle
  10
 109.55668560639
  20
 235.05067516533
  30
0.0
  40
 0.40000000000000
 100
AcDbArc
  50
 270.00000000000
  51
0.0
   0
LINE
   5
22D
 100
AcDbEntity
   8
LEVEL002
 370
30
 100
AcDbLine
   6
CONTINUOUS
  62
7
  10
 115.95668560639
  20
 235.05067516533
  30
0.0
  11
 115.95668560639
  21
 236.65067516533
  31
0.0
   0
LINE
   5
22E
 100
AcDbEntity
   8
LEVEL002
 370
30
 100
AcDbLine
   6
CONTINUOUS
  62
7
  10
 115.95668560639
  20
 236.65067516533
  30
0.0
  11
 113.25668560639
  21
 236.65067516533
  31
0.0
   0
LINE
   5
22F
 100
AcDbEntity
   8
LEVEL002
 370
30
 100
AcDbLine
   6
CONTINUOUS
  62
7
  10
 113.25668560639
  20
 236.65067516533
  30
0.0
  11
 112.95668560639
  21
 236.95067516533
  31
0.0
   0
LINE
   5
230
 100
AcDbEntity
   8
LEVEL002
 370
30
 100
AcDbLine
   6
CONTINUOUS
  62
7
  10
 112.95668560639
  20
 236.95067516533
  30
0.0
  11
 112.65668560639
  21
 236.65067516533
  31
0.0
   0
LINE
   5
231
 100
AcDbEntity
   8
LEVEL002
 370
30
 100
AcDbLine
   6
CONTINUOUS
  62
7
  10
 112.65668560639
  20
 236.65067516533
  30
0.0
  11
 109.95668560639
  21
 236.65067516533
  31
0.0
   0
LINE
   5
232
 100
AcDbEntity
   8
LEVEL002
 370
30
 100
AcDbLine
   6
CONTINUOUS
  62
7
  10
 109.95668560639
  20
 236.65067516533
  30
0.0
  11
 109.95668560639
  21
 235.05067516533
  31
0.0
   0
ARC
   5
233
 100
AcDbEntity
   8
LEVEL002
 370
30
   6
CONTINUOUS
  62
7
 100
AcDbCircle
  10
 116.35668560639
  20
 235.05067516533
  30
0.0
  40
 0.40000000000000
 100
AcDbArc
  50
 180.00000000013
  51
 270.00000000000
   0
LINE
   5
234
 100
AcDbEntity
   8
LEVEL002
 370
30
 100
AcDbLine
   6
CONTINUOUS
  62
7
  10
 116.55668560639
  20
 234.65067516533
  30
0.0
  11
 116.35668560639
  21
 234.65067516533
  31
0.0
   0
ARC
   5
235
 100
AcDbEntity
   8
LEVEL002
 370
30
   6
CONTINUOUS
  62
7
 100
AcDbCircle
  10
 116.55668560639
  20
 235.05067516533
  30
0.0
  40
 0.40000000000000
 100
AcDbArc
  50
 270.00000000000
  51
0.0
   0
LINE
   5
236
 100
AcDbEntity
   8
LEVEL002
 370
30
 100
AcDbLine
   6
CONTINUOUS
  62
7
  10
 125.45668560639
  20
 235.05067516533
  30
0.0
  11
 125.45668560639
  21
 235.87364220393
  31
0.0
   0
LINE
   5
237
 100
AcDbEntity
   8
LEVEL002
 370
30
 100
AcDbLine
   6
CONTINUOUS
  62
7
  10
 125.45668560639
  20
 235.87364220393
  30
0.0
  11
 122.39926800989
  21
 234.65067516533
  31
0.0
   0
LINE
   5
238
 100
AcDbEntity
   8
LEVEL002
 370
30
 100
AcDbLine
   6
CONTINUOUS
  62
7
  10
 122.39926800989
  20
 234.65067516533
  30
0.0
  11
 120.01410320268
  21
 234.65067516533
  31
0.0
   0
LINE
   5
239
 100
AcDbEntity
   8
LEVEL002
 370
30
 100
AcDbLine
   6
CONTINUOUS
  62
7
  10
 120.01410320268
  20
 234.65067516533
  30
0.0
  11
 116.95668560639
  21
 235.87364220385
  31
0.0
   0
LINE
   5
23A
 100
AcDbEntity
   8
LEVEL002
 370
30
 100
AcDbLine
   6
CONTINUOUS
  62
7
  10
 116.95668560639
  20
 235.87364220385
  30
0.0
  11
 116.95668560639
  21
 235.05067516533
  31
0.0
   0
ARC
   5
23B
 100
AcDbEntity
   8
LEVEL002
 370
30
   6
CONTINUOUS
  62
7
 100
AcDbCircle
  10
 125.85668560639
  20
 235.05067516533
  30
0.0
  40
 0.40000000000000
 100
AcDbArc
  50
 180.00000000009
  51
 270.00000000000
   0
LINE
   5
23C
 100
AcDbEntity
   8
LEVEL002
 370
30
 100
AcDbLine
   6
CONTINUOUS
  62
7
  10
 126.05668560639
  20
 234.65067516533
  30
0.0
  11
 125.85668560639
  21
 234.65067516533
  31
0.0
   0
ARC
   5
23D
 100
AcDbEntity
   8
LEVEL002
 370
30
   6
CONTINUOUS
  62
7
 100
AcDbCircle
  10
 126.05668560639
  20
 235.05067516533
  30
0.0
  40
 0.40000000000000
 100
AcDbArc
  50
 270.00000000000
  51
0.0
   0
LINE
   5
23E
 100
AcDbEntity
   8
LEVEL002
 370
30
 100
AcDbLine
   6
CONTINUOUS
  62
7
  10
 132.45668560639
  20
 235.05067516533
  30
0.0
  11
 132.45668560639
  21
 236.65067516533
  31
0.0
   0
LINE
   5
23F
 100
AcDbEntity
   8
LEVEL002
 370
30
 100
AcDbLine
   6
CONTINUOUS
  62
7
  10
 132.45668560639
  20
 236.65067516533
  30
0.0
  11
 129.75668560639
  21
 236.65067516533
  31
0.0
   0
LINE
   5
240
 100
AcDbEntity
   8
LEVEL002
 370
30
 100
AcDbLine
   6
CONTINUOUS
  62
7
  10
 129.75668560639
  20
 236.65067516533
  30
0.0
  11
 129.45668560639
  21
 236.95067516533
  31
0.0
   0
LINE
   5
241
 100
AcDbEntity
   8
LEVEL002
 370
30
 100
AcDbLine
   6
CONTINUOUS
  62
7
  10
 129.45668560639
  20
 236.95067516533
  30
0.0
  11
 129.15668560639
  21
 236.65067516533
  31
0.0
   0
LINE
   5
242
 100
AcDbEntity
   8
LEVEL002
 370
30
 100
AcDbLine
   6
CONTINUOUS
  62
7
  10
 129.15668560639
  20
 236.65067516533
  30
0.0
  11
 126.45668560639
  21
 236.65067516533
  31
0.0
   0
LINE
   5
243
 100
AcDbEntity
   8
LEVEL002
 370
30
 100
AcDbLine
   6
CONTINUOUS
  62
7
  10
 126.45668560639
  20
 236.65067516533
  30
0.0
  11
 126.45668560639
  21
 235.05067516533
  31
0.0
   0
ARC
   5
244
 100
AcDbEntity
   8
LEVEL002
 370
30
   6
CONTINUOUS
  62
7
 100
AcDbCircle
  10
 132.85668560639
  20
 235.05067516533
  30
0.0
  40
 0.40000000000000
 100
AcDbArc
  50
 180.00000000003
  51
 270.00000000000
   0
LINE
   5
245
 100
AcDbEntity
   8
LEVEL002
 370
30
 100
AcDbLine
   6
CONTINUOUS
  62
7
  10
 138.00668560639
  20
 234.65067516533
  30
0.0
  11
 137.40283802936
  21
 234.65067516533
  31
0.0
   0
LINE
   5
246
 100
AcDbEntity
   8
LEVEL002
 370
30
 100
AcDbLine
   6
CONTINUOUS
  62
7
  10
 137.40283802936
  20
 234.65067516533
  30
0.0
  11
 133.93873641422
  21
 236.65067516533
  31
0.0
   0
LINE
   5
247
 100
AcDbEntity
   8
LEVEL002
 370
30
 100
AcDbLine
   6
CONTINUOUS
  62
7
  10
 133.93873641422
  20
 236.65067516533
  30
0.0
  11
 133.45668560639
  21
 236.65067516533
  31
0.0
   0
LINE
   5
248
 100
AcDbEntity
   8
LEVEL002
 370
30
 100
AcDbLine
   6
CONTINUOUS
  62
7
  10
 133.45668560639
  20
 236.65067516533
  30
0.0
  11
 133.45668560639
  21
 235.05067516533
  31
0.0
   0
LINE
   5
249
 100
AcDbEntity
   8
LEVEL002
 370
30
 100
AcDbLine
   6
CONTINUOUS
  62
7
  10
 133.05668560639
  20
 234.65067516533
  30
0.0
  11
 132.85668560639
  21
 234.65067516533
  31
0.0
   0
ARC
   5
24A
 100
AcDbEntity
   8
LEVEL002
 370
30
   6
CONTINUOUS
  62
7
 100
AcDbCircle
  10
 133.05668560639
  20
 235.05067516533
  30
0.0
  40
 0.40000000000000
 100
AcDbArc
  50
 270.00000000000
  51
0.0
   0
LINE
   5
24B
 100
AcDbEntity
   8
LEVEL002
 370
30
 100
AcDbLine
   6
CONTINUOUS
  62
7
  10
 138.10668560639
  20
 235.39900911558
  30
0.0
  11
 134.20668560639
  21
 237.65067516542
  31
0.0
   0
LINE
   5
24C
 100
AcDbEntity
   8
LEVEL002
 370
30
 100
AcDbLine
   6
CONTINUOUS
  62
7
  10
 134.20668560639
  20
 237.65067516542
  30
0.0
  11
 124.95668560639
  21
 237.65067516533
  31
0.0
   0
ARC
   5
24D
 100
AcDbEntity
   8
LEVEL002
 370
30
   6
CONTINUOUS
  62
7
 100
AcDbCircle
  10
 124.95668560639
  20
 237.40067516533
  30
0.0
  40
 0.25000000000000
 100
AcDbArc
  50
 90.000000000521
  51
 179.99999999983
   0
LINE
   5
24E
 100
AcDbEntity
   8
LEVEL002
 370
30
 100
AcDbLine
   6
CONTINUOUS
  62
7
  10
 124.70668560639
  20
 237.40067516533
  30
0.0
  11
 124.70668560639
  21
 236.65067516533
  31
0.0
   0
LINE
   5
24F
 100
AcDbEntity
   8
LEVEL002
 370
30
 100
AcDbLine
   6
CONTINUOUS
  62
7
  10
 124.70668560639
  20
 236.65067516533
  30
0.0
  11
 122.20668560639
  21
 235.65067516533
  31
0.0
   0
LINE
   5
250
 100
AcDbEntity
   8
LEVEL002
 370
30
 100
AcDbLine
   6
CONTINUOUS
  62
7
  10
 122.20668560639
  20
 235.65067516533
  30
0.0
  11
 120.20668560639
  21
 235.65067516533
  31
0.0
   0
LINE
   5
251
 100
AcDbEntity
   8
LEVEL002
 370
30
 100
AcDbLine
   6
CONTINUOUS
  62
7
  10
 120.20668560639
  20
 235.65067516533
  30
0.0
  11
 117.70668560639
  21
 236.65067516533
  31
0.0
   0
LINE
   5
252
 100
AcDbEntity
   8
LEVEL002
 370
30
 100
AcDbLine
   6
CONTINUOUS
  62
7
  10
 117.70668560639
  20
 236.65067516533
  30
0.0
  11
 117.70668560639
  21
 237.40067516533
  31
0.0
   0
ARC
   5
253
 100
AcDbEntity
   8
LEVEL002
 370
30
   6
CONTINUOUS
  62
7
 100
AcDbCircle
  10
 117.45668560639
  20
 237.40067516533
  30
0.0
  40
 0.25000000000000
 100
AcDbArc
  50
0.0
  51
 90.000000000456
   0
LINE
   5
254
 100
AcDbEntity
   8
LEVEL002
 370
30
 100
AcDbLine
   6
CONTINUOUS
  62
7
  10
 117.45668560639
  20
 237.65067516533
  30
0.0
  11
 88.956685606387
  21
 237.65067516533
  31
0.0
   0
ARC
   5
255
 100
AcDbEntity
   8
LEVEL002
 370
30
   6
CONTINUOUS
  62
7
 100
AcDbCircle
  10
 88.956685606387
  20
 237.40067516533
  30
0.0
  40
 0.25000000000000
 100
AcDbArc
  50
 90.000000000000
  51
 179.99999999982
   0
LINE
   5
256
 100
AcDbEntity
   8
LEVEL002
 370
30
 100
AcDbLine
   6
CONTINUOUS
  62
7
  10
 88.706685606387
  20
 237.40067516533
  30
0.0
  11
 88.706685606387
  21
 236.65067516533
  31
0.0
   0
LINE
   5
257
 100
AcDbEntity
   8
LEVEL002
 370
30
 100
AcDbLine
   6
CONTINUOUS
  62
7
  10
 88.706685606387
  20
 236.65067516533
  30
0.0
  11
 86.206685606387
  21
 235.65067516533
  31
0.0
   0
LINE
   5
258
 100
AcDbEntity
   8
LEVEL002
 370
30
 100
AcDbLine
   6
CONTINUOUS
  62
7
  10
 86.206685606387
  20
 235.65067516533
  30
0.0
  11
 84.206685606387
  21
 235.65067516533
  31
0.0
   0
LINE
   5
259
 100
AcDbEntity
   8
LEVEL002
 370
30
 100
AcDbLine
   6
CONTINUOUS
  62
7
  10
 84.206685606387
  20
 235.65067516533
  30
0.0
  11
 81.706685606387
  21
 236.65067516533
  31
0.0
   0
LINE
   5
25A
 100
AcDbEntity
   8
LEVEL002
 370
30
 100
AcDbLine
   6
CONTINUOUS
  62
7
  10
 81.706685606387
  20
 236.65067516533
  30
0.0
  11
 81.706685606387
  21
 237.40067516533
  31
0.0
   0
ARC
   5
25B
 100
AcDbEntity
   8
LEVEL002
 370
30
   6
CONTINUOUS
  62
7
 100
AcDbCircle
  10
 81.456685606388
  20
 237.40067516533
  30
0.0
  40
 0.25000000000000
 100
AcDbArc
  50
0.0
  51
 90.000000000033
   0
LINE
   5
25C
 100
AcDbEntity
   8
LEVEL002
 370
30
 100
AcDbLine
   6
CONTINUOUS
  62
7
  10
 81.456685606387
  20
 237.65067516533
  30
0.0
  11
 52.956685606387
  21
 237.65067516533
  31
0.0
   0
ARC
   5
25D
 100
AcDbEntity
   8
LEVEL002
 370
30
   6
CONTINUOUS
  62
7
 100
AcDbCircle
  10
 52.956685606387
  20
 237.40067516533
  30
0.0
  40
 0.25000000000000
 100
AcDbArc
  50
 90.000000000000
  51
 180.00000000013
   0
LINE
   5
25E
 100
AcDbEntity
   8
LEVEL002
 370
30
 100
AcDbLine
   6
CONTINUOUS
  62
7
  10
 52.706685606387
  20
 237.40067516533
  30
0.0
  11
 52.706685606387
  21
 236.65067516533
  31
0.0
   0
LINE
   5
25F
 100
AcDbEntity
   8
LEVEL002
 370
30
 100
AcDbLine
   6
CONTINUOUS
  62
7
  10
 52.706685606387
  20
 236.65067516533
  30
0.0
  11
 50.206685606387
  21
 235.65067516533
  31
0.0
   0
LINE
   5
260
 100
AcDbEntity
   8
LEVEL002
 370
30
 100
AcDbLine
   6
CONTINUOUS
  62
7
  10
 50.206685606387
  20
 235.65067516533
  30
0.0
  11
 48.206685606387
  21
 235.65067516533
  31
0.0
   0
LINE
   5
261
 100
AcDbEntity
   8
LEVEL002
 370
30
 100
AcDbLine
   6
CONTINUOUS
  62
7
  10
 48.206685606387
  20
 235.65067516533
  30
0.0
  11
 45.706685606387
  21
 236.65067516533
  31
0.0
   0
LINE
   5
262
 100
AcDbEntity
   8
LEVEL002
 370
30
 100
AcDbLine
   6
CONTINUOUS
  62
7
  10
 45.706685606387
  20
 236.65067516533
  30
0.0
  11
 45.706685606387
  21
 237.40067516533
  31
0.0
   0
LINE
   5
263
 100
AcDbEntity
   8
LEVEL002
 370
30
 100
AcDbLine
   6
CONTINUOUS
  62
7
  10
 45.456685606384
  20
 237.65067516533
  30
0.0
  11
 36.206685606387
  21
 237.65067516521
  31
0.0
   0
LINE
   5
264
 100
AcDbEntity
   8
LEVEL002
 370
30
 100
AcDbLine
   6
CONTINUOUS
  62
7
  10
 36.206685606387
  20
 237.65067516521
  30
0.0
  11
 32.306685606387
  21
 235.39900911537
  31
0.0
   0
ARC
   5
265
 100
AcDbEntity
   8
LEVEL002
 370
30
   6
CONTINUOUS
  62
7
 100
AcDbCircle
  10
 45.456685606388
  20
 237.40067516533
  30
0.0
  40
 0.25000000000000
 100
AcDbArc
  50
0.0
  51
 90.000000000749
   0
LINE
   5
266
 100
AcDbEntity
   8
LEVEL002
 370
15
 100
AcDbLine
   6
DASHDOT
  62
8
  10
 129.45668560639
  20
 240.29973857912
  30
0.0
  11
 129.45668560639
  21
 232.00161175163
  31
0.0
   0
LINE
   5
267
 100
AcDbEntity
   8
LEVEL002
 370
15
 100
AcDbLine
   6
DASHDOT
  62
8
  10
 112.95668560639
  20
 240.29973857912
  30
0.0
  11
 112.95668560639
  21
 232.00161175163
  31
0.0
   0
LINE
   5
268
 100
AcDbEntity
   8
LEVEL002
 370
15
 100
AcDbLine
   6
DASHDOT
  62
8
  10
 85.206685606387
  20
 240.29973857912
  30
0.0
  11
 85.206685606387
  21
 232.00161175163
  31
0.0
   0
LINE
   5
269
 100
AcDbEntity
   8
LEVEL002
 370
15
 100
AcDbLine
   6
DASHDOT
  62
8
  10
 57.456685606387
  20
 240.29973857912
  30
0.0
  11
 57.456685606387
  21
 232.00161175163
  31
0.0
   0
LINE
   5
26A
 100
AcDbEntity
   8
LEVEL002
 370
15
 100
AcDbLine
   6
DASHDOT
  62
8
  10
 49.206685606387
  20
 240.29973857912
  30
0.0
  11
 49.206685606387
  21
 232.00161175163
  31
0.0
   0
LINE
   5
26B
 100
AcDbEntity
   8
LEVEL002
 370
15
 100
AcDbLine
   6
DASHDOT
  62
8
  10
 40.956685606387
  20
 240.29973857912
  30
0.0
  11
 40.956685606387
  21
 232.00161175163
  31
0.0
   0
LINE
   5
26C
 100
AcDbEntity
   8
LEVEL002
 370
15
 100
AcDbLine
   6
DASHDOT
  62
8
  10
 121.20668560639
  20
 241.99860553818
  30
0.0
  11
 121.20668560639
  21
 232.00161175163
  31
0.0
   0
ARC
   5
26D
 100
AcDbEntity
   8
LEVEL003
 370
30
   6
CONTINUOUS
  62
7
 100
AcDbCircle
  10
 99.984610560210
  20
 76.579741551768
  30
0.0
  40
 4.0000000000001
 100
AcDbArc
  50
0.0
  51
 44.999999999989
   0
ARC
   5
26E
 100
AcDbEntity
   8
LEVEL003
 370
30
   6
CONTINUOUS
  62
7
 100
AcDbCircle
  10
 99.984610560211
  20
 76.579741551768
  30
0.0
  40
 8.7320508076045
 100
AcDbArc
  50
 0.93245219982639E-13
  51
 44.999999999996
   0
LINE
   5
26F
 100
AcDbEntity
   8
LEVEL003
 370
30
 100
AcDbLine
   6
CONTINUOUS
  62
7
  10
 207.25255975261
  20
 76.579741551767
  30
0.0
  11
 207.25255975261
  21
 168.57974155172
  31
0.0
   0
LINE
   5
270
 100
AcDbEntity
   8
LEVEL003
 370
30
 100
AcDbLine
   6
CONTINUOUS
  62
7
  10
 211.98461056021
  20
 76.579741551767
  30
0.0
  11
 211.98461056021
  21
 168.57974155172
  31
0.0
   0
ARC
   5
271
 100
AcDbEntity
   8
LEVEL003
 370
30
   6
CONTINUOUS
  62
7
 100
AcDbCircle
  10
 191.98461056021
  20
 168.57974155172
  30
0.0
  40
 20.000000000000
 100
AcDbArc
  50
0.0
  51
 44.999999999475
   0
ARC
   5
272
 100
AcDbEntity
   8
LEVEL003
 370
30
   6
CONTINUOUS
  62
7
 100
AcDbCircle
  10
 191.98461056021
  20
 168.57974155172
  30
0.0
  40
 15.267949192396
 100
AcDbArc
  50
0.0
  51
 44.999999999314
   0
ARC
   5
273
 100
AcDbEntity
   8
LEVEL003
 370
30
   6
CONTINUOUS
  62
7
 100
AcDbCircle
  10
 99.984610560500
  20
 76.579741551467
  30
0.0
  40
 4.0000000000001
 100
AcDbArc
  50
 44.999999999994
  51
 89.999999999991
   0
ARC
   5
274
 100
AcDbEntity
   8
LEVEL003
 370
30
   6
CONTINUOUS
  62
7
 100
AcDbCircle
  10
 99.984610560501
  20
 76.579741551467
  30
0.0
  40
 8.7320508076045
 100
AcDbArc
  50
 45.000000000000
  51
 90.000000000000
   0
LINE
   5
275
 100
AcDbEntity
   8
LEVEL003
 370
30
 100
AcDbLine
   6
CONTINUOUS
  62
7
  10
 99.984610560501
  20
 183.84769074386
  30
0.0
  11
 191.98461056047
  21
 183.84769074386
  31
0.0
   0
LINE
   5
276
 100
AcDbEntity
   8
LEVEL003
 370
30
 100
AcDbLine
   6
CONTINUOUS
  62
7
  10
 99.984610560511
  20
 188.57974155147
  30
0.0
  11
 191.98461056047
  21
 188.57974155146
  31
0.0
   0
ARC
   5
277
 100
AcDbEntity
   8
LEVEL003
 370
30
   6
CONTINUOUS
  62
7
 100
AcDbCircle
  10
 191.98461056047
  20
 168.57974155146
  30
0.0
  40
 20.000000000000
 100
AcDbArc
  50
 45.000000000523
  51
 90.000000000000
   0
ARC
   5
278
 100
AcDbEntity
   8
LEVEL003
 370
30
   6
CONTINUOUS
  62
7
 100
AcDbCircle
  10
 191.98461056047
  20
 168.57974155146
  30
0.0
  40
 15.267949192396
 100
AcDbArc
  50
 45.000000000684
  51
 89.999999999998
   0
ARC
   5
279
 100
AcDbEntity
   8
LEVEL003
 370
30
   6
CONTINUOUS
  62
7
 100
AcDbCircle
  10
 115.73461056021
  20
 74.079741551769
  30
0.0
  40
 0.50000000000000
 100
AcDbArc
  50
 270.00000000000
  51
0.0
   0
LINE
   5
27A
 100
AcDbEntity
   8
LEVEL003
 370
30
 100
AcDbLine
   6
CONTINUOUS
  62
7
  10
 112.23461056021
  20
 73.579741551807
  30
0.0
  11
 111.23461056021
  21
 75.311792359377
  31
0.0
   0
LINE
   5
27B
 100
AcDbEntity
   8
LEVEL003
 370
30
 100
AcDbLine
   6
CONTINUOUS
  62
7
  10
 111.23461056021
  20
 75.311792359377
  30
0.0
  11
 116.23461056021
  21
 75.311792359377
  31
0.0
   0
LINE
   5
27C
 100
AcDbEntity
   8
LEVEL003
 370
30
 100
AcDbLine
   6
CONTINUOUS
  62
7
  10
 116.23461056021
  20
 74.079741551767
  30
0.0
  11
 116.23461056021
  21
 76.579741551767
  31
0.0
   0
LINE
   5
27D
 100
AcDbEntity
   8
LEVEL003
 370
30
 100
AcDbLine
   6
CONTINUOUS
  62
7
  10
 111.23461056021
  20
 76.579741551767
  30
0.0
  11
 111.23461056021
  21
 75.311792359377
  31
0.0
   0
LINE
   5
27E
 100
AcDbEntity
   8
LEVEL003
 370
30
 100
AcDbLine
   6
CONTINUOUS
  62
7
  10
 115.73461056021
  20
 73.579741551767
  30
0.0
  11
 112.23461056024
  21
 73.579741551767
  31
0.0
   0
LINE
   5
27F
 100
AcDbEntity
   8
LEVEL003
 370
30
 100
AcDbLine
   6
CONTINUOUS
  62
7
  10
 132.73461056021
  20
 76.579741551767
  30
0.0
  11
 132.73461056021
  21
 75.311792359377
  31
0.0
   0
LINE
   5
280
 100
AcDbEntity
   8
LEVEL003
 370
30
 100
AcDbLine
   6
CONTINUOUS
  62
7
  10
 131.73461056021
  20
 73.579741551807
  30
0.0
  11
 132.73461056021
  21
 75.311792359377
  31
0.0
   0
ARC
   5
281
 100
AcDbEntity
   8
LEVEL003
 370
30
   6
CONTINUOUS
  62
7
 100
AcDbCircle
  10
 128.23461056022
  20
 74.079741551767
  30
0.0
  40
 0.50000000000000
 100
AcDbArc
  50
 180.00000000000
  51
 269.99999999957
   0
LINE
   5
282
 100
AcDbEntity
   8
LEVEL003
 370
30
 100
AcDbLine
   6
CONTINUOUS
  62
7
  10
 127.73461056021
  20
 74.079741551767
  30
0.0
  11
 127.73461056021
  21
 76.579741551767
  31
0.0
   0
LINE
   5
283
 100
AcDbEntity
   8
LEVEL003
 370
30
 100
AcDbLine
   6
CONTINUOUS
  62
7
  10
 131.73461056018
  20
 73.579741551767
  30
0.0
  11
 128.23461056021
  21
 73.579741551767
  31
0.0
   0
LINE
   5
284
 100
AcDbEntity
   8
LEVEL003
 370
30
 100
AcDbLine
   6
CONTINUOUS
  62
7
  10
 127.73461056021
  20
 75.311792359377
  30
0.0
  11
 132.73461056021
  21
 75.311792359377
  31
0.0
   0
ARC
   5
285
 100
AcDbEntity
   8
LEVEL003
 370
30
   6
CONTINUOUS
  62
7
 100
AcDbCircle
  10
 151.73461056021
  20
 74.079741551769
  30
0.0
  40
 0.50000000000000
 100
AcDbArc
  50
 270.00000000000
  51
0.0
   0
LINE
   5
286
 100
AcDbEntity
   8
LEVEL003
 370
30
 100
AcDbLine
   6
CONTINUOUS
  62
7
  10
 152.23461056021
  20
 74.079741551767
  30
0.0
  11
 152.23461056021
  21
 76.579741551767
  31
0.0
   0
ARC
   5
287
 100
AcDbEntity
   8
LEVEL003
 370
30
   6
CONTINUOUS
  62
7
 100
AcDbCircle
  10
 147.73461056022
  20
 74.079741551767
  30
0.0
  40
 0.50000000000000
 100
AcDbArc
  50
 180.00000000000
  51
 269.99999999957
   0
LINE
   5
288
 100
AcDbEntity
   8
LEVEL003
 370
30
 100
AcDbLine
   6
CONTINUOUS
  62
7
  10
 147.23461056021
  20
 74.079741551767
  30
0.0
  11
 147.23461056021
  21
 76.579741551767
  31
0.0
   0
LINE
   5
289
 100
AcDbEntity
   8
LEVEL003
 370
30
 100
AcDbLine
   6
CONTINUOUS
  62
7
  10
 147.73461056021
  20
 73.579741551767
  30
0.0
  11
 151.73461056021
  21
 73.579741551767
  31
0.0
   0
ARC
   5
28A
 100
AcDbEntity
   8
LEVEL003
 370
30
   6
CONTINUOUS
  62
7
 100
AcDbCircle
  10
 164.23461056022
  20
 74.079741551767
  30
0.0
  40
 0.50000000000000
 100
AcDbArc
  50
 180.00000000000
  51
 269.99999999957
   0
LINE
   5
28B
 100
AcDbEntity
   8
LEVEL003
 370
30
 100
AcDbLine
   6
CONTINUOUS
  62
7
  10
 163.73461056021
  20
 74.079741551767
  30
0.0
  11
 163.73461056021
  21
 76.579741551767
  31
0.0
   0
ARC
   5
28C
 100
AcDbEntity
   8
LEVEL003
 370
30
   6
CONTINUOUS
  62
7
 100
AcDbCircle
  10
 168.23461056021
  20
 74.079741551769
  30
0.0
  40
 0.50000000000000
 100
AcDbArc
  50
 270.00000000000
  51
0.0
   0
LINE
   5
28D
 100
AcDbEntity
   8
LEVEL003
 370
30
 100
AcDbLine
   6
CONTINUOUS
  62
7
  10
 168.73461056021
  20
 74.079741551767
  30
0.0
  11
 168.73461056021
  21
 76.579741551767
  31
0.0
   0
LINE
   5
28E
 100
AcDbEntity
   8
LEVEL003
 370
30
 100
AcDbLine
   6
CONTINUOUS
  62
7
  10
 168.23461056021
  20
 73.579741551767
  30
0.0
  11
 164.23461056021
  21
 73.579741551767
  31
0.0
   0
LINE
   5
28F
 100
AcDbEntity
   8
LEVEL003
 370
30
 100
AcDbLine
   6
CONTINUOUS
  62
7
  10
 184.23461056021
  20
 73.579741551807
  30
0.0
  11
 183.23461056021
  21
 75.311792359377
  31
0.0
   0
ARC
   5
290
 100
AcDbEntity
   8
LEVEL003
 370
30
   6
CONTINUOUS
  62
7
 100
AcDbCircle
  10
 187.73461056021
  20
 74.079741551769
  30
0.0
  40
 0.50000000000000
 100
AcDbArc
  50
 270.00000000000
  51
0.0
   0
LINE
   5
291
 100
AcDbEntity
   8
LEVEL003
 370
30
 100
AcDbLine
   6
CONTINUOUS
  62
7
  10
 188.23461056021
  20
 74.079741551767
  30
0.0
  11
 188.23461056021
  21
 76.579741551767
  31
0.0
   0
LINE
   5
292
 100
AcDbEntity
   8
LEVEL003
 370
30
 100
AcDbLine
   6
CONTINUOUS
  62
7
  10
 184.23461056024
  20
 73.579741551767
  30
0.0
  11
 187.73461056021
  21
 73.579741551767
  31
0.0
   0
LINE
   5
293
 100
AcDbEntity
   8
LEVEL003
 370
30
 100
AcDbLine
   6
CONTINUOUS
  62
7
  10
 188.23461056021
  20
 75.311792359377
  30
0.0
  11
 183.23461056021
  21
 75.311792359377
  31
0.0
   0
LINE
   5
294
 100
AcDbEntity
   8
LEVEL003
 370
30
 100
AcDbLine
   6
CONTINUOUS
  62
7
  10
 183.23461056021
  20
 76.579741551767
  30
0.0
  11
 183.23461056021
  21
 75.311792359377
  31
0.0
   0
ARC
   5
295
 100
AcDbEntity
   8
LEVEL003
 370
30
   6
CONTINUOUS
  62
7
 100
AcDbCircle
  10
 200.23461056022
  20
 74.079741551767
  30
0.0
  40
 0.50000000000000
 100
AcDbArc
  50
 180.00000000000
  51
 269.99999999957
   0
LINE
   5
296
 100
AcDbEntity
   8
LEVEL003
 370
30
 100
AcDbLine
   6
CONTINUOUS
  62
7
  10
 203.73461056021
  20
 73.579741551807
  30
0.0
  11
 204.73461056021
  21
 75.311792359377
  31
0.0
   0
LINE
   5
297
 100
AcDbEntity
   8
LEVEL003
 370
30
 100
AcDbLine
   6
CONTINUOUS
  62
7
  10
 199.73461056021
  20
 74.079741551767
  30
0.0
  11
 199.73461056021
  21
 76.579741551767
  31
0.0
   0
LINE
   5
298
 100
AcDbEntity
   8
LEVEL003
 370
30
 100
AcDbLine
   6
CONTINUOUS
  62
7
  10
 200.23461056021
  20
 73.579741551767
  30
0.0
  11
 203.73461056019
  21
 73.579741551767
  31
0.0
   0
LINE
   5
299
 100
AcDbEntity
   8
LEVEL003
 370
30
 100
AcDbLine
   6
CONTINUOUS
  62
7
  10
 204.73461056021
  20
 76.579741551767
  30
0.0
  11
 204.73461056021
  21
 75.311792359377
  31
0.0
   0
LINE
   5
29A
 100
AcDbEntity
   8
LEVEL003
 370
30
 100
AcDbLine
   6
CONTINUOUS
  62
7
  10
 204.73461056021
  20
 75.311792359377
  30
0.0
  11
 199.73461056021
  21
 75.311792359377
  31
0.0
   0
LINE
   5
29B
 100
AcDbEntity
   8
LEVEL003
 370
30
 100
AcDbLine
   6
CONTINUOUS
  62
7
  10
 99.984610560501
  20
 109.32974155136
  30
0.0
  11
 98.716661368121
  21
 109.32974155136
  31
0.0
   0
LINE
   5
29C
 100
AcDbEntity
   8
LEVEL003
 370
30
 100
AcDbLine
   6
CONTINUOUS
  62
7
  10
 96.984610560551
  20
 108.32974155136
  30
0.0
  11
 98.716661368121
  21
 109.32974155136
  31
0.0
   0
ARC
   5
29D
 100
AcDbEntity
   8
LEVEL003
 370
30
   6
CONTINUOUS
  62
7
 100
AcDbCircle
  10
 97.484610560502
  20
 104.82974155137
  30
0.0
  40
 0.50000000000000
 100
AcDbArc
  50
 180.00000000000
  51
 269.99999999984
   0
LINE
   5
29E
 100
AcDbEntity
   8
LEVEL003
 370
30
 100
AcDbLine
   6
CONTINUOUS
  62
7
  10
 97.484610560501
  20
 104.32974155137
  30
0.0
  11
 99.984610560501
  21
 104.32974155137
  31
0.0
   0
LINE
   5
29F
 100
AcDbEntity
   8
LEVEL003
 370
30
 100
AcDbLine
   6
CONTINUOUS
  62
7
  10
 96.984610560501
  20
 108.32974155134
  30
0.0
  11
 96.984610560501
  21
 104.82974155137
  31
0.0
   0
LINE
   5
2A0
 100
AcDbEntity
   8
LEVEL003
 370
30
 100
AcDbLine
   6
CONTINUOUS
  62
7
  10
 98.716661368121
  20
 104.32974155137
  30
0.0
  11
 98.716661368121
  21
 109.32974155136
  31
0.0
   0
ARC
   5
2A1
 100
AcDbEntity
   8
LEVEL003
 370
30
   6
CONTINUOUS
  62
7
 100
AcDbCircle
  10
 97.484610560501
  20
 128.32974155147
  30
0.0
  40
 0.50000000000000
 100
AcDbArc
  50
 90.000000000000
  51
 180.00000000056
   0
LINE
   5
2A2
 100
AcDbEntity
   8
LEVEL003
 370
30
 100
AcDbLine
   6
CONTINUOUS
  62
7
  10
 97.484610560501
  20
 128.82974155146
  30
0.0
  11
 99.984610560501
  21
 128.82974155146
  31
0.0
   0
ARC
   5
2A3
 100
AcDbEntity
   8
LEVEL003
 370
30
   6
CONTINUOUS
  62
7
 100
AcDbCircle
  10
 97.484610560504
  20
 124.32974155146
  30
0.0
  40
 0.50000000000000
 100
AcDbArc
  50
 180.00000000000
  51
 269.99999999964
   0
LINE
   5
2A4
 100
AcDbEntity
   8
LEVEL003
 370
30
 100
AcDbLine
   6
CONTINUOUS
  62
7
  10
 97.484610560501
  20
 123.82974155146
  30
0.0
  11
 99.984610560501
  21
 123.82974155146
  31
0.0
   0
LINE
   5
2A5
 100
AcDbEntity
   8
LEVEL003
 370
30
 100
AcDbLine
   6
CONTINUOUS
  62
7
  10
 96.984610560501
  20
 124.32974155146
  30
0.0
  11
 96.984610560501
  21
 128.32974155146
  31
0.0
   0
ARC
   5
2A6
 100
AcDbEntity
   8
LEVEL003
 370
30
   6
CONTINUOUS
  62
7
 100
AcDbCircle
  10
 97.484610560504
  20
 140.82974155146
  30
0.0
  40
 0.50000000000000
 100
AcDbArc
  50
 180.00000000000
  51
 269.99999999964
   0
LINE
   5
2A7
 100
AcDbEntity
   8
LEVEL003
 370
30
 100
AcDbLine
   6
CONTINUOUS
  62
7
  10
 97.484610560501
  20
 140.32974155146
  30
0.0
  11
 99.984610560501
  21
 140.32974155146
  31
0.0
   0
ARC
   5
2A8
 100
AcDbEntity
   8
LEVEL003
 370
30
   6
CONTINUOUS
  62
7
 100
AcDbCircle
  10
 97.484610560501
  20
 144.82974155147
  30
0.0
  40
 0.50000000000000
 100
AcDbArc
  50
 90.000000000000
  51
 180.00000000056
   0
LINE
   5
2A9
 100
AcDbEntity
   8
LEVEL003
 370
30
 100
AcDbLine
   6
CONTINUOUS
  62
7
  10
 97.484610560501
  20
 145.32974155146
  30
0.0
  11
 99.984610560501
  21
 145.32974155146
  31
0.0
   0
LINE
   5
2AA
 100
AcDbEntity
   8
LEVEL003
 370
30
 100
AcDbLine
   6
CONTINUOUS
  62
7
  10
 96.984610560501
  20
 144.82974155146
  30
0.0
  11
 96.984610560501
  21
 140.82974155146
  31
0.0
   0
LINE
   5
2AB
 100
AcDbEntity
   8
LEVEL003
 370
30
 100
AcDbLine
   6
CONTINUOUS
  62
7
  10
 96.984610560551
  20
 160.82974155146
  30
0.0
  11
 98.716661368121
  21
 159.82974155146
  31
0.0
   0
ARC
   5
2AC
 100
AcDbEntity
   8
LEVEL003
 370
30
   6
CONTINUOUS
  62
7
 100
AcDbCircle
  10
 97.484610560501
  20
 164.32974155147
  30
0.0
  40
 0.50000000000000
 100
AcDbArc
  50
 90.000000000000
  51
 180.00000000056
   0
LINE
   5
2AD
 100
AcDbEntity
   8
LEVEL003
 370
30
 100
AcDbLine
   6
CONTINUOUS
  62
7
  10
 97.484610560501
  20
 164.82974155146
  30
0.0
  11
 99.984610560501
  21
 164.82974155146
  31
0.0
   0
LINE
   5
2AE
 100
AcDbEntity
   8
LEVEL003
 370
30
 100
AcDbLine
   6
CONTINUOUS
  62
7
  10
 96.984610560501
  20
 160.82974155149
  30
0.0
  11
 96.984610560501
  21
 164.32974155146
  31
0.0
   0
LINE
   5
2AF
 100
AcDbEntity
   8
LEVEL003
 370
30
 100
AcDbLine
   6
CONTINUOUS
  62
7
  10
 98.716661368121
  20
 164.82974155146
  30
0.0
  11
 98.716661368121
  21
 159.82974155146
  31
0.0
   0
LINE
   5
2B0
 100
AcDbEntity
   8
LEVEL003
 370
30
 100
AcDbLine
   6
CONTINUOUS
  62
7
  10
 99.984610560501
  20
 159.82974155146
  30
0.0
  11
 98.716661368121
  21
 159.82974155146
  31
0.0
   0
ARC
   5
2B1
 100
AcDbEntity
   8
LEVEL003
 370
30
   6
CONTINUOUS
  62
7
 100
AcDbCircle
  10
 97.484610560504
  20
 176.82974155146
  30
0.0
  40
 0.50000000000000
 100
AcDbArc
  50
 180.00000000000
  51
 269.99999999964
   0
LINE
   5
2B2
 100
AcDbEntity
   8
LEVEL003
 370
30
 100
AcDbLine
   6
CONTINUOUS
  62
7
  10
 96.984610560551
  20
 180.32974155146
  30
0.0
  11
 98.716661368121
  21
 181.32974155146
  31
0.0
   0
LINE
   5
2B3
 100
AcDbEntity
   8
LEVEL003
 370
30
 100
AcDbLine
   6
CONTINUOUS
  62
7
  10
 97.484610560501
  20
 176.32974155146
  30
0.0
  11
 99.984610560501
  21
 176.32974155146
  31
0.0
   0
LINE
   5
2B4
 100
AcDbEntity
   8
LEVEL003
 370
30
 100
AcDbLine
   6
CONTINUOUS
  62
7
  10
 96.984610560501
  20
 176.82974155146
  30
0.0
  11
 96.984610560501
  21
 180.32974155143
  31
0.0
   0
LINE
   5
2B5
 100
AcDbEntity
   8
LEVEL003
 370
30
 100
AcDbLine
   6
CONTINUOUS
  62
7
  10
 99.984610560501
  20
 181.32974155146
  30
0.0
  11
 98.716661368121
  21
 181.32974155146
  31
0.0
   0
LINE
   5
2B6
 100
AcDbEntity
   8
LEVEL003
 370
30
 100
AcDbLine
   6
CONTINUOUS
  62
7
  10
 98.716661368121
  20
 181.32974155146
  30
0.0
  11
 98.716661368121
  21
 176.32974155146
  31
0.0
   0
ARC
   5
2B7
 100
AcDbEntity
   8
LEVEL003
 370
30
   6
CONTINUOUS
  62
7
 100
AcDbCircle
  10
 97.484610560501
  20
 92.329741551472
  30
0.0
  40
 0.50000000000000
 100
AcDbArc
  50
 90.000000000000
  51
 180.00000000056
   0
LINE
   5
2B8
 100
AcDbEntity
   8
LEVEL003
 370
30
 100
AcDbLine
   6
CONTINUOUS
  62
7
  10
 96.984610560551
  20
 88.829741551467
  30
0.0
  11
 98.716661368121
  21
 87.829741551467
  31
0.0
   0
LINE
   5
2B9
 100
AcDbEntity
   8
LEVEL003
 370
30
 100
AcDbLine
   6
CONTINUOUS
  62
7
  10
 98.716661368121
  20
 87.829741551467
  30
0.0
  11
 98.716661368121
  21
 92.829741551467
  31
0.0
   0
LINE
   5
2BA
 100
AcDbEntity
   8
LEVEL003
 370
30
 100
AcDbLine
   6
CONTINUOUS
  62
7
  10
 97.484610560501
  20
 92.829741551467
  30
0.0
  11
 99.984610560501
  21
 92.829741551467
  31
0.0
   0
LINE
   5
2BB
 100
AcDbEntity
   8
LEVEL003
 370
30
 100
AcDbLine
   6
CONTINUOUS
  62
7
  10
 99.984610560501
  20
 87.829741551467
  30
0.0
  11
 98.716661368121
  21
 87.829741551467
  31
0.0
   0
LINE
   5
2BC
 100
AcDbEntity
   8
LEVEL003
 370
30
 100
AcDbLine
   6
CONTINUOUS
  62
7
  10
 96.984610560501
  20
 92.329741551467
  30
0.0
  11
 96.984610560501
  21
 88.829741551497
  31
0.0
   0
ARC
   5
2BD
 100
AcDbEntity
   8
LEVEL003
 370
30
   6
CONTINUOUS
  62
7
 100
AcDbCircle
  10
 180.98461055972
  20
 157.57974155123
  30
0.0
  40
 4.0000000000000
 100
AcDbArc
  50
 45.000000000000
  51
 225.00000000000
   0
ARC
   5
2BE
 100
AcDbEntity
   8
LEVEL003
 370
30
   6
CONTINUOUS
  62
7
 100
AcDbCircle
  10
 180.98461055972
  20
 157.57974155123
  30
0.0
  40
 1.9000000000000
 100
AcDbArc
  50
 44.999999999999
  51
 225.00000000000
   0
ARC
   5
2BF
 100
AcDbEntity
   8
LEVEL003
 370
30
   6
CONTINUOUS
  62
7
 100
AcDbCircle
  10
 180.98461055972
  20
 157.57974155123
  30
0.0
  40
 4.0000000000000
 100
AcDbArc
  50
 225.00000000000
  51
 44.999999999999
   0
ARC
   5
2C0
 100
AcDbEntity
   8
LEVEL003
 370
30
   6
CONTINUOUS
  62
7
 100
AcDbCircle
  10
 180.98461055972
  20
 157.57974155123
  30
0.0
  40
 1.9000000000000
 100
AcDbArc
  50
 225.00000000000
  51
 44.999999999999
   0
ARC
   5
2C1
 100
AcDbEntity
   8
LEVEL003
 370
30
   6
CONTINUOUS
  62
7
 100
AcDbCircle
  10
 170.98461055972
  20
 91.579741551777
  30
0.0
  40
 4.0000000000000
 100
AcDbArc
  50
 45.000000000000
  51
 225.00000000000
   0
ARC
   5
2C2
 100
AcDbEntity
   8
LEVEL003
 370
30
   6
CONTINUOUS
  62
7
 100
AcDbCircle
  10
 170.98461055972
  20
 91.579741551777
  30
0.0
  40
 4.0000000000000
 100
AcDbArc
  50
 225.00000000000
  51
 44.999999999999
   0
ARC
   5
2C3
 100
AcDbEntity
   8
LEVEL003
 370
30
   6
CONTINUOUS
  62
7
 100
AcDbCircle
  10
 170.98461055972
  20
 91.579741551777
  30
0.0
  40
 1.9000000000000
 100
AcDbArc
  50
 225.00000000000
  51
 44.999999999999
   0
ARC
   5
2C4
 100
AcDbEntity
   8
LEVEL003
 370
30
   6
CONTINUOUS
  62
7
 100
AcDbCircle
  10
 170.98461055972
  20
 91.579741551777
  30
0.0
  40
 1.9000000000000
 100
AcDbArc
  50
 44.999999999999
  51
 225.00000000000
   0
ARC
   5
2C5
 100
AcDbEntity
   8
LEVEL003
 370
30
   6
CONTINUOUS
  62
7
 100
AcDbCircle
  10
 114.98461056052
  20
 147.57974155097
  30
0.0
  40
 4.0000000000000
 100
AcDbArc
  50
 225.00000000000
  51
 45.000000000000
   0
ARC
   5
2C6
 100
AcDbEntity
   8
LEVEL003
 370
30
   6
CONTINUOUS
  62
7
 100
AcDbCircle
  10
 114.98461056052
  20
 147.57974155097
  30
0.0
  40
 4.0000000000000
 100
AcDbArc
  50
 45.000000000001
  51
 225.00000000000
   0
ARC
   5
2C7
 100
AcDbEntity
   8
LEVEL003
 370
30
   6
CONTINUOUS
  62
7
 100
AcDbCircle
  10
 114.98461056052
  20
 147.57974155097
  30
0.0
  40
 1.9000000000000
 100
AcDbArc
  50
 44.999999999999
  51
 225.00000000000
   0
ARC
   5
2C8
 100
AcDbEntity
   8
LEVEL003
 370
30
   6
CONTINUOUS
  62
7
 100
AcDbCircle
  10
 114.98461056052
  20
 147.57974155097
  30
0.0
  40
 1.9000000000000
 100
AcDbArc
  50
 225.00000000000
  51
 44.999999999999
   0
LINE
   5
2C9
 100
AcDbEntity
   8
LEVEL003
 370
30
 100
AcDbLine
   6
CONTINUOUS
  62
7
  10
 103.98461056021
  20
 76.579741551767
  30
0.0
  11
 118.48461056021
  21
 76.579741551767
  31
0.0
   0
LINE
   5
2CA
 100
AcDbEntity
   8
LEVEL003
 370
30
 100
AcDbLine
   6
CONTINUOUS
  62
7
  10
 118.48461056021
  20
 81.579741551767
  30
0.0
  11
 125.48461056021
  21
 81.579741551767
  31
0.0
   0
LINE
   5
2CB
 100
AcDbEntity
   8
LEVEL003
 370
30
 100
AcDbLine
   6
CONTINUOUS
  62
7
  10
 154.48461056021
  20
 81.579741551767
  30
0.0
  11
 161.48461056021
  21
 81.579741551767
  31
0.0
   0
LINE
   5
2CC
 100
AcDbEntity
   8
LEVEL003
 370
30
 100
AcDbLine
   6
CONTINUOUS
  62
7
  10
 190.48461056021
  20
 81.579741551767
  30
0.0
  11
 197.48461056021
  21
 81.579741551767
  31
0.0
   0
LINE
   5
2CD
 100
AcDbEntity
   8
LEVEL003
 370
30
 100
AcDbLine
   6
CONTINUOUS
  62
7
  10
 125.48461056021
  20
 76.579741551767
  30
0.0
  11
 154.48461056021
  21
 76.579741551767
  31
0.0
   0
LINE
   5
2CE
 100
AcDbEntity
   8
LEVEL003
 370
30
 100
AcDbLine
   6
CONTINUOUS
  62
7
  10
 161.48461056021
  20
 76.579741551767
  30
0.0
  11
 190.48461056021
  21
 76.579741551767
  31
0.0
   0
LINE
   5
2CF
 100
AcDbEntity
   8
LEVEL003
 370
30
 100
AcDbLine
   6
CONTINUOUS
  62
7
  10
 197.48461056021
  20
 76.579741551767
  30
0.0
  11
 211.98461056021
  21
 76.579741551767
  31
0.0
   0
LINE
   5
2D0
 100
AcDbEntity
   8
LEVEL003
 370
30
 100
AcDbLine
   6
CONTINUOUS
  62
7
  10
 104.98461056050
  20
 95.079741551477
  30
0.0
  11
 104.98461056050
  21
 102.07974155148
  31
0.0
   0
LINE
   5
2D1
 100
AcDbEntity
   8
LEVEL003
 370
30
 100
AcDbLine
   6
CONTINUOUS
  62
7
  10
 104.98461056050
  20
 131.07974155147
  30
0.0
  11
 104.98461056050
  21
 138.07974155147
  31
0.0
   0
LINE
   5
2D2
 100
AcDbEntity
   8
LEVEL003
 370
30
 100
AcDbLine
   6
CONTINUOUS
  62
7
  10
 104.98461056050
  20
 167.07974155147
  30
0.0
  11
 104.98461056050
  21
 174.07974155147
  31
0.0
   0
LINE
   5
2D3
 100
AcDbEntity
   8
LEVEL003
 370
30
 100
AcDbLine
   6
CONTINUOUS
  62
7
  10
 99.984610560501
  20
 80.579741551467
  30
0.0
  11
 99.984610560501
  21
 95.079741551477
  31
0.0
   0
LINE
   5
2D4
 100
AcDbEntity
   8
LEVEL003
 370
30
 100
AcDbLine
   6
CONTINUOUS
  62
7
  10
 99.984610560501
  20
 102.07974155148
  30
0.0
  11
 99.984610560501
  21
 131.07974155147
  31
0.0
   0
LINE
   5
2D5
 100
AcDbEntity
   8
LEVEL003
 370
30
 100
AcDbLine
   6
CONTINUOUS
  62
7
  10
 99.984610560501
  20
 138.07974155147
  30
0.0
  11
 99.984610560501
  21
 167.07974155147
  31
0.0
   0
LINE
   5
2D6
 100
AcDbEntity
   8
LEVEL003
 370
30
 100
AcDbLine
   6
CONTINUOUS
  62
7
  10
 99.984610560501
  20
 174.07974155147
  30
0.0
  11
 99.984610560501
  21
 188.57974155147
  31
0.0
   0
LINE
   5
2D7
 100
AcDbEntity
   8
LEVEL003
 370
30
 100
AcDbLine
   6
CONTINUOUS
  62
7
  10
 99.984610560401
  20
 95.079741551477
  30
0.0
  11
 117.48461056021
  21
 95.079741551477
  31
0.0
   0
ARC
   5
2D8
 100
AcDbEntity
   8
LEVEL003
 370
30
   6
CONTINUOUS
  62
7
 100
AcDbCircle
  10
 117.48461056021
  20
 94.079741551477
  30
0.0
  40
 1.0000000000000
 100
AcDbArc
  50
0.0
  51
 89.999999999752
   0
LINE
   5
2D9
 100
AcDbEntity
   8
LEVEL003
 370
30
 100
AcDbLine
   6
CONTINUOUS
  62
7
  10
 118.48461056021
  20
 76.579741551657
  30
0.0
  11
 118.48461056021
  21
 94.079741551477
  31
0.0
   0
LINE
   5
2DA
 100
AcDbEntity
   8
LEVEL003
 370
30
 100
AcDbLine
   6
CONTINUOUS
  62
7
  10
 120.98461056021
  20
 81.579741551767
  30
0.0
  11
 120.98461056021
  21
 96.579741551477
  31
0.0
   0
ARC
   5
2DB
 100
AcDbEntity
   8
LEVEL003
 370
30
   6
CONTINUOUS
  62
7
 100
AcDbCircle
  10
 119.98461056021
  20
 96.579741551477
  30
0.0
  40
 1.0000000000000
 100
AcDbArc
  50
0.0
  51
 89.999999999759
   0
LINE
   5
2DC
 100
AcDbEntity
   8
LEVEL003
 370
30
 100
AcDbLine
   6
CONTINUOUS
  62
7
  10
 104.98461056050
  20
 97.579741551477
  30
0.0
  11
 119.98461056021
  21
 97.579741551477
  31
0.0
   0
LINE
   5
2DD
 100
AcDbEntity
   8
LEVEL003
 370
30
 100
AcDbLine
   6
CONTINUOUS
  62
7
  10
 99.984610560401
  20
 131.07974155147
  30
0.0
  11
 153.48461056021
  21
 131.07974155147
  31
0.0
   0
ARC
   5
2DE
 100
AcDbEntity
   8
LEVEL003
 370
30
   6
CONTINUOUS
  62
7
 100
AcDbCircle
  10
 153.48461056022
  20
 130.07974155147
  30
0.0
  40
 1.0000000000000
 100
AcDbArc
  50
0.0
  51
 90.000000000280
   0
LINE
   5
2DF
 100
AcDbEntity
   8
LEVEL003
 370
30
 100
AcDbLine
   6
CONTINUOUS
  62
7
  10
 154.48461056021
  20
 76.579741551657
  30
0.0
  11
 154.48461056021
  21
 130.07974155147
  31
0.0
   0
LINE
   5
2E0
 100
AcDbEntity
   8
LEVEL003
 370
30
 100
AcDbLine
   6
CONTINUOUS
  62
7
  10
 156.98461056021
  20
 81.579741551767
  30
0.0
  11
 156.98461056021
  21
 132.57974155147
  31
0.0
   0
ARC
   5
2E1
 100
AcDbEntity
   8
LEVEL003
 370
30
   6
CONTINUOUS
  62
7
 100
AcDbCircle
  10
 155.98461056022
  20
 132.57974155147
  30
0.0
  40
 1.0000000000000
 100
AcDbArc
  50
0.0
  51
 90.000000000065
   0
LINE
   5
2E2
 100
AcDbEntity
   8
LEVEL003
 370
30
 100
AcDbLine
   6
CONTINUOUS
  62
7
  10
 104.98461056050
  20
 133.57974155147
  30
0.0
  11
 155.98461056021
  21
 133.57974155147
  31
0.0
   0
LINE
   5
2E3
 100
AcDbEntity
   8
LEVEL003
 370
30
 100
AcDbLine
   6
CONTINUOUS
  62
7
  10
 99.984610560401
  20
 167.07974155147
  30
0.0
  11
 189.48461056021
  21
 167.07974155147
  31
0.0
   0
ARC
   5
2E4
 100
AcDbEntity
   8
LEVEL003
 370
30
   6
CONTINUOUS
  62
7
 100
AcDbCircle
  10
 189.48461056022
  20
 166.07974155147
  30
0.0
  40
 1.0000000000000
 100
AcDbArc
  50
0.0
  51
 90.000000000065
   0
LINE
   5
2E5
 100
AcDbEntity
   8
LEVEL003
 370
30
 100
AcDbLine
   6
CONTINUOUS
  62
7
  10
 190.48461056021
  20
 76.579741551657
  30
0.0
  11
 190.48461056021
  21
 166.07974155147
  31
0.0
   0
LINE
   5
2E6
 100
AcDbEntity
   8
LEVEL003
 370
30
 100
AcDbLine
   6
CONTINUOUS
  62
7
  10
 192.98461056021
  20
 81.579741551767
  30
0.0
  11
 192.98461056021
  21
 168.57974155147
  31
0.0
   0
ARC
   5
2E7
 100
AcDbEntity
   8
LEVEL003
 370
30
   6
CONTINUOUS
  62
7
 100
AcDbCircle
  10
 191.98461056022
  20
 168.57974155147
  30
0.0
  40
 1.0000000000000
 100
AcDbArc
  50
0.0
  51
 90.000000000274
   0
LINE
   5
2E8
 100
AcDbEntity
   8
LEVEL003
 370
30
 100
AcDbLine
   6
CONTINUOUS
  62
7
  10
 104.98461056050
  20
 169.57974155147
  30
0.0
  11
 191.98461056021
  21
 169.57974155147
  31
0.0
   0
LINE
   5
2E9
 100
AcDbEntity
   8
LEVEL003
 370
30
 100
AcDbLine
   6
CONTINUOUS
  62
7
  10
 104.98461056050
  20
 171.57974155147
  30
0.0
  11
 192.48461056021
  21
 171.57974155147
  31
0.0
   0
ARC
   5
2EA
 100
AcDbEntity
   8
LEVEL003
 370
30
   6
CONTINUOUS
  62
7
 100
AcDbCircle
  10
 192.48461056021
  20
 169.07974155147
  30
0.0
  40
 2.5000000000000
 100
AcDbArc
  50
0.0
  51
 89.999999999987
   0
LINE
   5
2EB
 100
AcDbEntity
   8
LEVEL003
 370
30
 100
AcDbLine
   6
CONTINUOUS
  62
7
  10
 194.98461056021
  20
 81.579741551767
  30
0.0
  11
 194.98461056021
  21
 169.07974155147
  31
0.0
   0
LINE
   5
2EC
 100
AcDbEntity
   8
LEVEL003
 370
30
 100
AcDbLine
   6
CONTINUOUS
  62
7
  10
 158.98461056021
  20
 81.579741551767
  30
0.0
  11
 158.98461056021
  21
 133.07974155147
  31
0.0
   0
ARC
   5
2ED
 100
AcDbEntity
   8
LEVEL003
 370
30
   6
CONTINUOUS
  62
7
 100
AcDbCircle
  10
 156.48461056021
  20
 133.07974155147
  30
0.0
  40
 2.5000000000000
 100
AcDbArc
  50
0.0
  51
 89.999999999977
   0
LINE
   5
2EE
 100
AcDbEntity
   8
LEVEL003
 370
30
 100
AcDbLine
   6
CONTINUOUS
  62
7
  10
 104.98461056050
  20
 135.57974155147
  30
0.0
  11
 156.48461056021
  21
 135.57974155147
  31
0.0
   0
LINE
   5
2EF
 100
AcDbEntity
   8
LEVEL003
 370
30
 100
AcDbLine
   6
CONTINUOUS
  62
7
  10
 122.98461056021
  20
 81.579741551767
  30
0.0
  11
 122.98461056021
  21
 97.079741551477
  31
0.0
   0
ARC
   5
2F0
 100
AcDbEntity
   8
LEVEL003
 370
30
   6
CONTINUOUS
  62
7
 100
AcDbCircle
  10
 120.48461056021
  20
 97.079741551477
  30
0.0
  40
 2.5000000000000
 100
AcDbArc
  50
0.0
  51
 89.999999999995
   0
LINE
   5
2F1
 100
AcDbEntity
   8
LEVEL003
 370
30
 100
AcDbLine
   6
CONTINUOUS
  62
7
  10
 104.98461056050
  20
 99.579741551477
  30
0.0
  11
 120.48461056021
  21
 99.579741551477
  31
0.0
   0
LINE
   5
2F2
 100
AcDbEntity
   8
LEVEL003
 370
30
 100
AcDbLine
   6
CONTINUOUS
  62
7
  10
 99.984610560401
  20
 102.07974155148
  30
0.0
  11
 120.48461056021
  21
 102.07974155148
  31
0.0
   0
ARC
   5
2F3
 100
AcDbEntity
   8
LEVEL003
 370
30
   6
CONTINUOUS
  62
7
 100
AcDbCircle
  10
 120.48461056021
  20
 97.079741551477
  30
0.0
  40
 5.0000000000000
 100
AcDbArc
  50
0.0
  51
 89.999999999982
   0
LINE
   5
2F4
 100
AcDbEntity
   8
LEVEL003
 370
30
 100
AcDbLine
   6
CONTINUOUS
  62
7
  10
 125.48461056021
  20
 76.579741551657
  30
0.0
  11
 125.48461056021
  21
 97.079741551477
  31
0.0
   0
LINE
   5
2F5
 100
AcDbEntity
   8
LEVEL003
 370
30
 100
AcDbLine
   6
CONTINUOUS
  62
7
  10
 161.48461056021
  20
 76.579741551657
  30
0.0
  11
 161.48461056021
  21
 133.07974155147
  31
0.0
   0
ARC
   5
2F6
 100
AcDbEntity
   8
LEVEL003
 370
30
   6
CONTINUOUS
  62
7
 100
AcDbCircle
  10
 156.48461056021
  20
 133.07974155147
  30
0.0
  40
 5.0000000000000
 100
AcDbArc
  50
0.0
  51
 89.999999999997
   0
LINE
   5
2F7
 100
AcDbEntity
   8
LEVEL003
 370
30
 100
AcDbLine
   6
CONTINUOUS
  62
7
  10
 99.984610560401
  20
 138.07974155147
  30
0.0
  11
 156.48461056021
  21
 138.07974155147
  31
0.0
   0
LINE
   5
2F8
 100
AcDbEntity
   8
LEVEL003
 370
30
 100
AcDbLine
   6
CONTINUOUS
  62
7
  10
 99.984610560401
  20
 174.07974155147
  30
0.0
  11
 192.48461056021
  21
 174.07974155147
  31
0.0
   0
ARC
   5
2F9
 100
AcDbEntity
   8
LEVEL003
 370
30
   6
CONTINUOUS
  62
7
 100
AcDbCircle
  10
 192.48461056021
  20
 169.07974155147
  30
0.0
  40
 5.0000000000000
 100
AcDbArc
  50
0.0
  51
 89.999999999992
   0
LINE
   5
2FA
 100
AcDbEntity
   8
LEVEL003
 370
30
 100
AcDbLine
   6
CONTINUOUS
  62
7
  10
 197.48461056021
  20
 76.579741551657
  30
0.0
  11
 197.48461056021
  21
 169.07974155147
  31
0.0
   0
LINE
   5
2FB
 100
AcDbEntity
   8
LEVEL003
 370
30
 100
AcDbLine
   6
CONTINUOUS
  62
7
  10
 233.15507740137
  20
 136.41497530346
  30
0.0
  11
 233.15507740137
  21
 76.579741552042
  31
0.0
   0
LINE
   5
2FC
 100
AcDbEntity
   8
LEVEL003
 370
30
 100
AcDbLine
   6
CONTINUOUS
  62
7
  10
 233.15507740137
  20
 76.579741552042
  30
0.0
  11
 237.15507740137
  21
 76.579741552042
  31
0.0
   0
LINE
   5
2FD
 100
AcDbEntity
   8
LEVEL003
 370
30
 100
AcDbLine
   6
CONTINUOUS
  62
7
  10
 233.15507740137
  20
 136.41497530346
  30
0.0
  11
 233.15507740137
  21
 183.84769074414
  31
0.0
   0
LINE
   5
2FE
 100
AcDbEntity
   8
LEVEL003
 370
30
 100
AcDbLine
   6
CONTINUOUS
  62
7
  10
 235.88712820896
  20
 188.57974155174
  30
0.0
  11
 233.15507740137
  21
 183.84769074414
  31
0.0
   0
LINE
   5
2FF
 100
AcDbEntity
   8
LEVEL003
 370
30
 100
AcDbLine
   6
CONTINUOUS
  62
7
  10
 236.15507740137
  20
 73.579741552082
  30
0.0
  11
 235.15507740137
  21
 75.311792359652
  31
0.0
   0
LINE
   5
300
 100
AcDbEntity
   8
LEVEL003
 370
30
 100
AcDbLine
   6
CONTINUOUS
  62
7
  10
 236.15507740140
  20
 73.579741552042
  30
0.0
  11
 237.15507740137
  21
 73.579741552042
  31
0.0
   0
LINE
   5
301
 100
AcDbEntity
   8
LEVEL003
 370
30
 100
AcDbLine
   6
CONTINUOUS
  62
7
  10
 237.15507740137
  20
 75.311792359652
  30
0.0
  11
 235.15507740137
  21
 75.311792359652
  31
0.0
   0
LINE
   5
302
 100
AcDbEntity
   8
LEVEL003
 370
30
 100
AcDbLine
   6
CONTINUOUS
  62
7
  10
 235.15507740137
  20
 76.579741552042
  30
0.0
  11
 235.15507740137
  21
 75.311792359652
  31
0.0
   0
LINE
   5
303
 100
AcDbEntity
   8
LEVEL003
 370
30
 100
AcDbLine
   6
CONTINUOUS
  62
7
  10
 237.15507740137
  20
 136.41497530346
  30
0.0
  11
 237.15507740137
  21
 73.579741552042
  31
0.0
   0
LINE
   5
304
 100
AcDbEntity
   8
LEVEL003
 370
30
 100
AcDbLine
   6
CONTINUOUS
  62
7
  10
 237.15507740137
  20
 188.57974155174
  30
0.0
  11
 235.88712820896
  21
 188.57974155174
  31
0.0
   0
LINE
   5
305
 100
AcDbEntity
   8
LEVEL003
 370
30
 100
AcDbLine
   6
CONTINUOUS
  62
7
  10
 237.15507740137
  20
 136.41497530346
  30
0.0
  11
 237.15507740137
  21
 188.57974155174
  31
0.0
   0
LINE
   5
306
 100
AcDbEntity
   8
LEVEL003
 370
30
 100
AcDbLine
   6
CONTINUOUS
  62
7
  10
 75.656741249528
  20
 80.579741551742
  30
0.0
  11
 78.388792057118
  21
 85.311792359352
  31
0.0
   0
LINE
   5
307
 100
AcDbEntity
   8
LEVEL003
 370
30
 100
AcDbLine
   6
CONTINUOUS
  62
7
  10
 74.388792057118
  20
 80.579741551742
  30
0.0
  11
 75.656741249528
  21
 80.579741551742
  31
0.0
   0
LINE
   5
308
 100
AcDbEntity
   8
LEVEL003
 370
30
 100
AcDbLine
   6
CONTINUOUS
  62
7
  10
 75.079390980338
  20
 81.579741551742
  30
0.0
  11
 77.388792057098
  21
 85.579741551742
  31
0.0
   0
LINE
   5
309
 100
AcDbEntity
   8
LEVEL003
 370
30
 100
AcDbLine
   6
CONTINUOUS
  62
7
  10
 74.388792057118
  20
 81.579741551742
  30
0.0
  11
 75.079390980338
  21
 81.579741551742
  31
0.0
   0
LINE
   5
30A
 100
AcDbEntity
   8
LEVEL003
 370
30
 100
AcDbLine
   6
CONTINUOUS
  62
7
  10
 75.656741249528
  20
 80.579741551742
  30
0.0
  11
 75.656741249528
  21
 76.579741551742
  31
0.0
   0
LINE
   5
30B
 100
AcDbEntity
   8
LEVEL003
 370
30
 100
AcDbLine
   6
CONTINUOUS
  62
7
  10
 75.388792057118
  20
 73.579741551792
  30
0.0
  11
 76.388792057118
  21
 75.311792359362
  31
0.0
   0
LINE
   5
30C
 100
AcDbEntity
   8
LEVEL003
 370
30
 100
AcDbLine
   6
CONTINUOUS
  62
7
  10
 75.388792057088
  20
 73.579741551742
  30
0.0
  11
 74.388792057118
  21
 73.579741551742
  31
0.0
   0
LINE
   5
30D
 100
AcDbEntity
   8
LEVEL003
 370
30
 100
AcDbLine
   6
CONTINUOUS
  62
7
  10
 74.388792057118
  20
 75.311792359362
  30
0.0
  11
 76.388792057118
  21
 75.311792359362
  31
0.0
   0
LINE
   5
30E
 100
AcDbEntity
   8
LEVEL003
 370
30
 100
AcDbLine
   6
CONTINUOUS
  62
7
  10
 76.388792057118
  20
 76.579741551742
  30
0.0
  11
 76.388792057118
  21
 75.311792359362
  31
0.0
   0
LINE
   5
30F
 100
AcDbEntity
   8
LEVEL003
 370
30
 100
AcDbLine
   6
CONTINUOUS
  62
7
  10
 74.388792057118
  20
 134.57974155174
  30
0.0
  11
 74.388792057118
  21
 73.579741551742
  31
0.0
   0
LINE
   5
310
 100
AcDbEntity
   8
LEVEL003
 370
30
 100
AcDbLine
   6
CONTINUOUS
  62
7
  10
 75.656741249528
  20
 188.57974155174
  30
0.0
  11
 78.388792057118
  21
 183.84769074414
  31
0.0
   0
LINE
   5
311
 100
AcDbEntity
   8
LEVEL003
 370
30
 100
AcDbLine
   6
CONTINUOUS
  62
7
  10
 74.388792057118
  20
 188.57974155174
  30
0.0
  11
 75.656741249528
  21
 188.57974155174
  31
0.0
   0
LINE
   5
312
 100
AcDbEntity
   8
LEVEL003
 370
30
 100
AcDbLine
   6
CONTINUOUS
  62
7
  10
 75.079390980338
  20
 187.57974155174
  30
0.0
  11
 77.388792057088
  21
 183.57974155174
  31
0.0
   0
LINE
   5
313
 100
AcDbEntity
   8
LEVEL003
 370
30
 100
AcDbLine
   6
CONTINUOUS
  62
7
  10
 74.388792057118
  20
 187.57974155174
  30
0.0
  11
 75.079390980338
  21
 187.57974155174
  31
0.0
   0
LINE
   5
314
 100
AcDbEntity
   8
LEVEL003
 370
30
 100
AcDbLine
   6
CONTINUOUS
  62
7
  10
 74.388792057118
  20
 134.57974155174
  30
0.0
  11
 74.388792057118
  21
 188.57974155174
  31
0.0
   0
LINE
   5
315
 100
AcDbEntity
   8
LEVEL003
 370
30
 100
AcDbLine
   6
CONTINUOUS
  62
7
  10
 76.388792057118
  20
 92.829741551742
  30
0.0
  11
 76.388792057118
  21
 87.829741551742
  31
0.0
   0
LINE
   5
316
 100
AcDbEntity
   8
LEVEL003
 370
30
 100
AcDbLine
   6
CONTINUOUS
  62
7
  10
 76.388792057118
  20
 87.829741551742
  30
0.0
  11
 74.388792057118
  21
 87.829741551742
  31
0.0
   0
LINE
   5
317
 100
AcDbEntity
   8
LEVEL003
 370
30
 100
AcDbLine
   6
CONTINUOUS
  62
7
  10
 74.388792057118
  20
 92.829741551742
  30
0.0
  11
 76.388792057118
  21
 92.829741551742
  31
0.0
   0
LINE
   5
318
 100
AcDbEntity
   8
LEVEL003
 370
30
 100
AcDbLine
   6
CONTINUOUS
  62
7
  10
 75.388792057198
  20
 88.829741551772
  30
0.0
  11
 76.388792057118
  21
 87.829741551852
  31
0.0
   0
LINE
   5
319
 100
AcDbEntity
   8
LEVEL003
 370
30
 100
AcDbLine
   6
CONTINUOUS
  62
7
  10
 75.388792057118
  20
 92.829741551742
  30
0.0
  11
 75.388792057118
  21
 88.829741551812
  31
0.0
   0
LINE
   5
31A
 100
AcDbEntity
   8
LEVEL003
 370
30
 100
AcDbLine
   6
CONTINUOUS
  62
7
  10
 75.388792057118
  20
 88.829741551772
  30
0.0
  11
 74.388792057118
  21
 88.829741551772
  31
0.0
   0
LINE
   5
31B
 100
AcDbEntity
   8
LEVEL003
 370
30
 100
AcDbLine
   6
CONTINUOUS
  62
7
  10
 76.388792057118
  20
 104.32974155174
  30
0.0
  11
 76.388792057118
  21
 109.32974155174
  31
0.0
   0
LINE
   5
31C
 100
AcDbEntity
   8
LEVEL003
 370
30
 100
AcDbLine
   6
CONTINUOUS
  62
7
  10
 76.388792057118
  20
 109.32974155174
  30
0.0
  11
 74.388792057118
  21
 109.32974155174
  31
0.0
   0
LINE
   5
31D
 100
AcDbEntity
   8
LEVEL003
 370
30
 100
AcDbLine
   6
CONTINUOUS
  62
7
  10
 74.388792057118
  20
 104.32974155174
  30
0.0
  11
 76.388792057118
  21
 104.32974155174
  31
0.0
   0
LINE
   5
31E
 100
AcDbEntity
   8
LEVEL003
 370
30
 100
AcDbLine
   6
CONTINUOUS
  62
7
  10
 75.388792057198
  20
 108.32974155172
  30
0.0
  11
 76.388792057118
  21
 109.32974155164
  31
0.0
   0
LINE
   5
31F
 100
AcDbEntity
   8
LEVEL003
 370
30
 100
AcDbLine
   6
CONTINUOUS
  62
7
  10
 75.388792057118
  20
 104.32974155174
  30
0.0
  11
 75.388792057118
  21
 108.32974155167
  31
0.0
   0
LINE
   5
320
 100
AcDbEntity
   8
LEVEL003
 370
30
 100
AcDbLine
   6
CONTINUOUS
  62
7
  10
 75.388792057118
  20
 108.32974155172
  30
0.0
  11
 74.388792057118
  21
 108.32974155172
  31
0.0
   0
LINE
   5
321
 100
AcDbEntity
   8
LEVEL003
 370
30
 100
AcDbLine
   6
CONTINUOUS
  62
7
  10
 76.388792057118
  20
 128.82974155174
  30
0.0
  11
 76.388792057118
  21
 123.82974155174
  31
0.0
   0
LINE
   5
322
 100
AcDbEntity
   8
LEVEL003
 370
30
 100
AcDbLine
   6
CONTINUOUS
  62
7
  10
 74.388792057118
  20
 128.82974155174
  30
0.0
  11
 76.388792057118
  21
 128.82974155174
  31
0.0
   0
LINE
   5
323
 100
AcDbEntity
   8
LEVEL003
 370
30
 100
AcDbLine
   6
CONTINUOUS
  62
7
  10
 76.388792057118
  20
 123.82974155174
  30
0.0
  11
 74.388792057118
  21
 123.82974155174
  31
0.0
   0
LINE
   5
324
 100
AcDbEntity
   8
LEVEL003
 370
30
 100
AcDbLine
   6
CONTINUOUS
  62
7
  10
 75.388792057118
  20
 128.82974155174
  30
0.0
  11
 75.388792057118
  21
 123.82974155174
  31
0.0
   0
LINE
   5
325
 100
AcDbEntity
   8
LEVEL003
 370
30
 100
AcDbLine
   6
CONTINUOUS
  62
7
  10
 76.388792057118
  20
 145.32974155174
  30
0.0
  11
 76.388792057118
  21
 140.32974155174
  31
0.0
   0
LINE
   5
326
 100
AcDbEntity
   8
LEVEL003
 370
30
 100
AcDbLine
   6
CONTINUOUS
  62
7
  10
 74.388792057118
  20
 145.32974155174
  30
0.0
  11
 76.388792057118
  21
 145.32974155174
  31
0.0
   0
LINE
   5
327
 100
AcDbEntity
   8
LEVEL003
 370
30
 100
AcDbLine
   6
CONTINUOUS
  62
7
  10
 76.388792057118
  20
 140.32974155174
  30
0.0
  11
 74.388792057118
  21
 140.32974155174
  31
0.0
   0
LINE
   5
328
 100
AcDbEntity
   8
LEVEL003
 370
30
 100
AcDbLine
   6
CONTINUOUS
  62
7
  10
 75.388792057118
  20
 145.32974155174
  30
0.0
  11
 75.388792057118
  21
 140.32974155174
  31
0.0
   0
LINE
   5
329
 100
AcDbEntity
   8
LEVEL003
 370
30
 100
AcDbLine
   6
CONTINUOUS
  62
7
  10
 76.388792057118
  20
 164.82974155174
  30
0.0
  11
 76.388792057118
  21
 159.82974155174
  31
0.0
   0
LINE
   5
32A
 100
AcDbEntity
   8
LEVEL003
 370
30
 100
AcDbLine
   6
CONTINUOUS
  62
7
  10
 74.388792057118
  20
 164.82974155174
  30
0.0
  11
 76.388792057118
  21
 164.82974155174
  31
0.0
   0
LINE
   5
32B
 100
AcDbEntity
   8
LEVEL003
 370
30
 100
AcDbLine
   6
CONTINUOUS
  62
7
  10
 76.388792057118
  20
 159.82974155174
  30
0.0
  11
 74.388792057118
  21
 159.82974155174
  31
0.0
   0
LINE
   5
32C
 100
AcDbEntity
   8
LEVEL003
 370
30
 100
AcDbLine
   6
CONTINUOUS
  62
7
  10
 75.388792057118
  20
 164.82974155174
  30
0.0
  11
 75.388792057118
  21
 160.82974155181
  31
0.0
   0
LINE
   5
32D
 100
AcDbEntity
   8
LEVEL003
 370
30
 100
AcDbLine
   6
CONTINUOUS
  62
7
  10
 75.388792057198
  20
 160.82974155177
  30
0.0
  11
 76.388792057118
  21
 159.82974155185
  31
0.0
   0
LINE
   5
32E
 100
AcDbEntity
   8
LEVEL003
 370
30
 100
AcDbLine
   6
CONTINUOUS
  62
7
  10
 75.388792057198
  20
 160.82974155177
  30
0.0
  11
 74.388792057118
  21
 160.82974155177
  31
0.0
   0
LINE
   5
32F
 100
AcDbEntity
   8
LEVEL003
 370
30
 100
AcDbLine
   6
CONTINUOUS
  62
7
  10
 76.388792057118
  20
 176.32974155174
  30
0.0
  11
 76.388792057118
  21
 181.32974155174
  31
0.0
   0
LINE
   5
330
 100
AcDbEntity
   8
LEVEL003
 370
30
 100
AcDbLine
   6
CONTINUOUS
  62
7
  10
 74.388792057118
  20
 176.32974155174
  30
0.0
  11
 76.388792057118
  21
 176.32974155174
  31
0.0
   0
LINE
   5
331
 100
AcDbEntity
   8
LEVEL003
 370
30
 100
AcDbLine
   6
CONTINUOUS
  62
7
  10
 76.388792057118
  20
 181.32974155174
  30
0.0
  11
 74.388792057118
  21
 181.32974155174
  31
0.0
   0
LINE
   5
332
 100
AcDbEntity
   8
LEVEL003
 370
30
 100
AcDbLine
   6
CONTINUOUS
  62
7
  10
 75.388792057118
  20
 176.32974155174
  30
0.0
  11
 75.388792057118
  21
 180.32974155168
  31
0.0
   0
LINE
   5
333
 100
AcDbEntity
   8
LEVEL003
 370
30
 100
AcDbLine
   6
CONTINUOUS
  62
7
  10
 75.388792057198
  20
 180.32974155172
  30
0.0
  11
 76.388792057118
  21
 181.32974155164
  31
0.0
   0
LINE
   5
334
 100
AcDbEntity
   8
LEVEL003
 370
30
 100
AcDbLine
   6
CONTINUOUS
  62
7
  10
 75.388792057198
  20
 180.32974155172
  30
0.0
  11
 74.388792057118
  21
 180.32974155172
  31
0.0
   0
LINE
   5
335
 100
AcDbEntity
   8
LEVEL003
 370
30
 100
AcDbLine
   6
CONTINUOUS
  62
7
  10
 77.388792057118
  20
 85.579741551782
  30
0.0
  11
 77.388792057118
  21
 95.079741551742
  31
0.0
   0
LINE
   5
336
 100
AcDbEntity
   8
LEVEL003
 370
30
 100
AcDbLine
   6
CONTINUOUS
  62
7
  10
 76.388792057118
  20
 95.079741551742
  30
0.0
  11
 76.388792057118
  21
 102.07974155174
  31
0.0
   0
LINE
   5
337
 100
AcDbEntity
   8
LEVEL003
 370
30
 100
AcDbLine
   6
CONTINUOUS
  62
7
  10
 76.388792057118
  20
 131.07974155174
  30
0.0
  11
 76.388792057118
  21
 138.07974155174
  31
0.0
   0
LINE
   5
338
 100
AcDbEntity
   8
LEVEL003
 370
30
 100
AcDbLine
   6
CONTINUOUS
  62
7
  10
 76.388792057118
  20
 167.07974155174
  30
0.0
  11
 76.388792057118
  21
 174.07974155174
  31
0.0
   0
LINE
   5
339
 100
AcDbEntity
   8
LEVEL003
 370
30
 100
AcDbLine
   6
CONTINUOUS
  62
7
  10
 77.388792057118
  20
 102.07974155174
  30
0.0
  11
 77.388792057118
  21
 131.07974155174
  31
0.0
   0
LINE
   5
33A
 100
AcDbEntity
   8
LEVEL003
 370
30
 100
AcDbLine
   6
CONTINUOUS
  62
7
  10
 77.388792057118
  20
 138.07974155174
  30
0.0
  11
 77.388792057118
  21
 167.07974155174
  31
0.0
   0
LINE
   5
33B
 100
AcDbEntity
   8
LEVEL003
 370
30
 100
AcDbLine
   6
CONTINUOUS
  62
7
  10
 77.388792057118
  20
 174.07974155174
  30
0.0
  11
 77.388792057118
  21
 183.57974155167
  31
0.0
   0
LINE
   5
33C
 100
AcDbEntity
   8
LEVEL003
 370
30
 100
AcDbLine
   6
CONTINUOUS
  62
7
  10
 75.388792057118
  20
 97.579741551742
  30
0.0
  11
 76.388792057118
  21
 95.079741551742
  31
0.0
   0
LINE
   5
33D
 100
AcDbEntity
   8
LEVEL003
 370
30
 100
AcDbLine
   6
CONTINUOUS
  62
7
  10
 75.388792057118
  20
 97.579741551742
  30
0.0
  11
 75.388792057118
  21
 99.579741551742
  31
0.0
   0
LINE
   5
33E
 100
AcDbEntity
   8
LEVEL003
 370
30
 100
AcDbLine
   6
CONTINUOUS
  62
7
  10
 75.388792057118
  20
 99.579741551742
  30
0.0
  11
 76.388792057118
  21
 102.07974155174
  31
0.0
   0
LINE
   5
33F
 100
AcDbEntity
   8
LEVEL003
 370
30
 100
AcDbLine
   6
CONTINUOUS
  62
7
  10
 75.388792057118
  20
 133.57974155174
  30
0.0
  11
 76.388792057118
  21
 131.07974155174
  31
0.0
   0
LINE
   5
340
 100
AcDbEntity
   8
LEVEL003
 370
30
 100
AcDbLine
   6
CONTINUOUS
  62
7
  10
 75.388792057118
  20
 135.57974155174
  30
0.0
  11
 76.388792057118
  21
 138.07974155174
  31
0.0
   0
LINE
   5
341
 100
AcDbEntity
   8
LEVEL003
 370
30
 100
AcDbLine
   6
CONTINUOUS
  62
7
  10
 75.388792057118
  20
 133.57974155174
  30
0.0
  11
 75.388792057118
  21
 135.57974155174
  31
0.0
   0
LINE
   5
342
 100
AcDbEntity
   8
LEVEL003
 370
30
 100
AcDbLine
   6
CONTINUOUS
  62
7
  10
 75.388792057118
  20
 169.57974155174
  30
0.0
  11
 76.388792057118
  21
 167.07974155174
  31
0.0
   0
LINE
   5
343
 100
AcDbEntity
   8
LEVEL003
 370
30
 100
AcDbLine
   6
CONTINUOUS
  62
7
  10
 75.388792057118
  20
 171.57974155174
  30
0.0
  11
 76.388792057118
  21
 174.07974155174
  31
0.0
   0
LINE
   5
344
 100
AcDbEntity
   8
LEVEL003
 370
30
 100
AcDbLine
   6
CONTINUOUS
  62
7
  10
 75.388792057118
  20
 169.57974155174
  30
0.0
  11
 75.388792057118
  21
 171.57974155174
  31
0.0
   0
ARC
   5
345
 100
AcDbEntity
   8
LEVEL003
 370
30
   6
CONTINUOUS
  62
7
 100
AcDbCircle
  10
 78.088792057116
  20
 94.779741551742
  30
0.0
  40
 0.30000000000000
 100
AcDbArc
  50
 0.27140733281822E-11
  51
 89.999999999644
   0
LINE
   5
346
 100
AcDbEntity
   8
LEVEL003
 370
30
 100
AcDbLine
   6
CONTINUOUS
  62
7
  10
 78.088792057118
  20
 95.079741551742
  30
0.0
  11
 76.388792057118
  21
 95.079741551742
  31
0.0
   0
LINE
   5
347
 100
AcDbEntity
   8
LEVEL003
 370
30
 100
AcDbLine
   6
CONTINUOUS
  62
7
  10
 78.088792057118
  20
 167.07974155174
  30
0.0
  11
 76.388792057118
  21
 167.07974155174
  31
0.0
   0
ARC
   5
348
 100
AcDbEntity
   8
LEVEL003
 370
30
   6
CONTINUOUS
  62
7
 100
AcDbCircle
  10
 78.088792057123
  20
 166.77974155174
  30
0.0
  40
 0.30000000000000
 100
AcDbArc
  50
0.0
  51
 90.000000001099
   0
LINE
   5
349
 100
AcDbEntity
   8
LEVEL003
 370
30
 100
AcDbLine
   6
CONTINUOUS
  62
7
  10
 78.088792057118
  20
 174.07974155174
  30
0.0
  11
 76.388792057118
  21
 174.07974155174
  31
0.0
   0
ARC
   5
34A
 100
AcDbEntity
   8
LEVEL003
 370
30
   6
CONTINUOUS
  62
7
 100
AcDbCircle
  10
 78.088792057118
  20
 174.37974155174
  30
0.0
  40
 0.30000000000000
 100
AcDbArc
  50
 269.99999999999
  51
0.0
   0
LINE
   5
34B
 100
AcDbEntity
   8
LEVEL003
 370
30
 100
AcDbLine
   6
CONTINUOUS
  62
7
  10
 78.088792057118
  20
 138.07974155174
  30
0.0
  11
 76.388792057118
  21
 138.07974155174
  31
0.0
   0
ARC
   5
34C
 100
AcDbEntity
   8
LEVEL003
 370
30
   6
CONTINUOUS
  62
7
 100
AcDbCircle
  10
 78.088792057118
  20
 138.37974155174
  30
0.0
  40
 0.30000000000000
 100
AcDbArc
  50
 270.00000000000
  51
0.0
   0
LINE
   5
34D
 100
AcDbEntity
   8
LEVEL003
 370
30
 100
AcDbLine
   6
CONTINUOUS
  62
7
  10
 78.088792057118
  20
 102.07974155174
  30
0.0
  11
 76.388792057118
  21
 102.07974155174
  31
0.0
   0
ARC
   5
34E
 100
AcDbEntity
   8
LEVEL003
 370
30
   6
CONTINUOUS
  62
7
 100
AcDbCircle
  10
 78.088792057118
  20
 102.37974155174
  30
0.0
  40
 0.30000000000000
 100
AcDbArc
  50
 269.99999999999
  51
 0.27140733281822E-11
   0
ARC
   5
34F
 100
AcDbEntity
   8
LEVEL003
 370
30
   6
CONTINUOUS
  62
7
 100
AcDbCircle
  10
 78.088792057107
  20
 130.77974155174
  30
0.0
  40
 0.30000000000000
 100
AcDbArc
  50
 0.54281466563645E-11
  51
 89.999999998059
   0
LINE
   5
350
 100
AcDbEntity
   8
LEVEL003
 370
30
 100
AcDbLine
   6
CONTINUOUS
  62
7
  10
 78.088792057118
  20
 131.07974155174
  30
0.0
  11
 76.388792057118
  21
 131.07974155174
  31
0.0
   0
LINE
   5
351
 100
AcDbEntity
   8
LEVEL003
 370
30
 100
AcDbLine
   6
CONTINUOUS
  62
7
  10
 78.088792057118
  20
 76.579741551742
  30
0.0
  11
 74.388792057118
  21
 76.579741551742
  31
0.0
   0
ARC
   5
352
 100
AcDbEntity
   8
LEVEL003
 370
30
   6
CONTINUOUS
  62
7
 100
AcDbCircle
  10
 78.088792057118
  20
 76.879741551737
  30
0.0
  40
 0.30000000000000
 100
AcDbArc
  50
 269.99999999999
  51
 0.27140733281822E-11
   0
LINE
   5
353
 100
AcDbEntity
   8
LEVEL003
 370
30
 100
AcDbLine
   6
CONTINUOUS
  62
7
  10
 78.388792057118
  20
 183.84769074417
  30
0.0
  11
 78.388792057118
  21
 76.879741551742
  31
0.0
   0
DIMENSION
   5
354
 100
AcDbEntity
   8
LEVEL001
 370
15
   6
CONTINUOUS
  62
8
 100
AcDbDimension
   2
*D6
  10
 78.388792057118
  20
 63.579741551742
  30
0.0
  11
 76.388792057118
  21
 63.579741551742
  31
0.0
  70
0
   3
GMM001
 100
AcDbAlignedDimension
  13
 74.388792057118
  23
 73.579741551742
  33
0.0
  14
 78.388792057118
  24
 76.879741551742
  34
0.0
 100
AcDbRotatedDimension
   0
DIMENSION
   5
355
 100
AcDbEntity
   8
LEVEL001
 370
15
   6
CONTINUOUS
  62
8
 100
AcDbDimension
   2
*D7
  10
 67.388792057118
  20
 188.57974155174
  30
0.0
  11
 67.388792057118
  21
 132.57974155174
  31
0.0
  70
0
   3
GMM001
 100
AcDbAlignedDimension
  13
 74.388792057118
  23
 76.579741551742
  33
0.0
  14
 74.388792057118
  24
 188.57974155174
  34
0.0
  50
 90.000000000000
 100
AcDbRotatedDimension
   0
DIMENSION
   5
356
 100
AcDbEntity
   8
LEVEL001
 370
15
   6
CONTINUOUS
  62
8
 100
AcDbDimension
   2
*D8
  10
 121.98461056021
  20
 63.579741551742
  30
0.0
  11
 110.98461056035
  21
 63.579741551742
  31
0.0
  70
0
   3
GMM001
 100
AcDbAlignedDimension
  13
 99.984610560501
  23
 80.579741551467
  33
0.0
  14
 121.98461056021
  24
 76.579741552042
  34
0.0
 100
AcDbRotatedDimension
   0
DIMENSION
   5
357
 100
AcDbEntity
   8
LEVEL001
 370
15
   6
CONTINUOUS
  62
8
 100
AcDbDimension
   2
*D9
  10
 157.98461056021
  20
 63.579741551742
  30
0.0
  11
 139.98461056021
  21
 63.579741551742
  31
0.0
  70
0
   3
GMM001
 100
AcDbAlignedDimension
  13
 121.98461056021
  23
 76.579741552042
  33
0.0
  14
 157.98461056021
  24
 76.579741552042
  34
0.0
 100
AcDbRotatedDimension
   0
DIMENSION
   5
358
 100
AcDbEntity
   8
LEVEL001
 370
15
   6
CONTINUOUS
  62
8
 100
AcDbDimension
   2
*D10
  10
 193.98461056021
  20
 63.579741551742
  30
0.0
  11
 175.98461056021
  21
 63.579741551742
  31
0.0
  70
0
   3
GMM001
 100
AcDbAlignedDimension
  13
 157.98461056021
  23
 76.579741552042
  33
0.0
  14
 193.98461056021
  24
 76.579741552042
  34
0.0
 100
AcDbRotatedDimension
   0
DIMENSION
   5
359
 100
AcDbEntity
   8
LEVEL001
 370
15
   6
CONTINUOUS
  62
8
 100
AcDbDimension
   2
*D11
  10
 211.98461056021
  20
 63.579741551742
  30
0.0
  11
 202.98461056021
  21
 63.579741551742
  31
0.0
  70
0
   3
GMM001
 100
AcDbAlignedDimension
  13
 193.98461056021
  23
 76.579741552042
  33
0.0
  14
 211.98461056021
  24
 76.579741551767
  34
0.0
 100
AcDbRotatedDimension
   0
DIMENSION
   5
35A
 100
AcDbEntity
   8
LEVEL001
 370
15
   6
CONTINUOUS
  62
8
 100
AcDbDimension
   2
*D12
  10
 211.98461056021
  20
 53.579741551742
  30
0.0
  11
 155.98461056035
  21
 53.579741551742
  31
0.0
  70
0
   3
GMM001
 100
AcDbAlignedDimension
  13
 99.984610560501
  23
 63.579741551742
  33
0.0
  14
 211.98461056021
  24
 63.579741551742
  34
0.0
 100
AcDbRotatedDimension
   0
DIMENSION
   5
35B
 100
AcDbEntity
   8
LEVEL001
 370
15
   6
CONTINUOUS
  62
8
 100
AcDbDimension
   2
*D13
  10
 247.15507740137
  20
 188.57974155174
  30
0.0
  11
 247.15507740137
  21
 132.57974155189
  31
0.0
  70
0
   3
GMM001
 100
AcDbAlignedDimension
  13
 237.15507740137
  23
 76.579741552042
  33
0.0
  14
 237.15507740137
  24
 188.57974155174
  34
0.0
  50
 90.000000000000
 100
AcDbRotatedDimension
   0
LINE
   5
35C
 100
AcDbEntity
   8
LEVEL003
 370
15
 100
AcDbLine
   6
DASHDOT
  62
8
  10
 157.98461056021
  20
 134.57974155174
  30
0.0
  11
 157.98461056021
  21
 76.579741552042
  31
0.0
   0
LINE
   5
35D
 100
AcDbEntity
   8
LEVEL003
 370
15
 100
AcDbLine
   6
DASHDOT
  62
8
  10
 99.984610560501
  20
 98.579741551742
  30
0.0
  11
 121.98461056050
  21
 98.579741551742
  31
0.0
   0
LINE
   5
35E
 100
AcDbEntity
   8
LEVEL003
 370
15
 100
AcDbLine
   6
DASHDOT
  62
8
  10
 157.98461056021
  20
 134.57974155174
  30
0.0
  11
 99.984610560501
  21
 134.57974155174
  31
0.0
   0
LINE
   5
35F
 100
AcDbEntity
   8
LEVEL003
 370
15
 100
AcDbLine
   6
DASHDOT
  62
8
  10
 121.98461056021
  20
 76.579741552042
  30
0.0
  11
 121.98461056021
  21
 98.579741551742
  31
0.0
   0
LINE
   5
360
 100
AcDbEntity
   8
LEVEL003
 370
15
 100
AcDbLine
   6
DASHDOT
  62
8
  10
 99.984610560501
  20
 170.57974155174
  30
0.0
  11
 193.98461056047
  21
 170.57974155174
  31
0.0
   0
LINE
   5
361
 100
AcDbEntity
   8
LEVEL003
 370
15
 100
AcDbLine
   6
DASHDOT
  62
8
  10
 193.98461056021
  20
 76.579741552042
  30
0.0
  11
 193.98461056021
  21
 170.57974155200
  31
0.0
   0
LINE
   5
362
 100
AcDbEntity
   8
LEVEL003
 370
15
 100
AcDbLine
   6
DASHDOT
  62
8
  10
 180.98461056021
  20
 152.67974155153
  30
0.0
  11
 180.98461056021
  21
 162.47974155149
  31
0.0
   0
LINE
   5
363
 100
AcDbEntity
   8
LEVEL003
 370
15
 100
AcDbLine
   6
DASHDOT
  62
8
  10
 185.88461055991
  20
 157.57974155174
  30
0.0
  11
 176.08461055995
  21
 157.57974155174
  31
0.0
   0
LINE
   5
364
 100
AcDbEntity
   8
LEVEL003
 370
15
 100
AcDbLine
   6
DASHDOT
  62
8
  10
 170.98461056021
  20
 86.679741552072
  30
0.0
  11
 170.98461056021
  21
 96.479741552032
  31
0.0
   0
LINE
   5
365
 100
AcDbEntity
   8
LEVEL003
 370
15
 100
AcDbLine
   6
DASHDOT
  62
8
  10
 175.88461055991
  20
 91.579741552292
  30
0.0
  11
 166.08461055995
  21
 91.579741552292
  31
0.0
   0
LINE
   5
366
 100
AcDbEntity
   8
LEVEL003
 370
15
 100
AcDbLine
   6
DASHDOT
  62
8
  10
 110.08461056054
  20
 147.57974155174
  30
0.0
  11
 119.88461056050
  21
 147.57974155174
  31
0.0
   0
LINE
   5
367
 100
AcDbEntity
   8
LEVEL003
 370
15
 100
AcDbLine
   6
DASHDOT
  62
8
  10
 114.98461056076
  20
 152.47974155144
  30
0.0
  11
 114.98461056076
  21
 142.67974155149
  31
0.0
   0
LINE
   5
368
 100
AcDbEntity
   8
LEVEL003
 370
15
 100
AcDbLine
   6
DASHDOT
  62
8
  10
 92.663188387629
  20
 69.258319379171
  30
0.0
  11
 213.81703454149
  21
 190.41216553301
  31
0.0
   0
LINE
   5
369
 100
AcDbEntity
   8
LEVEL003
 370
15
 100
AcDbLine
   6
DASHDOT
  62
8
  10
 80.040992706101
  20
 134.57974155174
  30
0.0
  11
 72.776641611963
  21
 134.57974155174
  31
0.0
   0
LINE
   5
36A
 100
AcDbEntity
   8
LEVEL003
 370
15
 100
AcDbLine
   6
DASHDOT
  62
8
  10
 80.261638884194
  20
 170.57974155174
  30
0.0
  11
 72.776641611963
  21
 170.57974155174
  31
0.0
   0
LINE
   5
36B
 100
AcDbEntity
   8
LEVEL003
 370
15
 100
AcDbLine
   6
DASHDOT
  62
8
  10
 80.040992706101
  20
 98.579741551742
  30
0.0
  11
 72.776641611963
  21
 98.579741551742
  31
0.0
   0
LINE
   5
36C
 100
AcDbEntity
   8
LEVEL002
 370
15
 100
AcDbLine
   6
CONTINUOUS
  62
8
  10
 111.89818076178
  20
 26.558290320856
  30
0.0
  11
 132.07104035863
  21
 26.558290320856
  31
0.0
   0
MTEXT
   5
36E
 100
AcDbEntity
   8
LEVEL002
 370
15
  62
8
 100
AcDbMText
  10
 121.98461056021
  20
 28.238595830949
  30
0.0
  40
 3.0000000000000
  41
0.0
  71
5
  72
1
   1
\T1.000000;Ａ－Ａ断面図
   7
GMM002
  44
 0.79999984000003
   0
LINE
   5
36F
 100
AcDbEntity
   8
LEVEL003
 370
15
 100
AcDbLine
   6
CONTINUOUS
  62
5
  10
 116.48461056021
  20
 35.498549452323
  30
0.0
  11
 118.48461056021
  21
 37.498549452324
  31
0.0
   0
LINE
   5
370
 100
AcDbEntity
   8
LEVEL003
 370
15
 100
AcDbLine
   6
CONTINUOUS
  62
5
  10
 116.48461056021
  20
 36.205656233509
  30
0.0
  11
 118.48461056021
  21
 38.205656233510
  31
0.0
   0
LINE
   5
371
 100
AcDbEntity
   8
LEVEL003
 370
15
 100
AcDbLine
   6
CONTINUOUS
  62
5
  10
 116.18207099002
  20
 36.610223444500
  30
0.0
  11
 118.18207099002
  21
 38.610223444500
  31
0.0
   0
LINE
   5
372
 100
AcDbEntity
   8
LEVEL003
 370
15
 100
AcDbLine
   6
CONTINUOUS
  62
5
  10
 115.47496420883
  20
 36.610223444500
  30
0.0
  11
 117.47496420883
  21
 38.610223444500
  31
0.0
   0
LINE
   5
373
 100
AcDbEntity
   8
LEVEL003
 370
15
 100
AcDbLine
   6
CONTINUOUS
  62
5
  10
 114.76785742764
  20
 36.610223444500
  30
0.0
  11
 116.76785742764
  21
 38.610223444500
  31
0.0
   0
LINE
   5
374
 100
AcDbEntity
   8
LEVEL003
 370
15
 100
AcDbLine
   6
CONTINUOUS
  62
5
  10
 116.48461056021
  20
 34.791442671136
  30
0.0
  11
 118.48461056021
  21
 36.791442671137
  31
0.0
   0
LINE
   5
375
 100
AcDbEntity
   8
LEVEL003
 370
15
 100
AcDbLine
   6
CONTINUOUS
  62
5
  10
 123.37445914544
  20
 34.610223444500
  30
0.0
  11
 125.30102486893
  21
 36.536789167986
  31
0.0
   0
LINE
   5
376
 100
AcDbEntity
   8
LEVEL003
 370
15
 100
AcDbLine
   6
CONTINUOUS
  62
5
  10
 125.48461056021
  20
 36.720374859272
  30
0.0
  11
 127.37445914544
  21
 38.610223444500
  31
0.0
   0
LINE
   5
377
 100
AcDbEntity
   8
LEVEL003
 370
15
 100
AcDbLine
   6
CONTINUOUS
  62
5
  10
 122.66735236426
  20
 34.610223444500
  30
0.0
  11
 124.12251356695
  21
 36.065384647195
  31
0.0
   0
LINE
   5
378
 100
AcDbEntity
   8
LEVEL003
 370
15
 100
AcDbLine
   6
CONTINUOUS
  62
5
  10
 125.48461056021
  20
 37.427481640458
  30
0.0
  11
 126.66735236426
  21
 38.610223444500
  31
0.0
   0
LINE
   5
379
 100
AcDbEntity
   8
LEVEL003
 370
15
 100
AcDbLine
   6
CONTINUOUS
  62
5
  10
 121.96024558307
  20
 34.610223444500
  30
0.0
  11
 122.96024558307
  21
 35.610223444500
  31
0.0
   0
LINE
   5
37A
 100
AcDbEntity
   8
LEVEL003
 370
15
 100
AcDbLine
   6
CONTINUOUS
  62
5
  10
 125.48461056021
  20
 38.134588421645
  30
0.0
  11
 125.96024558307
  21
 38.610223444500
  31
0.0
   0
LINE
   5
37B
 100
AcDbEntity
   8
LEVEL003
 370
15
 100
AcDbLine
   6
CONTINUOUS
  62
5
  10
 121.25313880188
  20
 34.610223444500
  30
0.0
  11
 122.25313880188
  21
 35.610223444500
  31
0.0
   0
LINE
   5
37C
 100
AcDbEntity
   8
LEVEL003
 370
15
 100
AcDbLine
   6
CONTINUOUS
  62
5
  10
 120.54603202070
  20
 34.610223444500
  30
0.0
  11
 121.54603202070
  21
 35.610223444500
  31
0.0
   0
LINE
   5
37D
 100
AcDbEntity
   8
LEVEL003
 370
15
 100
AcDbLine
   6
CONTINUOUS
  62
5
  10
 119.83892523951
  20
 34.610223444500
  30
0.0
  11
 120.88054961685
  21
 35.651847821844
  31
0.0
   0
LINE
   5
37E
 100
AcDbEntity
   8
LEVEL003
 370
15
 100
AcDbLine
   6
CONTINUOUS
  62
5
  10
 119.13181845832
  20
 34.610223444500
  30
0.0
  11
 120.37547334458
  21
 35.853878330755
  31
0.0
   0
LINE
   5
37F
 100
AcDbEntity
   8
LEVEL003
 370
15
 100
AcDbLine
   6
CONTINUOUS
  62
5
  10
 118.42471167714
  20
 34.610223444500
  30
0.0
  11
 119.87039707230
  21
 36.055908839665
  31
0.0
   0
LINE
   5
380
 100
AcDbEntity
   8
LEVEL003
 370
15
 100
AcDbLine
   6
CONTINUOUS
  62
5
  10
 117.71760489595
  20
 34.610223444500
  30
0.0
  11
 119.36532080003
  21
 36.257939348576
  31
0.0
   0
LINE
   5
381
 100
AcDbEntity
   8
LEVEL003
 370
15
 100
AcDbLine
   6
CONTINUOUS
  62
5
  10
 117.01049811476
  20
 34.610223444500
  30
0.0
  11
 118.86024452775
  21
 36.459969857486
  31
0.0
   0
LINE
   5
382
 100
AcDbEntity
   8
LEVEL003
 370
15
 100
AcDbLine
   6
CONTINUOUS
  62
5
  10
 126.90999305138
  20
 34.610223444500
  30
0.0
  11
 127.48461056021
  21
 35.184840953338
  31
0.0
   0
LINE
   5
383
 100
AcDbEntity
   8
LEVEL003
 370
15
 100
AcDbLine
   6
CONTINUOUS
  62
5
  10
 126.20288627019
  20
 34.610223444500
  30
0.0
  11
 127.48461056021
  21
 35.891947734524
  31
0.0
   0
LINE
   5
384
 100
AcDbEntity
   8
LEVEL003
 370
15
 100
AcDbLine
   6
CONTINUOUS
  62
5
  10
 125.49577948900
  20
 34.610223444500
  30
0.0
  11
 127.48461056021
  21
 36.599054515711
  31
0.0
   0
LINE
   5
385
 100
AcDbEntity
   8
LEVEL003
 370
15
 100
AcDbLine
   6
CONTINUOUS
  62
5
  10
 127.49577948900
  20
 36.610223444500
  30
0.0
  11
 129.49577948900
  21
 38.610223444500
  31
0.0
   0
LINE
   5
386
 100
AcDbEntity
   8
LEVEL003
 370
15
 100
AcDbLine
   6
CONTINUOUS
  62
5
  10
 124.78867270782
  20
 34.610223444500
  30
0.0
  11
 128.78867270782
  21
 38.610223444500
  31
0.0
   0
LINE
   5
387
 100
AcDbEntity
   8
LEVEL003
 370
15
 100
AcDbLine
   6
CONTINUOUS
  62
5
  10
 124.08156592663
  20
 34.610223444500
  30
0.0
  11
 128.08156592663
  21
 38.610223444500
  31
0.0
   0
LINE
   5
388
 100
AcDbEntity
   8
LEVEL003
 370
15
 100
AcDbLine
   6
CONTINUOUS
  62
5
  10
 128.20288627019
  20
 36.610223444500
  30
0.0
  11
 129.48461056021
  21
 37.891947734520
  31
0.0
   0
LINE
   5
389
 100
AcDbEntity
   8
LEVEL003
 370
15
 100
AcDbLine
   6
CONTINUOUS
  62
5
  10
 128.90999305138
  20
 36.610223444500
  30
0.0
  11
 129.48461056021
  21
 37.184840953330
  31
0.0
   0
LINE
   5
38A
 100
AcDbEntity
   8
LEVEL003
 370
15
 100
AcDbLine
   6
CONTINUOUS
  62
5
  10
 114.48461056021
  20
 37.034083358250
  30
0.0
  11
 116.06075064646
  21
 38.610223444500
  31
0.0
   0
LINE
   5
38B
 100
AcDbEntity
   8
LEVEL003
 370
15
 100
AcDbLine
   6
CONTINUOUS
  62
5
  10
 114.48461056021
  20
 37.741190139440
  30
0.0
  11
 115.35364386527
  21
 38.610223444500
  31
0.0
   0
LINE
   5
38C
 100
AcDbEntity
   8
LEVEL003
 370
15
 100
AcDbLine
   6
CONTINUOUS
  62
5
  10
 114.48461056021
  20
 38.448296920630
  30
0.0
  11
 114.64653708408
  21
 38.610223444500
  31
0.0
   0
LINE
   5
38D
 100
AcDbEntity
   8
LEVEL003
 370
30
 100
AcDbLine
   6
CONTINUOUS
  62
7
  10
 116.48461056021
  20
 34.610223444500
  30
0.0
  11
 116.48461056021
  21
 36.610223444500
  31
0.0
   0
LINE
   5
38E
 100
AcDbEntity
   8
LEVEL003
 370
30
 100
AcDbLine
   6
CONTINUOUS
  62
7
  10
 127.48461056021
  20
 34.610223444500
  30
0.0
  11
 127.48461056021
  21
 36.610223444500
  31
0.0
   0
LINE
   5
38F
 100
AcDbEntity
   8
LEVEL003
 370
30
 100
AcDbLine
   6
CONTINUOUS
  62
7
  10
 120.98461056021
  20
 35.610223444500
  30
0.0
  11
 118.48461056021
  21
 36.610223444500
  31
0.0
   0
LINE
   5
390
 100
AcDbEntity
   8
LEVEL003
 370
30
 100
AcDbLine
   6
CONTINUOUS
  62
7
  10
 120.98461056021
  20
 35.610223444500
  30
0.0
  11
 122.98461056021
  21
 35.610223444500
  31
0.0
   0
LINE
   5
391
 100
AcDbEntity
   8
LEVEL003
 370
30
 100
AcDbLine
   6
CONTINUOUS
  62
7
  10
 122.98461056021
  20
 35.610223444500
  30
0.0
  11
 125.48461056021
  21
 36.610223444500
  31
0.0
   0
LINE
   5
392
 100
AcDbEntity
   8
LEVEL003
 370
30
 100
AcDbLine
   6
CONTINUOUS
  62
7
  10
 118.48461056021
  20
 38.310223444500
  30
0.0
  11
 118.48461056021
  21
 36.610223444500
  31
0.0
   0
ARC
   5
393
 100
AcDbEntity
   8
LEVEL003
 370
30
   6
CONTINUOUS
  62
7
 100
AcDbCircle
  10
 118.18461056021
  20
 38.310223444500
  30
0.0
  40
 0.30000000000000
 100
AcDbArc
  50
0.0
  51
 90.000000000231
   0
LINE
   5
394
 100
AcDbEntity
   8
LEVEL003
 370
30
 100
AcDbLine
   6
CONTINUOUS
  62
7
  10
 125.48461056021
  20
 38.310223444500
  30
0.0
  11
 125.48461056021
  21
 36.610223444500
  31
0.0
   0
ARC
   5
395
 100
AcDbEntity
   8
LEVEL003
 370
30
   6
CONTINUOUS
  62
7
 100
AcDbCircle
  10
 125.78461056021
  20
 38.310223444500
  30
0.0
  40
 0.30000000000000
 100
AcDbArc
  50
 89.999999999986
  51
 180.00000000001
   0
LINE
   5
396
 100
AcDbEntity
   8
LEVEL003
 370
30
 100
AcDbLine
   6
CONTINUOUS
  62
7
  10
 129.48461056021
  20
 36.610223444500
  30
0.0
  11
 127.48461056021
  21
 36.610223444500
  31
0.0
   0
LINE
   5
397
 100
AcDbEntity
   8
LEVEL003
 370
30
 100
AcDbLine
   6
CONTINUOUS
  62
7
  10
 116.48461056021
  20
 36.610223444500
  30
0.0
  11
 114.48461056021
  21
 36.610223444500
  31
0.0
   0
LINE
   5
398
 100
AcDbEntity
   8
LEVEL003
 370
30
 100
AcDbLine
   6
CONTINUOUS
  62
7
  10
 127.48461056021
  20
 34.610223444500
  30
0.0
  11
 116.48461056021
  21
 34.610223444500
  31
0.0
   0
LINE
   5
399
 100
AcDbEntity
   8
LEVEL003
 370
30
 100
AcDbLine
   6
CONTINUOUS
  62
7
  10
 118.18461056021
  20
 38.610223444500
  30
0.0
  11
 114.48461056021
  21
 38.610223444500
  31
0.0
   0
LINE
   5
39A
 100
AcDbEntity
   8
LEVEL003
 370
30
 100
AcDbLine
   6
CONTINUOUS
  62
7
  10
 129.49577948900
  20
 38.610223444500
  30
0.0
  11
 125.78461056021
  21
 38.610223444500
  31
0.0
   0
DIMENSION
   5
39B
 100
AcDbEntity
   8
LEVEL001
 370
15
   6
CONTINUOUS
  62
8
 100
AcDbDimension
   2
*D14
  10
 125.48461056021
  20
 43.792166792285
  30
0.0
  11
 121.98461056021
  21
 43.792166792285
  31
0.0
  70
0
   3
GMM001
 100
AcDbAlignedDimension
  13
 118.48461056021
  23
 38.205656233510
  33
0.0
  14
 125.48461056021
  24
 38.134588421645
  34
0.0
 100
AcDbRotatedDimension
   0
DIMENSION
   5
39C
 100
AcDbEntity
   8
LEVEL001
 370
15
   6
CONTINUOUS
  62
8
 100
AcDbDimension
   2
*D15
  10
 110.83354266525
  20
 38.610223444500
  30
0.0
  11
 110.83354266525
  21
 37.110223444500
  31
0.0
  70
0
   3
GMM001
 100
AcDbAlignedDimension
  13
 120.98461056021
  23
 35.610223444500
  33
0.0
  14
 114.48461056021
  24
 38.610223444500
  34
0.0
  50
 90.000000000000
 100
AcDbRotatedDimension
   0
LINE
   5
39D
 100
AcDbEntity
   8
LEVEL003
 370
15
 100
AcDbLine
   6
DASHDOT
  62
8
  10
 121.98461056021
  20
 40.869725172087
  30
0.0
  11
 121.98461056021
  21
 32.824626063158
  31
0.0
   0
LINE
   5
39E
 100
AcDbEntity
   8
LEVEL003
 370
15
 100
AcDbLine
   6
DIVIDE
  62
8
  10
 111.75629632155
  20
 86.569022576802
  30
0.0
  11
 135.29966784365
  21
 86.569022576802
  31
0.0
   0
MTEXT
   5
3A0
 100
AcDbEntity
   8
LEVEL002
 370
15
  62
8
 100
AcDbMText
  10
 111.75629632155
  20
 79.879402657353
  30
0.0
  40
 3.0000000000000
  41
0.0
  71
5
  72
1
   1
\T1.000000;Ａ
   7
GMM001
  44
 0.79999984000003
   0
LINE
   5
3A1
 100
AcDbEntity
   8
LEVEL002
 370
15
 100
AcDbLine
   6
CONTINUOUS
  62
8
  10
 111.75629632155
  20
 86.569022576802
  30
0.0
  11
 111.75629632155
  21
 81.814299911400
  31
0.0
   0
LINE
   5
3A2
 100
AcDbEntity
   8
LEVEL002
 370
15
 100
AcDbLine
   6
CONTINUOUS
  62
8
  10
 111.40364236013
  20
 84.569022576802
  30
0.0
  11
 111.75629632155
  21
 86.569022576802
  31
0.0
   0
LINE
   5
3A3
 100
AcDbEntity
   8
LEVEL002
 370
15
 100
AcDbLine
   6
CONTINUOUS
  62
8
  10
 111.75629632155
  20
 86.569022576802
  30
0.0
  11
 112.10895028297
  21
 84.569022576802
  31
0.0
   0
LINE
   5
3A4
 100
AcDbEntity
   8
LEVEL002
 370
15
 100
AcDbLine
   6
CONTINUOUS
  62
8
  10
 112.10895028297
  20
 84.569022576802
  30
0.0
  11
 111.40364236013
  21
 84.569022576802
  31
0.0
   0
MTEXT
   5
3A6
 100
AcDbEntity
   8
LEVEL002
 370
15
  62
8
 100
AcDbMText
  10
 135.29966784365
  20
 79.879402657353
  30
0.0
  40
 3.0000000000000
  41
0.0
  71
5
  72
1
   1
\T1.000000;Ａ
   7
GMM001
  44
 0.79999984000003
   0
LINE
   5
3A7
 100
AcDbEntity
   8
LEVEL002
 370
15
 100
AcDbLine
   6
CONTINUOUS
  62
8
  10
 135.29966784365
  20
 86.569022576802
  30
0.0
  11
 135.29966784365
  21
 81.814299911400
  31
0.0
   0
LINE
   5
3A8
 100
AcDbEntity
   8
LEVEL002
 370
15
 100
AcDbLine
   6
CONTINUOUS
  62
8
  10
 134.94701388223
  20
 84.569022576802
  30
0.0
  11
 135.29966784365
  21
 86.569022576802
  31
0.0
   0
LINE
   5
3A9
 100
AcDbEntity
   8
LEVEL002
 370
15
 100
AcDbLine
   6
CONTINUOUS
  62
8
  10
 135.29966784365
  20
 86.569022576802
  30
0.0
  11
 135.65232180506
  21
 84.569022576802
  31
0.0
   0
LINE
   5
3AA
 100
AcDbEntity
   8
LEVEL002
 370
15
 100
AcDbLine
   6
CONTINUOUS
  62
8
  10
 135.65232180506
  20
 84.569022576802
  30
0.0
  11
 134.94701388223
  21
 84.569022576802
  31
0.0
   0
MTEXT
   5
3AC
 100
AcDbEntity
   8
LEVEL001
 370
15
  62
8
 100
AcDbMText
  10
 44.941128093086
  20
 260.16519761562
  30
0.0
  40
 3.0000000000000
  41
0.0
  71
5
  72
1
   1
\W0.500000;\T1.000000; \W1.000000;\T1.000000;　レール　ＡＭＴ３６対応
   7
GMM002
  44
 0.79999984000003
   0
MTEXT
   5
3AE
 100
AcDbEntity
   8
LEVEL002
 370
15
  62
8
 100
AcDbMText
  10
 379.49999999995
  20
 20.083333333345
  30
0.0
  40
 2.5000000000000
  41
0.0
  71
5
  72
1
   1
\T1.000000;ＰＦ－５
   7
GMM002
  44
 0.79999984000003
   0
MTEXT
   5
3B0
 100
AcDbEntity
   8
LEVEL001
 370
15
  62
8
 100
AcDbMText
  10
 15.799999999950
  20
 280.00000000000
  30
0.0
  40
 3.0000000000000
  41
0.0
  71
4
  72
1
   1
\W0.500000;\T1.000000; \W1.000000;\T1.000000;　ＡＭＴ３６ＣＰ
   7
GMM002
  44
 0.79999984000003
   0
ENDSEC
  0
SECTION
  2
OBJECTS
  0
DICTIONARY
  5
C
100
AcDbDictionary
  3
ACAD_GROUP
350
D
  3
ACAD_MLINESTYLE
350
1B
  3
DWGPROPS
350
1C
  0
DICTIONARY
  5
D
102
{ACAD_REACTORS
330
C
102
}
100
AcDbDictionary
  0
DICTIONARY
  5
1B
102
{ACAD_REACTORS
330
C
102
}
100
AcDbDictionary
  3
STANDARD
350
1D
  0
MLINESTYLE
  5
1D
102
{ACAD_REACTORS
330
1B
102
}
100
AcDbMlineStyle
  2
STANDARD
 70
     0
  3

 62
   256
 51
90.0
 52
90.0
 71
     2
 49
0.5
 62
   256
  6
BYLAYER
 49
-0.5
 62
   256
  6
BYLAYER
   0
XRECORD
   5
1C
 102
{ACAD_REACTORS
 330
C
 102
}
 330
C
 100
AcDbXrecord
 280
1
   1
DWGPROPS COOKIE
   2
 
   3
 
   4
haruna
   6
 
   7
ﾊﾟﾙﾌﾗｯﾄﾚｰﾙ-V溝(Mﾀｲﾌﾟ④)(部品-AMT
   8
haruna
   9

 300
 = 
 301
 = 
 302
 = 
 303
 = 
 304
 = 
 305
 = 
 306
 = 
 307
 = 
 308
 = 
 309
 = 
  40
0.0
  41
 2459766.5000000
  42
 2460032.5000000
   1

  90
10
   0
ENDSEC
   0
EOF
