   0
SECTION
   2
HEADER
   9
$ACADVER
   1
AC1015
   9
$DWGCODEPAGE
   3
ANSI_932
   9
$LIMMIN
  10
0.0
  20
0.0
   9
$LIMMAX
  10
 1680.0000000000
  20
 1188.0000000000
   9
$EXTMIN
  10
0.0
  20
0.0
  30
0.0
   9
$EXTMAX
  10
 1680.0000000000
  20
 1188.0000000000
  30
0.0
   9
$LTSCALE
  40
 33.600000000000
   9
$HANDSEED
   5
475
   0
ENDSEC
   0
SECTION
   2
TABLES
  0
TABLE
  2
VPORT
  5
8
100
AcDbSymbolTable
 70
     1
  0
VPORT
  5
474
100
AcDbSymbolTableRecord
100
AcDbViewportTableRecord
  2
*ACTIVE
 70
     0
 10
0.0
 20
0.0
 11
1.0
 21
1.0
  12
 840.00000000000
  22
 594.00000000000
 13
0.0
 23
0.0
 14
1.0
 24
1.0
 15
0.0
 25
0.0
 16
0.0
 26
0.0
 36
1.0
 17
0.0
 27
0.0
 37
0.0
  40
 1680.0000000000
  41
 1.4787878787879
 42
50.0
 43
0.0
 44
0.0
 50
0.0
 51
0.0
 71
     0
 72
   100
 73
     1
 74
     1
 75
     0
 76
     0
 77
     0
 78
     0
  0
ENDTAB
  0
TABLE
  2
LTYPE
  5
5
100
AcDbSymbolTable
 70
    25
  0
LTYPE
  5
12
100
AcDbSymbolTableRecord
100
AcDbLinetypeTableRecord
  2
BYBLOCK
 70
     0
  3

 72
    65
 73
     0
 40
0.0
  0
LTYPE
  5
13
100
AcDbSymbolTableRecord
100
AcDbLinetypeTableRecord
  2
BYLAYER
 70
     0
  3

 72
    65
 73
     0
 40
0.0
  0
LTYPE
  5
14
100
AcDbSymbolTableRecord
100
AcDbLinetypeTableRecord
  2
CONTINUOUS
 70
     0
  3
Solid line
 72
    65
 73
     0
 40
0.0
  0
LTYPE
  5
20
100
AcDbSymbolTableRecord
100
AcDbLinetypeTableRecord
  2
BORDER
 70
     0
  3
__ __ . __ __ . __ __ . __ __ . __ __ . __ __ .
 72
    65
 73
     6
 40
1.75
 49
0.5
 74
     0
 49
-0.25
 74
     0
 49
0.5
 74
     0
 49
-0.25
 74
     0
 49
0.0
 74
     0
 49
-0.25
 74
     0
  0
LTYPE
  5
21
100
AcDbSymbolTableRecord
100
AcDbLinetypeTableRecord
  2
BORDER2
 70
     0
  3
__.__.__.__.__.__.__.__.__.__.__.__.__.__.__.__
 72
    65
 73
     6
 40
0.875
 49
0.25
 74
     0
 49
-0.125
 74
     0
 49
0.25
 74
     0
 49
-0.125
 74
     0
 49
0.0
 74
     0
 49
-0.125
 74
     0
  0
LTYPE
  5
22
100
AcDbSymbolTableRecord
100
AcDbLinetypeTableRecord
  2
BORDERX2
 70
     0
  3
____  ____  .  ____  ____  .  ____  ____  .  __
 72
    65
 73
     6
 40
3.5
 49
1.0
 74
     0
 49
-0.5
 74
     0
 49
1.0
 74
     0
 49
-0.5
 74
     0
 49
0.0
 74
     0
 49
-0.5
 74
     0
  0
LTYPE
  5
23
100
AcDbSymbolTableRecord
100
AcDbLinetypeTableRecord
  2
CENTER
 70
     0
  3
____ _ ____ _ ____ _ ____ _ ____ _ ____ _ ____ 
 72
    65
 73
     4
 40
2.0
 49
1.25
 74
     0
 49
-0.25
 74
     0
 49
0.25
 74
     0
 49
-0.25
 74
     0
  0
LTYPE
  5
24
100
AcDbSymbolTableRecord
100
AcDbLinetypeTableRecord
  2
CENTER2
 70
     0
  3
___ _ ___ _ ___ _ ___ _ ___ _ ___ _ ___ _ ___ _
 72
    65
 73
     4
 40
1.125
 49
0.75
 74
     0
 49
-0.125
 74
     0
 49
0.125
 74
     0
 49
-0.125
 74
     0
  0
LTYPE
  5
25
100
AcDbSymbolTableRecord
100
AcDbLinetypeTableRecord
  2
CENTERX2
 70
     0
  3
________  __  ________  __  ________  __  _____
 72
    65
 73
     4
 40
4.0
 49
2.5
 74
     0
 49
-0.5
 74
     0
 49
0.5
 74
     0
 49
-0.5
 74
     0
  0
LTYPE
  5
26
100
AcDbSymbolTableRecord
100
AcDbLinetypeTableRecord
  2
DASHDOT
 70
     0
  3
__ . __ . __ . __ . __ . __ . __ . __ . __ . __
 72
    65
 73
     4
 40
1.0
 49
0.5
 74
     0
 49
-0.25
 74
     0
 49
0.0
 74
     0
 49
-0.25
 74
     0
  0
LTYPE
  5
27
100
AcDbSymbolTableRecord
100
AcDbLinetypeTableRecord
  2
DASHDOT2
 70
     0
  3
_._._._._._._._._._._._._._._._._._._._._._._._
 72
    65
 73
     4
 40
0.5
 49
0.25
 74
     0
 49
-0.125
 74
     0
 49
0.0
 74
     0
 49
-0.125
 74
     0
  0
LTYPE
  5
28
100
AcDbSymbolTableRecord
100
AcDbLinetypeTableRecord
  2
DASHDOTX2
 70
     0
  3
____  .  ____  .  ____  .  ____  .  ____  .  __
 72
    65
 73
     4
 40
2.0
 49
1.0
 74
     0
 49
-0.5
 74
     0
 49
0.0
 74
     0
 49
-0.5
 74
     0
  0
LTYPE
  5
29
100
AcDbSymbolTableRecord
100
AcDbLinetypeTableRecord
  2
DASHED
 70
     0
  3
__ __ __ __ __ __ __ __ __ __ __ __ __ __ __ __
 72
    65
 73
     2
 40
0.75
 49
0.5
 74
     0
 49
-0.25
 74
     0
  0
LTYPE
  5
2A
100
AcDbSymbolTableRecord
100
AcDbLinetypeTableRecord
  2
DASHED2
 70
     0
  3
_ _ _ _ _ _ _ _ _ _ _ _ _ _ _ _ _ _ _ _ _ _ _ _
 72
    65
 73
     2
 40
0.375
 49
0.25
 74
     0
 49
-0.125
 74
     0
  0
LTYPE
  5
2B
100
AcDbSymbolTableRecord
100
AcDbLinetypeTableRecord
  2
DASHEDX2
 70
     0
  3
____  ____  ____  ____  ____  ____  ____  ____ 
 72
    65
 73
     2
 40
1.5
 49
1.0
 74
     0
 49
-0.5
 74
     0
  0
LTYPE
  5
2C
100
AcDbSymbolTableRecord
100
AcDbLinetypeTableRecord
  2
DIVIDE
 70
     0
  3
____ . . ____ . . ____ . . ____ . . ____ . . __
 72
    65
 73
     6
 40
1.25
 49
0.5
 74
     0
 49
-0.25
 74
     0
 49
0.0
 74
     0
 49
-0.25
 74
     0
 49
0.0
 74
     0
 49
-0.25
 74
     0
  0
LTYPE
  5
2D
100
AcDbSymbolTableRecord
100
AcDbLinetypeTableRecord
  2
DIVIDE2
 70
     0
  3
__..__..__..__..__..__..__..__..__..__..__..__.
 72
    65
 73
     6
 40
0.625
 49
0.25
 74
     0
 49
-0.125
 74
     0
 49
0.0
 74
     0
 49
-0.125
 74
     0
 49
0.0
 74
     0
 49
-0.125
 74
     0
  0
LTYPE
  5
2E
100
AcDbSymbolTableRecord
100
AcDbLinetypeTableRecord
  2
DIVIDEX2
 70
     0
  3
________  .  .  ________  .  .  ________  .  . 
 72
    65
 73
     6
 40
2.5
 49
1.0
 74
     0
 49
-0.5
 74
     0
 49
0.0
 74
     0
 49
-0.5
 74
     0
 49
0.0
 74
     0
 49
-0.5
 74
     0
  0
LTYPE
  5
2F
100
AcDbSymbolTableRecord
100
AcDbLinetypeTableRecord
  2
DOT
 70
     0
  3
. . . . . . . . . . . . . . . . . . . . . . . .
 72
    65
 73
     2
 40
0.25
 49
0.0
 74
     0
 49
-0.25
 74
     0
  0
LTYPE
  5
30
100
AcDbSymbolTableRecord
100
AcDbLinetypeTableRecord
  2
DOT2
 70
     0
  3
...............................................
 72
    65
 73
     2
 40
0.125
 49
0.0
 74
     0
 49
-0.125
 74
     0
  0
LTYPE
  5
31
100
AcDbSymbolTableRecord
100
AcDbLinetypeTableRecord
  2
DOTX2
 70
     0
  3
.  .  .  .  .  .  .  .  .  .  .  .  .  .  .  . 
 72
    65
 73
     2
 40
0.5
 49
0.0
 74
     0
 49
-0.5
 74
     0
  0
LTYPE
  5
32
100
AcDbSymbolTableRecord
100
AcDbLinetypeTableRecord
  2
HIDDEN
 70
     0
  3
__ __ __ __ __ __ __ __ __ __ __ __ __ __ __ __
 72
    65
 73
     2
 40
0.375
 49
0.25
 74
     0
 49
-0.125
 74
     0
  0
LTYPE
  5
33
100
AcDbSymbolTableRecord
100
AcDbLinetypeTableRecord
  2
HIDDEN2
 70
     0
  3
_ _ _ _ _ _ _ _ _ _ _ _ _ _ _ _ _ _ _ _ _ _ _ _
 72
    65
 73
     2
 40
0.1875
 49
0.125
 74
     0
 49
-0.0625
 74
     0
  0
LTYPE
  5
34
100
AcDbSymbolTableRecord
100
AcDbLinetypeTableRecord
  2
HIDDENX2
 70
     0
  3
____ ____ ____ ____ ____ ____ ____ ____ ____ __
 72
    65
 73
     2
 40
0.75
 49
0.5
 74
     0
 49
-0.25
 74
     0
  0
LTYPE
  5
35
100
AcDbSymbolTableRecord
100
AcDbLinetypeTableRecord
  2
PHANTOM
 70
     0
  3
______  __  __  ______  __  __  ______  __  __ 
 72
    65
 73
     6
 40
2.5
 49
1.25
 74
     0
 49
-0.25
 74
     0
 49
0.25
 74
     0
 49
-0.25
 74
     0
 49
0.25
 74
     0
 49
-0.25
 74
     0
  0
LTYPE
  5
36
100
AcDbSymbolTableRecord
100
AcDbLinetypeTableRecord
  2
PHANTOM2
 70
     0
  3
___ _ _ ___ _ _ ___ _ _ ___ _ _ ___ _ _ ___ _ _
 72
    65
 73
     6
 40
1.25
 49
0.625
 74
     0
 49
-0.125
 74
     0
 49
0.125
 74
     0
 49
-0.125
 74
     0
 49
0.125
 74
     0
 49
-0.125
 74
     0
  0
LTYPE
  5
37
100
AcDbSymbolTableRecord
100
AcDbLinetypeTableRecord
  2
PHANTOMX2
 70
     0
  3
____________    ____    ____    ____________   
 72
    65
 73
     6
 40
5.0
 49
2.5
 74
     0
 49
-0.5
 74
     0
 49
0.5
 74
     0
 49
-0.5
 74
     0
 49
0.5
 74
     0
 49
-0.5
 74
     0
  0
ENDTAB
   0
TABLE
   2
LAYER
   5
2
 100
AcDbSymbolTable
  70
3
   0
LAYER
   5
E
 100
AcDbSymbolTableRecord
 100
AcDbLayerTableRecord
   2
0
  70
0
  62
7
   6
CONTINUOUS
 390
30
   0
LAYER
   5
39
 100
AcDbSymbolTableRecord
 100
AcDbLayerTableRecord
   2
LEVEL001
  70
0
  62
7
   6
CONTINUOUS
 390
30
   0
LAYER
   5
3A
 100
AcDbSymbolTableRecord
 100
AcDbLayerTableRecord
   2
LEVEL002
  70
0
  62
7
   6
CONTINUOUS
 390
30
   0
ENDTAB
  0
TABLE
  2
STYLE
  5
3
100
AcDbSymbolTable
  70
5
  0
STYLE
  5
F
100
AcDbSymbolTableRecord
100
AcDbTextStyleTableRecord
  2
STANDARD
 70
     0
 40
0.0
 41
1.0
 50
0.0
 71
     0
 42
0.2
  3
TXT
  4
BIGFONT
  0
STYLE
  5
38
100
AcDbSymbolTableRecord
100
AcDbTextStyleTableRecord
  2
STANDARD1
 70
     4
 40
0.0
 41
1.0
 50
0.0
 71
     0
 42
0.2
  3
TXT
  4
BIGFONT
   0
STYLE
   5
3B
 100
AcDbSymbolTableRecord
 100
AcDbTextStyleTableRecord
   2
GMM001
  70
0
  40
0.0
  41
 0.80000000000000
  50
0.0
  71
     0
  42
1.0
   3
txt.shx
   4
bigfont.shx
   0
STYLE
   5
3C
 100
AcDbSymbolTableRecord
 100
AcDbTextStyleTableRecord
   2
GMM002
  70
0
  40
0.0
  41
 1.0000000000000
  50
0.0
  71
     0
  42
1.0
   3
txt.shx
   4
bigfont.shx
   0
STYLE
   5
3D
 100
AcDbSymbolTableRecord
 100
AcDbTextStyleTableRecord
   2
GMM003
  70
0
  40
0.0
  41
 1.0714285714286
  50
0.0
  71
     0
  42
1.0
   3
txt.shx
   4
bigfont.shx
   0
ENDTAB
  0
TABLE
  2
VIEW
  5
6
100
AcDbSymbolTable
 70
     0
  0
ENDTAB
  0
TABLE
  2
UCS
  5
7
100
AcDbSymbolTable
 70
     0
  0
ENDTAB
  0
TABLE
  2
APPID
  5
9
100
AcDbSymbolTable
 70
     1
  0
APPID
  5
10
100
AcDbSymbolTableRecord
100
AcDbRegAppTableRecord
  2
ACAD
 70
     0
  0
ENDTAB
   0
TABLE
   2
DIMSTYLE
   5
A
 100
AcDbSymbolTable
  70
12
 100
AcDbDimStyleTable
  0
DIMSTYLE
105
1D
100
AcDbSymbolTableRecord
100
AcDbDimStyleTableRecord
  2
STANDARD
 70
     0
  3

  4

  5

  6

  7

 40
1.0
 41
0.18
 42
0.0625
 43
0.38
 44
0.18
 45
0.0
 46
0.0
 47
0.0
 48
0.0
140
0.18
141
0.09
142
0.0
143
25.4
144
1.0
145
0.0
146
1.0
147
0.09
 71
     0
 72
     0
 73
     1
 74
     1
 75
     0
 76
     0
 77
     0
 78
     0
170
     0
171
     2
172
     0
173
     0
174
     0
175
     0
176
     0
177
     0
178
     0
270
     2
271
     4
272
     4
273
     2
274
     2
340
F
275
     0
280
     0
281
     0
282
     0
283
     1
284
     0
285
     0
286
     0
287
     3
288
     0
   0
DIMSTYLE
 105
3E
 100
AcDbSymbolTableRecord
 100
AcDbDimStyleTableRecord
   2
GMM001
  70
0
   3

   4

   5

   6

   7

  40
 1.0000000000000
  41
 8.0000000000000
  42
 4.0000000000000
  43
 32.000000000000
  44
 4.0000000000000
  45
0.0
  46
0.0
  47
0.0
  48
0.0
 140
 10.000000000000
 141
 4.0000000000000
 142
0.0
 143
 0.39400000000000E-1
 144
 1.0000000000000
 145
0.0
 146
 1.0000000000000
 147
 4.0000000000000
  71
0
  72
0
  73
0
  74
0
  75
0
  76
0
  77
3
  78
8
 170
0
 171
2
 172
1
 173
1
 174
0
 175
0
 176
8
 177
8
 178
8
 270
2
 271
6
 272
0
 273
2
 274
2
 340
3C
 275
0
 280
0
 281
0
 282
0
 283
1
 284
0
 285
0
 286
0
 287
3
 288
0
   0
DIMSTYLE
 105
3F
 100
AcDbSymbolTableRecord
 100
AcDbDimStyleTableRecord
   2
GMM002
  70
0
   3

   4

   5

   6
_NONE
   7
_NONE
  40
 1.0000000000000
  41
 8.0000000000000
  42
 4.0000000000000
  43
 32.000000000000
  44
 4.0000000000000
  45
0.0
  46
0.0
  47
0.0
  48
0.0
 140
 10.000000000000
 141
 4.0000000000000
 142
0.0
 143
 0.39400000000000E-1
 144
 1.0000000000000
 145
0.0
 146
 1.0000000000000
 147
 4.0000000000000
  71
0
  72
0
  73
0
  74
0
  75
0
  76
0
  77
3
  78
8
 170
0
 171
2
 172
1
 173
1
 174
0
 175
0
 176
8
 177
8
 178
8
 270
2
 271
6
 272
0
 273
2
 274
2
 340
3C
 275
0
 280
0
 281
0
 282
0
 283
1
 284
0
 285
0
 286
0
 287
3
 288
0
   0
DIMSTYLE
 105
40
 100
AcDbSymbolTableRecord
 100
AcDbDimStyleTableRecord
   2
GMM003
  70
0
   3

   4

   5

   6
_NONE
   7

  40
 1.0000000000000
  41
 8.0000000000000
  42
 4.0000000000000
  43
 32.000000000000
  44
 4.0000000000000
  45
0.0
  46
0.0
  47
0.0
  48
0.0
 140
 10.000000000000
 141
 4.0000000000000
 142
0.0
 143
 0.39400000000000E-1
 144
 1.0000000000000
 145
0.0
 146
 1.0000000000000
 147
 3.9892350223743
  71
0
  72
0
  73
0
  74
0
  75
0
  76
0
  77
3
  78
8
 170
0
 171
2
 172
1
 173
1
 174
0
 175
0
 176
8
 177
8
 178
8
 270
2
 271
6
 272
0
 273
2
 274
2
 340
3C
 275
0
 280
0
 281
0
 282
0
 283
1
 284
0
 285
0
 286
0
 287
3
 288
1
   0
DIMSTYLE
 105
41
 100
AcDbSymbolTableRecord
 100
AcDbDimStyleTableRecord
   2
GMM004
  70
0
   3

   4

   5

   6

   7
_NONE
  40
 1.0000000000000
  41
 8.0000000000000
  42
 4.0000000000000
  43
 32.000000000000
  44
 4.0000000000000
  45
0.0
  46
0.0
  47
0.0
  48
0.0
 140
 10.000000000000
 141
 4.0000000000000
 142
0.0
 143
 0.39400000000000E-1
 144
 1.0000000000000
 145
0.0
 146
 1.0000000000000
 147
 3.3218010772066
  71
0
  72
0
  73
0
  74
0
  75
0
  76
0
  77
3
  78
8
 170
0
 171
2
 172
1
 173
1
 174
0
 175
0
 176
8
 177
8
 178
8
 270
2
 271
6
 272
0
 273
2
 274
2
 340
3C
 275
0
 280
0
 281
0
 282
0
 283
1
 284
0
 285
0
 286
0
 287
3
 288
1
   0
DIMSTYLE
 105
42
 100
AcDbSymbolTableRecord
 100
AcDbDimStyleTableRecord
   2
GMM005
  70
0
   3
%%c<>
   4

   5

   6

   7

  40
 1.0000000000000
  41
 8.0000000000000
  42
 4.0000000000000
  43
 32.000000000000
  44
 4.0000000000000
  45
0.0
  46
0.0
  47
0.0
  48
0.0
 140
 10.000000000000
 141
 4.0000000000000
 142
0.0
 143
 0.39400000000000E-1
 144
 1.0000000000000
 145
0.0
 146
 1.0000000000000
 147
 4.0000000000000
  71
0
  72
0
  73
0
  74
0
  75
0
  76
0
  77
3
  78
8
 170
0
 171
2
 172
1
 173
1
 174
0
 175
0
 176
8
 177
8
 178
8
 270
2
 271
6
 272
0
 273
2
 274
2
 340
3C
 275
0
 280
0
 281
0
 282
0
 283
1
 284
0
 285
0
 286
0
 287
3
 288
1
   0
DIMSTYLE
 105
43
 100
AcDbSymbolTableRecord
 100
AcDbDimStyleTableRecord
   2
GMM006
  70
0
   3
%%c<>
   4

   5

   6

   7

  40
 1.0000000000000
  41
 8.0000000000000
  42
 4.0000000000000
  43
 32.000000000000
  44
 4.0000000000000
  45
0.0
  46
0.0
  47
0.0
  48
0.0
 140
 10.000000000000
 141
 4.0000000000000
 142
0.0
 143
 0.39400000000000E-1
 144
 1.0000000000000
 145
0.0
 146
 1.0000000000000
 147
 4.0000000000000
  71
0
  72
0
  73
0
  74
0
  75
0
  76
0
  77
3
  78
8
 170
0
 171
2
 172
1
 173
1
 174
0
 175
0
 176
8
 177
8
 178
8
 270
2
 271
6
 272
0
 273
2
 274
2
 340
3C
 275
0
 280
0
 281
0
 282
0
 283
1
 284
0
 285
0
 286
0
 287
3
 288
0
   0
DIMSTYLE
 105
44
 100
AcDbSymbolTableRecord
 100
AcDbDimStyleTableRecord
   2
GMM007
  70
0
   3

   4

   5

   6
_DOT
   7

  40
 1.0000000000000
  41
 8.0000000000000
  42
 4.0000000000000
  43
 32.000000000000
  44
 4.0000000000000
  45
0.0
  46
0.0
  47
0.0
  48
0.0
 140
 10.000000000000
 141
 4.0000000000000
 142
0.0
 143
 0.39400000000000E-1
 144
 1.0000000000000
 145
0.0
 146
 1.0000000000000
 147
 3.2643707284362
  71
0
  72
0
  73
0
  74
0
  75
0
  76
0
  77
3
  78
8
 170
0
 171
2
 172
1
 173
1
 174
0
 175
0
 176
8
 177
8
 178
8
 270
2
 271
6
 272
0
 273
2
 274
2
 340
3C
 275
0
 280
0
 281
0
 282
0
 283
1
 284
0
 285
0
 286
0
 287
3
 288
1
   0
DIMSTYLE
 105
45
 100
AcDbSymbolTableRecord
 100
AcDbDimStyleTableRecord
   2
GMM008
  70
0
   3

   4

   5

   6

   7
_NONE
  40
 1.0000000000000
  41
 8.0000000000000
  42
 4.0000000000000
  43
 32.000000000000
  44
 4.0000000000000
  45
0.0
  46
0.0
  47
0.0
  48
0.0
 140
 10.000000000000
 141
 4.0000000000000
 142
0.0
 143
 0.39400000000000E-1
 144
 1.0000000000000
 145
0.0
 146
 1.0000000000000
 147
 4.1380355961817
  71
0
  72
0
  73
0
  74
0
  75
0
  76
0
  77
3
  78
8
 170
0
 171
2
 172
1
 173
1
 174
0
 175
0
 176
8
 177
8
 178
8
 270
2
 271
6
 272
0
 273
2
 274
2
 340
3C
 275
0
 280
0
 281
0
 282
0
 283
1
 284
0
 285
0
 286
0
 287
3
 288
1
   0
DIMSTYLE
 105
46
 100
AcDbSymbolTableRecord
 100
AcDbDimStyleTableRecord
   2
GMM009
  70
0
   3

   4

   5

   6
_DOT
   7
_NONE
  40
 1.0000000000000
  41
 1.6000000000000
  42
 4.0000000000000
  43
 32.000000000000
  44
 4.0000000000000
  45
0.0
  46
0.0
  47
0.0
  48
0.0
 140
 10.000000000000
 141
 4.0000000000000
 142
0.0
 143
 0.39400000000000E-1
 144
 1.0000000000000
 145
0.0
 146
 1.0000000000000
 147
 4.0000000000000
  71
0
  72
0
  73
0
  74
0
  75
0
  76
0
  77
3
  78
8
 170
0
 171
2
 172
1
 173
1
 174
0
 175
0
 176
8
 177
8
 178
8
 270
2
 271
6
 272
0
 273
2
 274
2
 340
3C
 275
0
 280
0
 281
0
 282
0
 283
1
 284
0
 285
0
 286
0
 287
3
 288
0
   0
DIMSTYLE
 105
47
 100
AcDbSymbolTableRecord
 100
AcDbDimStyleTableRecord
   2
GMM010
  70
0
   3

   4

   5

   6
_DOT
   7

  40
 1.0000000000000
  41
 8.0000000000000
  42
 4.0000000000000
  43
 32.000000000000
  44
 4.0000000000000
  45
0.0
  46
0.0
  47
0.0
  48
0.0
 140
 10.000000000000
 141
 4.0000000000000
 142
0.0
 143
 0.39400000000000E-1
 144
 1.0000000000000
 145
0.0
 146
 1.0000000000000
 147
 4.4277475303381
  71
0
  72
0
  73
0
  74
0
  75
0
  76
0
  77
3
  78
8
 170
0
 171
2
 172
1
 173
1
 174
0
 175
0
 176
8
 177
8
 178
8
 270
2
 271
6
 272
0
 273
2
 274
2
 340
3C
 275
0
 280
0
 281
0
 282
0
 283
1
 284
0
 285
0
 286
0
 287
3
 288
1
   0
ENDTAB
  0
TABLE
  2
BLOCK_RECORD
  5
1
100
AcDbSymbolTable
 70
     0
  0
BLOCK_RECORD
  5
18
100
AcDbSymbolTableRecord
100
AcDbBlockTableRecord
  2
*MODEL_SPACE
  0
BLOCK_RECORD
  5
15
100
AcDbSymbolTableRecord
100
AcDbBlockTableRecord
  2
*PAPER_SPACE
   0
BLOCK_RECORD
   5
48
 100
AcDbSymbolTableRecord
 100
AcDbBlockTableRecord
   2
*D1
   0
BLOCK_RECORD
   5
49
 100
AcDbSymbolTableRecord
 100
AcDbBlockTableRecord
   2
*D2
   0
BLOCK_RECORD
   5
4A
 100
AcDbSymbolTableRecord
 100
AcDbBlockTableRecord
   2
*D3
   0
BLOCK_RECORD
   5
4B
 100
AcDbSymbolTableRecord
 100
AcDbBlockTableRecord
   2
*D4
   0
BLOCK_RECORD
   5
4C
 100
AcDbSymbolTableRecord
 100
AcDbBlockTableRecord
   2
*D5
   0
BLOCK_RECORD
   5
4D
 100
AcDbSymbolTableRecord
 100
AcDbBlockTableRecord
   2
*D6
   0
BLOCK_RECORD
   5
4E
 100
AcDbSymbolTableRecord
 100
AcDbBlockTableRecord
   2
*D7
   0
BLOCK_RECORD
   5
4F
 100
AcDbSymbolTableRecord
 100
AcDbBlockTableRecord
   2
*D8
   0
BLOCK_RECORD
   5
50
 100
AcDbSymbolTableRecord
 100
AcDbBlockTableRecord
   2
*D9
   0
BLOCK_RECORD
   5
51
 100
AcDbSymbolTableRecord
 100
AcDbBlockTableRecord
   2
*D10
   0
BLOCK_RECORD
   5
52
 100
AcDbSymbolTableRecord
 100
AcDbBlockTableRecord
   2
*D11
   0
BLOCK_RECORD
   5
53
 100
AcDbSymbolTableRecord
 100
AcDbBlockTableRecord
   2
*D12
   0
BLOCK_RECORD
   5
54
 100
AcDbSymbolTableRecord
 100
AcDbBlockTableRecord
   2
*D13
   0
BLOCK_RECORD
   5
55
 100
AcDbSymbolTableRecord
 100
AcDbBlockTableRecord
   2
*D14
   0
BLOCK_RECORD
   5
56
 100
AcDbSymbolTableRecord
 100
AcDbBlockTableRecord
   2
*D15
   0
BLOCK_RECORD
   5
57
 100
AcDbSymbolTableRecord
 100
AcDbBlockTableRecord
   2
*D16
   0
BLOCK_RECORD
   5
58
 100
AcDbSymbolTableRecord
 100
AcDbBlockTableRecord
   2
*D17
   0
BLOCK_RECORD
   5
59
 100
AcDbSymbolTableRecord
 100
AcDbBlockTableRecord
   2
*D18
   0
BLOCK_RECORD
   5
5A
 100
AcDbSymbolTableRecord
 100
AcDbBlockTableRecord
   2
*D19
   0
BLOCK_RECORD
   5
5B
 100
AcDbSymbolTableRecord
 100
AcDbBlockTableRecord
   2
*D20
   0
BLOCK_RECORD
   5
5C
 100
AcDbSymbolTableRecord
 100
AcDbBlockTableRecord
   2
*D21
   0
BLOCK_RECORD
   5
5D
 100
AcDbSymbolTableRecord
 100
AcDbBlockTableRecord
   2
*D22
   0
BLOCK_RECORD
   5
5E
 100
AcDbSymbolTableRecord
 100
AcDbBlockTableRecord
   2
*D23
   0
BLOCK_RECORD
   5
5F
 100
AcDbSymbolTableRecord
 100
AcDbBlockTableRecord
   2
*D24
   0
BLOCK_RECORD
   5
60
 100
AcDbSymbolTableRecord
 100
AcDbBlockTableRecord
   2
*D25
   0
BLOCK_RECORD
   5
61
 100
AcDbSymbolTableRecord
 100
AcDbBlockTableRecord
   2
*D26
   0
BLOCK_RECORD
   5
62
 100
AcDbSymbolTableRecord
 100
AcDbBlockTableRecord
   2
*D27
   0
BLOCK_RECORD
   5
63
 100
AcDbSymbolTableRecord
 100
AcDbBlockTableRecord
   2
*D28
   0
BLOCK_RECORD
   5
64
 100
AcDbSymbolTableRecord
 100
AcDbBlockTableRecord
   2
*D29
   0
BLOCK_RECORD
   5
65
 100
AcDbSymbolTableRecord
 100
AcDbBlockTableRecord
   2
*D30
   0
BLOCK_RECORD
   5
66
 100
AcDbSymbolTableRecord
 100
AcDbBlockTableRecord
   2
*D31
   0
BLOCK_RECORD
   5
67
 100
AcDbSymbolTableRecord
 100
AcDbBlockTableRecord
   2
*D32
   0
BLOCK_RECORD
   5
68
 100
AcDbSymbolTableRecord
 100
AcDbBlockTableRecord
   2
*D33
   0
BLOCK_RECORD
   5
69
 100
AcDbSymbolTableRecord
 100
AcDbBlockTableRecord
   2
*D34
   0
BLOCK_RECORD
   5
6A
 100
AcDbSymbolTableRecord
 100
AcDbBlockTableRecord
   2
*D35
   0
BLOCK_RECORD
   5
6B
 100
AcDbSymbolTableRecord
 100
AcDbBlockTableRecord
   2
*D36
   0
BLOCK_RECORD
   5
6C
 100
AcDbSymbolTableRecord
 100
AcDbBlockTableRecord
   2
*D37
   0
BLOCK_RECORD
   5
6D
 100
AcDbSymbolTableRecord
 100
AcDbBlockTableRecord
   2
*D38
   0
BLOCK_RECORD
   5
6E
 100
AcDbSymbolTableRecord
 100
AcDbBlockTableRecord
   2
*D39
   0
BLOCK_RECORD
   5
6F
 100
AcDbSymbolTableRecord
 100
AcDbBlockTableRecord
   2
*D40
   0
BLOCK_RECORD
   5
70
 100
AcDbSymbolTableRecord
 100
AcDbBlockTableRecord
   2
*D41
   0
BLOCK_RECORD
   5
71
 100
AcDbSymbolTableRecord
 100
AcDbBlockTableRecord
   2
*D42
   0
BLOCK_RECORD
   5
72
 100
AcDbSymbolTableRecord
 100
AcDbBlockTableRecord
   2
_ARCHTICK
   0
BLOCK_RECORD
   5
73
 100
AcDbSymbolTableRecord
 100
AcDbBlockTableRecord
   2
_BOXBLANK
   0
BLOCK_RECORD
   5
74
 100
AcDbSymbolTableRecord
 100
AcDbBlockTableRecord
   2
_BOXFILLED
   0
BLOCK_RECORD
   5
75
 100
AcDbSymbolTableRecord
 100
AcDbBlockTableRecord
   2
_CLOSED
   0
BLOCK_RECORD
   5
76
 100
AcDbSymbolTableRecord
 100
AcDbBlockTableRecord
   2
_CLOSEDBLANK
   0
BLOCK_RECORD
   5
77
 100
AcDbSymbolTableRecord
 100
AcDbBlockTableRecord
   2
_DATUMBLANK
   0
BLOCK_RECORD
   5
78
 100
AcDbSymbolTableRecord
 100
AcDbBlockTableRecord
   2
_DATUMFILLED
   0
BLOCK_RECORD
   5
79
 100
AcDbSymbolTableRecord
 100
AcDbBlockTableRecord
   2
_DOT
   0
BLOCK_RECORD
   5
7A
 100
AcDbSymbolTableRecord
 100
AcDbBlockTableRecord
   2
_DOTBLANK
   0
BLOCK_RECORD
   5
7B
 100
AcDbSymbolTableRecord
 100
AcDbBlockTableRecord
   2
_DOTSMALL
   0
BLOCK_RECORD
   5
7C
 100
AcDbSymbolTableRecord
 100
AcDbBlockTableRecord
   2
_INTEGRAL
   0
BLOCK_RECORD
   5
7D
 100
AcDbSymbolTableRecord
 100
AcDbBlockTableRecord
   2
_NONE
   0
BLOCK_RECORD
   5
7E
 100
AcDbSymbolTableRecord
 100
AcDbBlockTableRecord
   2
_OBLIQUE
   0
BLOCK_RECORD
   5
7F
 100
AcDbSymbolTableRecord
 100
AcDbBlockTableRecord
   2
_OPEN
   0
BLOCK_RECORD
   5
80
 100
AcDbSymbolTableRecord
 100
AcDbBlockTableRecord
   2
_OPEN30
   0
BLOCK_RECORD
   5
81
 100
AcDbSymbolTableRecord
 100
AcDbBlockTableRecord
   2
_OPEN90
   0
BLOCK_RECORD
   5
82
 100
AcDbSymbolTableRecord
 100
AcDbBlockTableRecord
   2
_ORIGIN
   0
ENDTAB
   0
ENDSEC
  0
SECTION
  2
BLOCKS
  0
BLOCK
  5
19
100
AcDbEntity
  8
0
100
AcDbBlockBegin
  2
*MODEL_SPACE
 70
     0
 10
0.0
 20
0.0
 30
0.0
  3
*MODEL_SPACE
  1

  0
ENDBLK
  5
1A
100
AcDbEntity
  8
0
100
AcDbBlockEnd
  0
BLOCK
  5
16
100
AcDbEntity
 67
     1
  8
0
100
AcDbBlockBegin
  2
*PAPER_SPACE
 70
     0
 10
0.0
 20
0.0
 30
0.0
  3
*PAPER_SPACE
  1

  0
ENDBLK
  5
17
100
AcDbEntity
 67
     1
  8
0
100
AcDbBlockEnd
   0
BLOCK
   5
83
 100
AcDbEntity
   8
0
 100
AcDbBlockBegin
   2
_ARCHTICK
  70
0
  10
0.0
  20
0.0
  30
0.0
   3
_ARCHTICK
   0
POLYLINE
   5
84
 100
AcDbEntity
   8
0
 370
-2
   6
BYBLOCK
  62
0
 100
AcDb2dPolyline
  66
1
  10
0.0
  20
0.0
  30
0.0
  70
1
  40
 0.15000000000000
  41
 0.15000000000000
   0
VERTEX
   5
85
 100
AcDbEntity
   8
0
   6
BYBLOCK
  62
0
 100
AcDbVertex
 100
AcDb2dVertex
  10
-0.50000000000000
  20
-0.50000000000000
  30
0.0
  40
 0.15000000000000
  41
 0.15000000000000
   0
VERTEX
   5
86
 100
AcDbEntity
   8
0
   6
BYBLOCK
  62
0
 100
AcDbVertex
 100
AcDb2dVertex
  10
 0.50000000000000
  20
 0.50000000000000
  30
0.0
  40
 0.15000000000000
  41
 0.15000000000000
   0
SEQEND
   5
87
 100
AcDbEntity
   8
0
   6
BYBLOCK
  62
0
   0
ENDBLK
   5
88
 100
AcDbEntity
   8
0
 100
AcDbBlockEnd
   0
BLOCK
   5
89
 100
AcDbEntity
   8
0
 100
AcDbBlockBegin
   2
_OBLIQUE
  70
0
  10
0.0
  20
0.0
  30
0.0
   3
_OBLIQUE
   0
LINE
   5
8A
 100
AcDbEntity
   8
0
 370
-2
 100
AcDbLine
   6
BYBLOCK
  62
0
  10
-0.50000000000000
  20
-0.50000000000000
  30
0.0
  11
 0.50000000000000
  21
 0.50000000000000
  31
0.0
   0
ENDBLK
   5
8B
 100
AcDbEntity
   8
0
 100
AcDbBlockEnd
   0
BLOCK
   5
8C
 100
AcDbEntity
   8
0
 100
AcDbBlockBegin
   2
_BOXBLANK
  70
0
  10
0.0
  20
0.0
  30
0.0
   3
_BOXBLANK
   0
LINE
   5
8D
 100
AcDbEntity
   8
0
 370
-2
 100
AcDbLine
   6
BYBLOCK
  62
0
  10
-0.50000000000000
  20
-0.50000000000000
  30
0.0
  11
 0.50000000000000
  21
-0.50000000000000
  31
0.0
   0
LINE
   5
8E
 100
AcDbEntity
   8
0
 370
-2
 100
AcDbLine
   6
BYBLOCK
  62
0
  10
 0.50000000000000
  20
-0.50000000000000
  30
0.0
  11
 0.50000000000000
  21
 0.50000000000000
  31
0.0
   0
LINE
   5
8F
 100
AcDbEntity
   8
0
 370
-2
 100
AcDbLine
   6
BYBLOCK
  62
0
  10
 0.50000000000000
  20
 0.50000000000000
  30
0.0
  11
-0.50000000000000
  21
 0.50000000000000
  31
0.0
   0
LINE
   5
90
 100
AcDbEntity
   8
0
 370
-2
 100
AcDbLine
   6
BYBLOCK
  62
0
  10
-0.50000000000000
  20
 0.50000000000000
  30
0.0
  11
-0.50000000000000
  21
-0.50000000000000
  31
0.0
   0
LINE
   5
91
 100
AcDbEntity
   8
0
 370
-2
 100
AcDbLine
   6
BYBLOCK
  62
0
  10
-0.50000000000000
  20
0.0
  30
0.0
  11
-1.0000000000000
  21
0.0
  31
0.0
   0
ENDBLK
   5
92
 100
AcDbEntity
   8
0
 100
AcDbBlockEnd
   0
BLOCK
   5
93
 100
AcDbEntity
   8
0
 100
AcDbBlockBegin
   2
_BOXFILLED
  70
0
  10
0.0
  20
0.0
  30
0.0
   3
_BOXFILLED
   0
SOLID
   5
94
 100
AcDbEntity
   8
0
 100
AcDbTrace
   6
BYBLOCK
  62
0
  10
-0.50000000000000
  20
 0.50000000000000
  30
0.0
  11
 0.50000000000000
  21
 0.50000000000000
  31
0.0
  12
-0.50000000000000
  22
-0.50000000000000
  32
0.0
  13
 0.50000000000000
  23
-0.50000000000000
  33
0.0
   0
LINE
   5
95
 100
AcDbEntity
   8
0
 370
-2
 100
AcDbLine
   6
BYBLOCK
  62
0
  10
-0.50000000000000
  20
0.0
  30
0.0
  11
-1.0000000000000
  21
0.0
  31
0.0
   0
ENDBLK
   5
96
 100
AcDbEntity
   8
0
 100
AcDbBlockEnd
   0
BLOCK
   5
97
 100
AcDbEntity
   8
0
 100
AcDbBlockBegin
   2
_CLOSED
  70
0
  10
0.0
  20
0.0
  30
0.0
   3
_CLOSED
   0
LINE
   5
98
 100
AcDbEntity
   8
0
 370
-2
 100
AcDbLine
   6
BYBLOCK
  62
0
  10
-1.0000000000000
  20
 0.16666666666667
  30
0.0
  11
0.0
  21
0.0
  31
0.0
   0
LINE
   5
99
 100
AcDbEntity
   8
0
 370
-2
 100
AcDbLine
   6
BYBLOCK
  62
0
  10
0.0
  20
0.0
  30
0.0
  11
-1.0000000000000
  21
-0.16666666666667
  31
0.0
   0
LINE
   5
9A
 100
AcDbEntity
   8
0
 370
-2
 100
AcDbLine
   6
BYBLOCK
  62
0
  10
-1.0000000000000
  20
 0.16666666666667
  30
0.0
  11
-1.0000000000000
  21
-0.16666666666667
  31
0.0
   0
LINE
   5
9B
 100
AcDbEntity
   8
0
 370
-2
 100
AcDbLine
   6
BYBLOCK
  62
0
  10
0.0
  20
0.0
  30
0.0
  11
-1.0000000000000
  21
0.0
  31
0.0
   0
ENDBLK
   5
9C
 100
AcDbEntity
   8
0
 100
AcDbBlockEnd
   0
BLOCK
   5
9D
 100
AcDbEntity
   8
0
 100
AcDbBlockBegin
   2
_OPEN
  70
0
  10
0.0
  20
0.0
  30
0.0
   3
_OPEN
   0
LINE
   5
9E
 100
AcDbEntity
   8
0
 370
-2
 100
AcDbLine
   6
BYBLOCK
  62
0
  10
-1.0000000000000
  20
 0.16666666666667
  30
0.0
  11
0.0
  21
0.0
  31
0.0
   0
LINE
   5
9F
 100
AcDbEntity
   8
0
 370
-2
 100
AcDbLine
   6
BYBLOCK
  62
0
  10
0.0
  20
0.0
  30
0.0
  11
-1.0000000000000
  21
-0.16666666666667
  31
0.0
   0
LINE
   5
A0
 100
AcDbEntity
   8
0
 370
-2
 100
AcDbLine
   6
BYBLOCK
  62
0
  10
0.0
  20
0.0
  30
0.0
  11
-1.0000000000000
  21
0.0
  31
0.0
   0
ENDBLK
   5
A1
 100
AcDbEntity
   8
0
 100
AcDbBlockEnd
   0
BLOCK
   5
A2
 100
AcDbEntity
   8
0
 100
AcDbBlockBegin
   2
_OPEN30
  70
0
  10
0.0
  20
0.0
  30
0.0
   3
_OPEN30
   0
LINE
   5
A3
 100
AcDbEntity
   8
0
 370
-2
 100
AcDbLine
   6
BYBLOCK
  62
0
  10
-1.0000000000000
  20
 0.26794919243110
  30
0.0
  11
0.0
  21
0.0
  31
0.0
   0
LINE
   5
A4
 100
AcDbEntity
   8
0
 370
-2
 100
AcDbLine
   6
BYBLOCK
  62
0
  10
0.0
  20
0.0
  30
0.0
  11
-1.0000000000000
  21
-0.26794919243110
  31
0.0
   0
LINE
   5
A5
 100
AcDbEntity
   8
0
 370
-2
 100
AcDbLine
   6
BYBLOCK
  62
0
  10
0.0
  20
0.0
  30
0.0
  11
-1.0000000000000
  21
0.0
  31
0.0
   0
ENDBLK
   5
A6
 100
AcDbEntity
   8
0
 100
AcDbBlockEnd
   0
BLOCK
   5
A7
 100
AcDbEntity
   8
0
 100
AcDbBlockBegin
   2
_OPEN90
  70
0
  10
0.0
  20
0.0
  30
0.0
   3
_OPEN90
   0
LINE
   5
A8
 100
AcDbEntity
   8
0
 370
-2
 100
AcDbLine
   6
BYBLOCK
  62
0
  10
-0.50000000000000
  20
 0.50000000000000
  30
0.0
  11
0.0
  21
0.0
  31
0.0
   0
LINE
   5
A9
 100
AcDbEntity
   8
0
 370
-2
 100
AcDbLine
   6
BYBLOCK
  62
0
  10
0.0
  20
0.0
  30
0.0
  11
-0.50000000000000
  21
-0.50000000000000
  31
0.0
   0
LINE
   5
AA
 100
AcDbEntity
   8
0
 370
-2
 100
AcDbLine
   6
BYBLOCK
  62
0
  10
0.0
  20
0.0
  30
0.0
  11
-1.0000000000000
  21
0.0
  31
0.0
   0
ENDBLK
   5
AB
 100
AcDbEntity
   8
0
 100
AcDbBlockEnd
   0
BLOCK
   5
AC
 100
AcDbEntity
   8
0
 100
AcDbBlockBegin
   2
_CLOSEDBLANK
  70
0
  10
0.0
  20
0.0
  30
0.0
   3
_CLOSEDBLANK
   0
LINE
   5
AD
 100
AcDbEntity
   8
0
 370
-2
 100
AcDbLine
   6
BYBLOCK
  62
0
  10
-1.0000000000000
  20
 0.16666666666667
  30
0.0
  11
0.0
  21
0.0
  31
0.0
   0
LINE
   5
AE
 100
AcDbEntity
   8
0
 370
-2
 100
AcDbLine
   6
BYBLOCK
  62
0
  10
0.0
  20
0.0
  30
0.0
  11
-1.0000000000000
  21
-0.16666666666667
  31
0.0
   0
LINE
   5
AF
 100
AcDbEntity
   8
0
 370
-2
 100
AcDbLine
   6
BYBLOCK
  62
0
  10
-1.0000000000000
  20
 0.16666666666667
  30
0.0
  11
-1.0000000000000
  21
-0.16666666666667
  31
0.0
   0
ENDBLK
   5
B0
 100
AcDbEntity
   8
0
 100
AcDbBlockEnd
   0
BLOCK
   5
B1
 100
AcDbEntity
   8
0
 100
AcDbBlockBegin
   2
_DOT
  70
0
  10
0.0
  20
0.0
  30
0.0
   3
_DOT
   0
POLYLINE
   5
B2
 100
AcDbEntity
   8
0
 370
-2
   6
BYBLOCK
  62
0
 100
AcDb2dPolyline
  66
1
  10
0.0
  20
0.0
  30
0.0
  70
1
  40
 0.50000000000000
  41
 0.50000000000000
   0
VERTEX
   5
B3
 100
AcDbEntity
   8
0
   6
BYBLOCK
  62
0
 100
AcDbVertex
 100
AcDb2dVertex
  10
-0.25000000000000
  20
0.0
  30
0.0
  42
 1.0000000000000
  40
 0.50000000000000
  41
 0.50000000000000
   0
VERTEX
   5
B4
 100
AcDbEntity
   8
0
   6
BYBLOCK
  62
0
 100
AcDbVertex
 100
AcDb2dVertex
  10
 0.25000000000000
  20
0.0
  30
0.0
  42
 1.0000000000000
  40
 0.50000000000000
  41
 0.50000000000000
   0
SEQEND
   5
B5
 100
AcDbEntity
   8
0
   6
BYBLOCK
  62
0
   0
LINE
   5
B6
 100
AcDbEntity
   8
0
 370
-2
 100
AcDbLine
   6
BYBLOCK
  62
0
  10
-0.50000000000000
  20
0.0
  30
0.0
  11
-1.0000000000000
  21
0.0
  31
0.0
   0
ENDBLK
   5
B7
 100
AcDbEntity
   8
0
 100
AcDbBlockEnd
   0
BLOCK
   5
B8
 100
AcDbEntity
   8
0
 100
AcDbBlockBegin
   2
_DOTSMALL
  70
0
  10
0.0
  20
0.0
  30
0.0
   3
_DOTSMALL
   0
POLYLINE
   5
B9
 100
AcDbEntity
   8
0
 370
-2
   6
BYBLOCK
  62
0
 100
AcDb2dPolyline
  66
1
  10
0.0
  20
0.0
  30
0.0
  70
1
  40
 0.50000000000000
  41
 0.50000000000000
   0
VERTEX
   5
BA
 100
AcDbEntity
   8
0
   6
BYBLOCK
  62
0
 100
AcDbVertex
 100
AcDb2dVertex
  10
-0.62500000000000E-1
  20
0.0
  30
0.0
  42
 1.0000000000000
  40
 0.50000000000000
  41
 0.50000000000000
   0
VERTEX
   5
BB
 100
AcDbEntity
   8
0
   6
BYBLOCK
  62
0
 100
AcDbVertex
 100
AcDb2dVertex
  10
 0.62500000000000E-1
  20
0.0
  30
0.0
  42
 1.0000000000000
  40
 0.50000000000000
  41
 0.50000000000000
   0
SEQEND
   5
BC
 100
AcDbEntity
   8
0
   6
BYBLOCK
  62
0
   0
ENDBLK
   5
BD
 100
AcDbEntity
   8
0
 100
AcDbBlockEnd
   0
BLOCK
   5
BE
 100
AcDbEntity
   8
0
 100
AcDbBlockBegin
   2
_DATUMBLANK
  70
0
  10
0.0
  20
0.0
  30
0.0
   3
_DATUMBLANK
   0
LINE
   5
BF
 100
AcDbEntity
   8
0
 370
-2
 100
AcDbLine
   6
BYBLOCK
  62
0
  10
0.0
  20
 0.57735027000000
  30
0.0
  11
-1.0000000000000
  21
0.0
  31
0.0
   0
LINE
   5
C0
 100
AcDbEntity
   8
0
 370
-2
 100
AcDbLine
   6
BYBLOCK
  62
0
  10
-1.0000000000000
  20
0.0
  30
0.0
  11
0.0
  21
-0.57735027000000
  31
0.0
   0
LINE
   5
C1
 100
AcDbEntity
   8
0
 370
-2
 100
AcDbLine
   6
BYBLOCK
  62
0
  10
0.0
  20
-0.57735027000000
  30
0.0
  11
0.0
  21
 0.57735027000000
  31
0.0
   0
ENDBLK
   5
C2
 100
AcDbEntity
   8
0
 100
AcDbBlockEnd
   0
BLOCK
   5
C3
 100
AcDbEntity
   8
0
 100
AcDbBlockBegin
   2
_DATUMFILLED
  70
0
  10
0.0
  20
0.0
  30
0.0
   3
_DATUMFILLED
   0
SOLID
   5
C4
 100
AcDbEntity
   8
0
 100
AcDbTrace
   6
BYBLOCK
  62
0
  10
0.0
  20
 0.57735027000000
  30
0.0
  11
-1.0000000000000
  21
0.0
  31
0.0
  12
0.0
  22
-0.57735027000000
  32
0.0
  13
0.0
  23
-0.57735027000000
  33
0.0
   0
ENDBLK
   5
C5
 100
AcDbEntity
   8
0
 100
AcDbBlockEnd
   0
BLOCK
   5
C6
 100
AcDbEntity
   8
0
 100
AcDbBlockBegin
   2
_ORIGIN
  70
0
  10
0.0
  20
0.0
  30
0.0
   3
_ORIGIN
   0
CIRCLE
   5
C7
 100
AcDbEntity
   8
0
 370
-2
 100
AcDbCircle
   6
BYBLOCK
  62
0
  10
0.0
  20
0.0
  30
0.0
  40
 0.50000000000000
   0
LINE
   5
C8
 100
AcDbEntity
   8
0
 370
-2
 100
AcDbLine
   6
BYBLOCK
  62
0
  10
0.0
  20
0.0
  30
0.0
  11
-1.0000000000000
  21
0.0
  31
0.0
   0
ENDBLK
   5
C9
 100
AcDbEntity
   8
0
 100
AcDbBlockEnd
   0
BLOCK
   5
CA
 100
AcDbEntity
   8
0
 100
AcDbBlockBegin
   2
_NONE
  70
0
  10
0.0
  20
0.0
  30
0.0
   3
_NONE
   0
CIRCLE
   5
CB
 100
AcDbEntity
   8
0
 370
-2
 100
AcDbCircle
   6
BYBLOCK
  62
0
  10
0.0
  20
0.0
  30
0.0
  40
 0.25000000000000
   0
ENDBLK
   5
CC
 100
AcDbEntity
   8
0
 100
AcDbBlockEnd
   0
BLOCK
   5
CD
 100
AcDbEntity
   8
0
 100
AcDbBlockBegin
   2
_DOTBLANK
  70
0
  10
0.0
  20
0.0
  30
0.0
   3
_DOTBLANK
   0
CIRCLE
   5
CE
 100
AcDbEntity
   8
0
 370
-2
 100
AcDbCircle
   6
BYBLOCK
  62
0
  10
0.0
  20
0.0
  30
0.0
  40
 0.50000000000000
   0
LINE
   5
CF
 100
AcDbEntity
   8
0
 370
-2
 100
AcDbLine
   6
BYBLOCK
  62
0
  10
-0.50000000000000
  20
0.0
  30
0.0
  11
-1.0000000000000
  21
0.0
  31
0.0
   0
ENDBLK
   5
D0
 100
AcDbEntity
   8
0
 100
AcDbBlockEnd
   0
BLOCK
   5
D1
 100
AcDbEntity
   8
0
 100
AcDbBlockBegin
   2
_INTEGRAL
  70
0
  10
0.0
  20
0.0
  30
0.0
   3
_INTEGRAL
   0
ARC
   5
D2
 100
AcDbEntity
   8
0
 370
-2
   6
BYBLOCK
  62
0
 100
AcDbCircle
  10
 0.44488800000000
  20
-0.91335000000000E-1
  30
0.0
  40
 0.45416700000000
 100
AcDbArc
  50
 102.00000000000
  51
 168.00000000000
   0
ARC
   5
D3
 100
AcDbEntity
   8
0
 370
-2
   6
BYBLOCK
  62
0
 100
AcDbCircle
  10
-0.44488800000000
  20
 0.91335000000000E-1
  30
0.0
  40
 0.45416700000000
 100
AcDbArc
  50
 282.00000000000
  51
 348.00000000000
   0
ENDBLK
   5
D4
 100
AcDbEntity
   8
0
 100
AcDbBlockEnd
   0
BLOCK
   5
D5
 100
AcDbEntity
   8
0
 100
AcDbBlockBegin
   2
*D1
  70
65
  10
0.0
  20
0.0
  30
0.0
   3
*D1
   0
LINE
   5
D6
 100
AcDbEntity
   8
LEVEL001
 370
15
 100
AcDbLine
   6
CONTINUOUS
  62
8
  10
 903.16405839638
  20
 914.86666666667
  30
0.0
  11
 903.16405839638
  21
 1032.8666666667
  31
0.0
   0
LINE
   5
D7
 100
AcDbEntity
   8
LEVEL001
 370
15
 100
AcDbLine
   6
CONTINUOUS
  62
8
  10
 903.16405839638
  20
 1028.8666666667
  30
0.0
  11
 953.16405839638
  21
 1028.8666666667
  31
0.0
   0
LINE
   5
D8
 100
AcDbEntity
   8
LEVEL001
 370
15
 100
AcDbLine
   6
CONTINUOUS
  62
8
  10
 1003.1640583964
  20
 1028.8666666667
  30
0.0
  11
 953.16405839638
  21
 1028.8666666667
  31
0.0
   0
SOLID
   5
D9
 100
AcDbEntity
   8
LEVEL001
 100
AcDbTrace
   6
CONTINUOUS
  62
8
  10
 903.16405839638
  20
 1028.8666666667
  30
0.0
  11
 911.16405839638
  21
 1027.4560508210
  31
0.0
  12
 911.16405839638
  22
 1030.2772825123
  32
0.0
  13
 911.16405839638
  23
 1030.2772825123
  33
0.0
   0
SOLID
   5
DA
 100
AcDbEntity
   8
LEVEL001
 100
AcDbTrace
   6
CONTINUOUS
  62
8
  10
 1003.1640583964
  20
 1028.8666666667
  30
0.0
  11
 995.16405839637
  21
 1030.2772825123
  31
0.0
  12
 995.16405839637
  22
 1027.4560508210
  32
0.0
  13
 995.16405839637
  23
 1027.4560508210
  33
0.0
   0
MTEXT
   5
DB
 100
AcDbEntity
   8
LEVEL001
 370
15
  62
8
 100
AcDbMText
  10
 953.16405839638
  20
 1032.8666666667
  30
0.0
  40
 10.000000000000
  41
0.0
  71
8
  72
1
   1
\A1;100
   7
GMM002
   0
ENDBLK
   5
DC
 100
AcDbEntity
   8
0
 100
AcDbBlockEnd
   0
BLOCK
   5
DD
 100
AcDbEntity
   8
0
 100
AcDbBlockBegin
   2
*D2
  70
65
  10
0.0
  20
0.0
  30
0.0
   3
*D2
   0
LINE
   5
DE
 100
AcDbEntity
   8
LEVEL001
 370
15
 100
AcDbLine
   6
CONTINUOUS
  62
8
  10
 1003.1640583964
  20
 1012.8666666667
  30
0.0
  11
 1003.1640583964
  21
 1032.8666666667
  31
0.0
   0
LINE
   5
DF
 100
AcDbEntity
   8
LEVEL001
 370
15
 100
AcDbLine
   6
CONTINUOUS
  62
8
  10
 1003.1640583964
  20
 1028.8666666667
  30
0.0
  11
 1005.6640583964
  21
 1028.8666666667
  31
0.0
   0
LINE
   5
E0
 100
AcDbEntity
   8
LEVEL001
 370
15
 100
AcDbLine
   6
CONTINUOUS
  62
8
  10
 1008.1640583964
  20
 1028.8666666667
  30
0.0
  11
 1005.6640583964
  21
 1028.8666666667
  31
0.0
   0
MTEXT
   5
E1
 100
AcDbEntity
   8
LEVEL001
 370
15
  62
8
 100
AcDbMText
  10
 1005.6640583964
  20
 1032.8666666667
  30
0.0
  40
 10.000000000000
  41
0.0
  71
8
  72
1
   1
\A1;5
   7
GMM002
   0
ENDBLK
   5
E2
 100
AcDbEntity
   8
0
 100
AcDbBlockEnd
   0
BLOCK
   5
E3
 100
AcDbEntity
   8
0
 100
AcDbBlockBegin
   2
*D3
  70
65
  10
0.0
  20
0.0
  30
0.0
   3
*D3
   0
LINE
   5
E4
 100
AcDbEntity
   8
LEVEL001
 370
15
 100
AcDbLine
   6
CONTINUOUS
  62
8
  10
 1008.1640583964
  20
 1007.8666666667
  30
0.0
  11
 1008.1640583964
  21
 1032.8666666667
  31
0.0
   0
LINE
   5
E5
 100
AcDbEntity
   8
LEVEL001
 370
15
 100
AcDbLine
   6
CONTINUOUS
  62
8
  10
 1038.1640583964
  20
 994.86666666667
  30
0.0
  11
 1038.1640583964
  21
 1032.8666666667
  31
0.0
   0
LINE
   5
E6
 100
AcDbEntity
   8
LEVEL001
 370
15
 100
AcDbLine
   6
CONTINUOUS
  62
8
  10
 1008.1640583964
  20
 1028.8666666667
  30
0.0
  11
 1023.1640583964
  21
 1028.8666666667
  31
0.0
   0
LINE
   5
E7
 100
AcDbEntity
   8
LEVEL001
 370
15
 100
AcDbLine
   6
CONTINUOUS
  62
8
  10
 1038.1640583964
  20
 1028.8666666667
  30
0.0
  11
 1023.1640583964
  21
 1028.8666666667
  31
0.0
   0
SOLID
   5
E8
 100
AcDbEntity
   8
LEVEL001
 100
AcDbTrace
   6
CONTINUOUS
  62
8
  10
 1008.1640583964
  20
 1028.8666666667
  30
0.0
  11
 1016.1640583964
  21
 1027.4560508210
  31
0.0
  12
 1016.1640583964
  22
 1030.2772825123
  32
0.0
  13
 1016.1640583964
  23
 1030.2772825123
  33
0.0
   0
SOLID
   5
E9
 100
AcDbEntity
   8
LEVEL001
 100
AcDbTrace
   6
CONTINUOUS
  62
8
  10
 1038.1640583964
  20
 1028.8666666667
  30
0.0
  11
 1030.1640583964
  21
 1030.2772825123
  31
0.0
  12
 1030.1640583964
  22
 1027.4560508210
  32
0.0
  13
 1030.1640583964
  23
 1027.4560508210
  33
0.0
   0
MTEXT
   5
EA
 100
AcDbEntity
   8
LEVEL001
 370
15
  62
8
 100
AcDbMText
  10
 1023.1640583964
  20
 1032.8666666667
  30
0.0
  40
 10.000000000000
  41
0.0
  71
8
  72
1
   1
\A1;30
   7
GMM002
   0
ENDBLK
   5
EB
 100
AcDbEntity
   8
0
 100
AcDbBlockEnd
   0
BLOCK
   5
EC
 100
AcDbEntity
   8
0
 100
AcDbBlockBegin
   2
*D4
  70
65
  10
0.0
  20
0.0
  30
0.0
   3
*D4
   0
LINE
   5
ED
 100
AcDbEntity
   8
LEVEL001
 370
15
 100
AcDbLine
   6
CONTINUOUS
  62
8
  10
 917.16405839638
  20
 873.86666666667
  30
0.0
  11
 879.16405839638
  21
 873.86666666667
  31
0.0
   0
LINE
   5
EE
 100
AcDbEntity
   8
LEVEL001
 370
15
 100
AcDbLine
   6
CONTINUOUS
  62
8
  10
 883.16405839638
  20
 873.86666666667
  30
0.0
  11
 883.16405839638
  21
 888.86666666667
  31
0.0
   0
LINE
   5
EF
 100
AcDbEntity
   8
LEVEL001
 370
15
 100
AcDbLine
   6
CONTINUOUS
  62
8
  10
 883.16405839638
  20
 903.86666666667
  30
0.0
  11
 883.16405839638
  21
 888.86666666667
  31
0.0
   0
SOLID
   5
F0
 100
AcDbEntity
   8
LEVEL001
 100
AcDbTrace
   6
CONTINUOUS
  62
8
  10
 883.16405839638
  20
 873.86666666667
  30
0.0
  11
 884.57467424204
  21
 881.86666666667
  31
0.0
  12
 881.75344255071
  22
 881.86666666667
  32
0.0
  13
 881.75344255071
  23
 881.86666666667
  33
0.0
   0
SOLID
   5
F1
 100
AcDbEntity
   8
LEVEL001
 100
AcDbTrace
   6
CONTINUOUS
  62
8
  10
 883.16405839638
  20
 903.86666666667
  30
0.0
  11
 881.75344255071
  21
 895.86666666667
  31
0.0
  12
 884.57467424204
  22
 895.86666666667
  32
0.0
  13
 884.57467424204
  23
 895.86666666667
  33
0.0
   0
MTEXT
   5
F2
 100
AcDbEntity
   8
LEVEL001
 370
15
  62
8
 100
AcDbMText
  10
 879.16405839638
  20
 888.86666666667
  30
0.0
  40
 10.000000000000
  41
0.0
  71
8
  72
1
   1
\A1;30
   7
GMM002
  11
0.0
  21
 1.0000000000000
  31
0.0
   0
ENDBLK
   5
F3
 100
AcDbEntity
   8
0
 100
AcDbBlockEnd
   0
BLOCK
   5
F4
 100
AcDbEntity
   8
0
 100
AcDbBlockBegin
   2
*D5
  70
65
  10
0.0
  20
0.0
  30
0.0
   3
*D5
   0
LINE
   5
F5
 100
AcDbEntity
   8
LEVEL001
 370
15
 100
AcDbLine
   6
CONTINUOUS
  62
8
  10
 904.16405839638
  20
 903.86666666667
  30
0.0
  11
 879.16405839638
  21
 903.86666666667
  31
0.0
   0
LINE
   5
F6
 100
AcDbEntity
   8
LEVEL001
 370
15
 100
AcDbLine
   6
CONTINUOUS
  62
8
  10
 883.16405839638
  20
 903.86666666667
  30
0.0
  11
 883.16405839638
  21
 906.36666666667
  31
0.0
   0
LINE
   5
F7
 100
AcDbEntity
   8
LEVEL001
 370
15
 100
AcDbLine
   6
CONTINUOUS
  62
8
  10
 883.16405839638
  20
 908.86666666667
  30
0.0
  11
 883.16405839638
  21
 906.36666666667
  31
0.0
   0
MTEXT
   5
F8
 100
AcDbEntity
   8
LEVEL001
 370
15
  62
8
 100
AcDbMText
  10
 879.16405839638
  20
 906.36666666667
  30
0.0
  40
 10.000000000000
  41
0.0
  71
8
  72
1
   1
\A1;5
   7
GMM002
  11
0.0
  21
 1.0000000000000
  31
0.0
   0
ENDBLK
   5
F9
 100
AcDbEntity
   8
0
 100
AcDbBlockEnd
   0
BLOCK
   5
FA
 100
AcDbEntity
   8
0
 100
AcDbBlockBegin
   2
*D6
  70
65
  10
0.0
  20
0.0
  30
0.0
   3
*D6
   0
LINE
   5
FB
 100
AcDbEntity
   8
LEVEL001
 370
15
 100
AcDbLine
   6
CONTINUOUS
  62
8
  10
 899.16405839638
  20
 908.86666666667
  30
0.0
  11
 879.16405839638
  21
 908.86666666667
  31
0.0
   0
LINE
   5
FC
 100
AcDbEntity
   8
LEVEL001
 370
15
 100
AcDbLine
   6
CONTINUOUS
  62
8
  10
 999.16405839637
  20
 1008.8666666667
  30
0.0
  11
 879.16405839638
  21
 1008.8666666667
  31
0.0
   0
LINE
   5
FD
 100
AcDbEntity
   8
LEVEL001
 370
15
 100
AcDbLine
   6
CONTINUOUS
  62
8
  10
 883.16405839638
  20
 908.86666666667
  30
0.0
  11
 883.16405839638
  21
 958.86666666667
  31
0.0
   0
LINE
   5
FE
 100
AcDbEntity
   8
LEVEL001
 370
15
 100
AcDbLine
   6
CONTINUOUS
  62
8
  10
 883.16405839638
  20
 1008.8666666667
  30
0.0
  11
 883.16405839638
  21
 958.86666666667
  31
0.0
   0
SOLID
   5
FF
 100
AcDbEntity
   8
LEVEL001
 100
AcDbTrace
   6
CONTINUOUS
  62
8
  10
 883.16405839638
  20
 908.86666666667
  30
0.0
  11
 884.57467424204
  21
 916.86666666667
  31
0.0
  12
 881.75344255071
  22
 916.86666666667
  32
0.0
  13
 881.75344255071
  23
 916.86666666667
  33
0.0
   0
SOLID
   5
100
 100
AcDbEntity
   8
LEVEL001
 100
AcDbTrace
   6
CONTINUOUS
  62
8
  10
 883.16405839638
  20
 1008.8666666667
  30
0.0
  11
 881.75344255071
  21
 1000.8666666667
  31
0.0
  12
 884.57467424204
  22
 1000.8666666667
  32
0.0
  13
 884.57467424204
  23
 1000.8666666667
  33
0.0
   0
MTEXT
   5
101
 100
AcDbEntity
   8
LEVEL001
 370
15
  62
8
 100
AcDbMText
  10
 879.16405839638
  20
 958.86666666667
  30
0.0
  40
 10.000000000000
  41
0.0
  71
8
  72
1
   1
\A1;100
   7
GMM002
  11
0.0
  21
 1.0000000000000
  31
0.0
   0
ENDBLK
   5
102
 100
AcDbEntity
   8
0
 100
AcDbBlockEnd
   0
BLOCK
   5
103
 100
AcDbEntity
   8
0
 100
AcDbBlockBegin
   2
*D7
  70
65
  10
0.0
  20
0.0
  30
0.0
   3
*D7
   0
LINE
   5
104
 100
AcDbEntity
   8
LEVEL001
 370
15
 100
AcDbLine
   6
CONTINUOUS
  62
8
  10
 1012.1640583964
  20
 908.86666666667
  30
0.0
  11
 1074.0542397661
  21
 908.86666666667
  31
0.0
   0
LINE
   5
105
 100
AcDbEntity
   8
LEVEL001
 370
15
 100
AcDbLine
   6
CONTINUOUS
  62
8
  10
 1012.1640583964
  20
 1003.8666666667
  30
0.0
  11
 1074.0542397661
  21
 1003.8666666667
  31
0.0
   0
LINE
   5
106
 100
AcDbEntity
   8
LEVEL001
 370
15
 100
AcDbLine
   6
CONTINUOUS
  62
8
  10
 1070.0542397661
  20
 908.86666666667
  30
0.0
  11
 1070.0542397661
  21
 956.36666666667
  31
0.0
   0
LINE
   5
107
 100
AcDbEntity
   8
LEVEL001
 370
15
 100
AcDbLine
   6
CONTINUOUS
  62
8
  10
 1070.0542397661
  20
 1003.8666666667
  30
0.0
  11
 1070.0542397661
  21
 956.36666666667
  31
0.0
   0
SOLID
   5
108
 100
AcDbEntity
   8
LEVEL001
 100
AcDbTrace
   6
CONTINUOUS
  62
8
  10
 1070.0542397661
  20
 908.86666666667
  30
0.0
  11
 1071.4648556118
  21
 916.86666666667
  31
0.0
  12
 1068.6436239204
  22
 916.86666666667
  32
0.0
  13
 1068.6436239204
  23
 916.86666666667
  33
0.0
   0
SOLID
   5
109
 100
AcDbEntity
   8
LEVEL001
 100
AcDbTrace
   6
CONTINUOUS
  62
8
  10
 1070.0542397661
  20
 1003.8666666667
  30
0.0
  11
 1068.6436239204
  21
 995.86666666667
  31
0.0
  12
 1071.4648556118
  22
 995.86666666667
  32
0.0
  13
 1071.4648556118
  23
 995.86666666667
  33
0.0
   0
MTEXT
   5
10A
 100
AcDbEntity
   8
LEVEL001
 370
15
  62
8
 100
AcDbMText
  10
 1066.0542397661
  20
 956.36666666667
  30
0.0
  40
 10.000000000000
  41
0.0
  71
8
  72
1
   1
\A1;94
   7
GMM002
  11
0.0
  21
 1.0000000000000
  31
0.0
   0
ENDBLK
   5
10B
 100
AcDbEntity
   8
0
 100
AcDbBlockEnd
   0
BLOCK
   5
10C
 100
AcDbEntity
   8
0
 100
AcDbBlockBegin
   2
*D8
  70
65
  10
0.0
  20
0.0
  30
0.0
   3
*D8
   0
LINE
   5
10D
 100
AcDbEntity
   8
LEVEL001
 370
15
 100
AcDbLine
   6
CONTINUOUS
  62
8
  10
 727.24788240462
  20
 143.16337448559
  30
0.0
  11
 727.24788240462
  21
 226.13513013895
  31
0.0
   0
LINE
   5
10E
 100
AcDbEntity
   8
LEVEL001
 370
15
 100
AcDbLine
   6
CONTINUOUS
  62
8
  10
 767.24788240462
  20
 143.16337448559
  30
0.0
  11
 767.24788240462
  21
 226.13513013895
  31
0.0
   0
LINE
   5
10F
 100
AcDbEntity
   8
LEVEL001
 370
15
 100
AcDbLine
   6
CONTINUOUS
  62
8
  10
 727.24788240462
  20
 222.13513013895
  30
0.0
  11
 747.24788240462
  21
 222.13513013895
  31
0.0
   0
LINE
   5
110
 100
AcDbEntity
   8
LEVEL001
 370
15
 100
AcDbLine
   6
CONTINUOUS
  62
8
  10
 767.24788240462
  20
 222.13513013895
  30
0.0
  11
 747.24788240462
  21
 222.13513013895
  31
0.0
   0
SOLID
   5
111
 100
AcDbEntity
   8
LEVEL001
 100
AcDbTrace
   6
CONTINUOUS
  62
8
  10
 727.24788240462
  20
 222.13513013895
  30
0.0
  11
 735.24788240462
  21
 220.72451429328
  31
0.0
  12
 735.24788240462
  22
 223.54574598462
  32
0.0
  13
 735.24788240462
  23
 223.54574598462
  33
0.0
   0
SOLID
   5
112
 100
AcDbEntity
   8
LEVEL001
 100
AcDbTrace
   6
CONTINUOUS
  62
8
  10
 767.24788240462
  20
 222.13513013895
  30
0.0
  11
 759.24788240462
  21
 223.54574598462
  31
0.0
  12
 759.24788240462
  22
 220.72451429328
  32
0.0
  13
 759.24788240462
  23
 220.72451429328
  33
0.0
   0
MTEXT
   5
113
 100
AcDbEntity
   8
LEVEL001
 370
15
  62
8
 100
AcDbMText
  10
 747.24788240462
  20
 226.13513013895
  30
0.0
  40
 10.000000000000
  41
0.0
  71
8
  72
1
   1
\A1;40
   7
GMM002
   0
ENDBLK
   5
114
 100
AcDbEntity
   8
0
 100
AcDbBlockEnd
   0
BLOCK
   5
115
 100
AcDbEntity
   8
0
 100
AcDbBlockBegin
   2
*D9
  70
65
  10
0.0
  20
0.0
  30
0.0
   3
*D9
   0
LINE
   5
116
 100
AcDbEntity
   8
LEVEL001
 370
15
 100
AcDbLine
   6
CONTINUOUS
  62
8
  10
 728.24788240462
  20
 129.16337448559
  30
0.0
  11
 699.76706417006
  21
 129.16337448559
  31
0.0
   0
LINE
   5
117
 100
AcDbEntity
   8
LEVEL001
 370
15
 100
AcDbLine
   6
CONTINUOUS
  62
8
  10
 733.24788240462
  20
 149.16337448559
  30
0.0
  11
 699.76706417006
  21
 149.16337448559
  31
0.0
   0
LINE
   5
118
 100
AcDbEntity
   8
LEVEL001
 370
15
 100
AcDbLine
   6
CONTINUOUS
  62
8
  10
 703.76706417006
  20
 129.16337448559
  30
0.0
  11
 703.76706417006
  21
 139.16337448559
  31
0.0
   0
LINE
   5
119
 100
AcDbEntity
   8
LEVEL001
 370
15
 100
AcDbLine
   6
CONTINUOUS
  62
8
  10
 703.76706417006
  20
 149.16337448559
  30
0.0
  11
 703.76706417006
  21
 139.16337448559
  31
0.0
   0
SOLID
   5
11A
 100
AcDbEntity
   8
LEVEL001
 100
AcDbTrace
   6
CONTINUOUS
  62
8
  10
 703.76706417006
  20
 129.16337448559
  30
0.0
  11
 705.17768001573
  21
 137.16337448559
  31
0.0
  12
 702.35644832439
  22
 137.16337448559
  32
0.0
  13
 702.35644832439
  23
 137.16337448559
  33
0.0
   0
SOLID
   5
11B
 100
AcDbEntity
   8
LEVEL001
 100
AcDbTrace
   6
CONTINUOUS
  62
8
  10
 703.76706417006
  20
 149.16337448559
  30
0.0
  11
 702.35644832439
  21
 141.16337448559
  31
0.0
  12
 705.17768001573
  22
 141.16337448559
  32
0.0
  13
 705.17768001573
  23
 141.16337448559
  33
0.0
   0
MTEXT
   5
11C
 100
AcDbEntity
   8
LEVEL001
 370
15
  62
8
 100
AcDbMText
  10
 699.76706417006
  20
 139.16337448559
  30
0.0
  40
 10.000000000000
  41
0.0
  71
8
  72
1
   1
\A1;20
   7
GMM002
  11
0.0
  21
 1.0000000000000
  31
0.0
   0
ENDBLK
   5
11D
 100
AcDbEntity
   8
0
 100
AcDbBlockEnd
   0
BLOCK
   5
11E
 100
AcDbEntity
   8
0
 100
AcDbBlockBegin
   2
*D10
  70
65
  10
0.0
  20
0.0
  30
0.0
   3
*D10
   0
LINE
   5
11F
 100
AcDbEntity
   8
LEVEL001
 370
15
 100
AcDbLine
   6
CONTINUOUS
  62
8
  10
 958.78324424672
  20
 317.13092958668
  30
0.0
  11
 958.78324424672
  21
 350.61174782124
  31
0.0
   0
LINE
   5
120
 100
AcDbEntity
   8
LEVEL001
 370
15
 100
AcDbLine
   6
CONTINUOUS
  62
8
  10
 978.78324424672
  20
 317.13092958668
  30
0.0
  11
 978.78324424672
  21
 350.61174782124
  31
0.0
   0
LINE
   5
121
 100
AcDbEntity
   8
LEVEL001
 370
15
 100
AcDbLine
   6
CONTINUOUS
  62
8
  10
 958.78324424672
  20
 346.61174782124
  30
0.0
  11
 968.78324424672
  21
 346.61174782124
  31
0.0
   0
LINE
   5
122
 100
AcDbEntity
   8
LEVEL001
 370
15
 100
AcDbLine
   6
CONTINUOUS
  62
8
  10
 978.78324424672
  20
 346.61174782124
  30
0.0
  11
 968.78324424672
  21
 346.61174782124
  31
0.0
   0
SOLID
   5
123
 100
AcDbEntity
   8
LEVEL001
 100
AcDbTrace
   6
CONTINUOUS
  62
8
  10
 958.78324424672
  20
 346.61174782124
  30
0.0
  11
 966.78324424672
  21
 345.20113197557
  31
0.0
  12
 966.78324424672
  22
 348.02236366690
  32
0.0
  13
 966.78324424672
  23
 348.02236366690
  33
0.0
   0
SOLID
   5
124
 100
AcDbEntity
   8
LEVEL001
 100
AcDbTrace
   6
CONTINUOUS
  62
8
  10
 978.78324424672
  20
 346.61174782124
  30
0.0
  11
 970.78324424672
  21
 348.02236366690
  31
0.0
  12
 970.78324424672
  22
 345.20113197557
  32
0.0
  13
 970.78324424672
  23
 345.20113197557
  33
0.0
   0
MTEXT
   5
125
 100
AcDbEntity
   8
LEVEL001
 370
15
  62
8
 100
AcDbMText
  10
 968.78324424672
  20
 350.61174782124
  30
0.0
  40
 10.000000000000
  41
0.0
  71
8
  72
1
   1
\A1;20
   7
GMM002
   0
ENDBLK
   5
126
 100
AcDbEntity
   8
0
 100
AcDbBlockEnd
   0
BLOCK
   5
127
 100
AcDbEntity
   8
0
 100
AcDbBlockBegin
   2
*D11
  70
65
  10
0.0
  20
0.0
  30
0.0
   3
*D11
   0
LINE
   5
128
 100
AcDbEntity
   8
LEVEL001
 370
15
 100
AcDbLine
   6
CONTINUOUS
  62
8
  10
 972.78324424672
  20
 283.13092958668
  30
0.0
  11
 1055.7549999001
  21
 283.13092958668
  31
0.0
   0
LINE
   5
129
 100
AcDbEntity
   8
LEVEL001
 370
15
 100
AcDbLine
   6
CONTINUOUS
  62
8
  10
 972.78324424672
  20
 323.13092958668
  30
0.0
  11
 1055.7549999001
  21
 323.13092958668
  31
0.0
   0
LINE
   5
12A
 100
AcDbEntity
   8
LEVEL001
 370
15
 100
AcDbLine
   6
CONTINUOUS
  62
8
  10
 1051.7549999001
  20
 283.13092958668
  30
0.0
  11
 1051.7549999001
  21
 303.13092958668
  31
0.0
   0
LINE
   5
12B
 100
AcDbEntity
   8
LEVEL001
 370
15
 100
AcDbLine
   6
CONTINUOUS
  62
8
  10
 1051.7549999001
  20
 323.13092958668
  30
0.0
  11
 1051.7549999001
  21
 303.13092958668
  31
0.0
   0
SOLID
   5
12C
 100
AcDbEntity
   8
LEVEL001
 100
AcDbTrace
   6
CONTINUOUS
  62
8
  10
 1051.7549999001
  20
 283.13092958668
  30
0.0
  11
 1053.1656157457
  21
 291.13092958668
  31
0.0
  12
 1050.3443840544
  22
 291.13092958668
  32
0.0
  13
 1050.3443840544
  23
 291.13092958668
  33
0.0
   0
SOLID
   5
12D
 100
AcDbEntity
   8
LEVEL001
 100
AcDbTrace
   6
CONTINUOUS
  62
8
  10
 1051.7549999001
  20
 323.13092958668
  30
0.0
  11
 1050.3443840544
  21
 315.13092958668
  31
0.0
  12
 1053.1656157457
  22
 315.13092958668
  32
0.0
  13
 1053.1656157457
  23
 315.13092958668
  33
0.0
   0
MTEXT
   5
12E
 100
AcDbEntity
   8
LEVEL001
 370
15
  62
8
 100
AcDbMText
  10
 1047.7549999001
  20
 303.13092958668
  30
0.0
  40
 10.000000000000
  41
0.0
  71
8
  72
1
   1
\A1;40
   7
GMM002
  11
0.0
  21
 1.0000000000000
  31
0.0
   0
ENDBLK
   5
12F
 100
AcDbEntity
   8
0
 100
AcDbBlockEnd
   0
BLOCK
   5
130
 100
AcDbEntity
   8
0
 100
AcDbBlockBegin
   2
*D12
  70
65
  10
0.0
  20
0.0
  30
0.0
   3
*D12
   0
LINE
   5
131
 100
AcDbEntity
   8
LEVEL001
 370
15
 100
AcDbLine
   6
CONTINUOUS
  62
8
  10
 919.78324424672
  20
 253.13092958668
  30
0.0
  11
 883.24788240462
  21
 253.13092958668
  31
0.0
   0
LINE
   5
132
 100
AcDbEntity
   8
LEVEL001
 370
15
 100
AcDbLine
   6
CONTINUOUS
  62
8
  10
 939.77536723959
  20
 303.13092958668
  30
0.0
  11
 883.24788240462
  21
 303.13092958668
  31
0.0
   0
LINE
   5
133
 100
AcDbEntity
   8
LEVEL001
 370
15
 100
AcDbLine
   6
CONTINUOUS
  62
8
  10
 887.24788240462
  20
 253.13092958668
  30
0.0
  11
 887.24788240462
  21
 278.13092958668
  31
0.0
   0
LINE
   5
134
 100
AcDbEntity
   8
LEVEL001
 370
15
 100
AcDbLine
   6
CONTINUOUS
  62
8
  10
 887.24788240462
  20
 303.13092958668
  30
0.0
  11
 887.24788240462
  21
 278.13092958668
  31
0.0
   0
SOLID
   5
135
 100
AcDbEntity
   8
LEVEL001
 100
AcDbTrace
   6
CONTINUOUS
  62
8
  10
 887.24788240462
  20
 253.13092958668
  30
0.0
  11
 888.65849825029
  21
 261.13092958668
  31
0.0
  12
 885.83726655895
  22
 261.13092958668
  32
0.0
  13
 885.83726655895
  23
 261.13092958668
  33
0.0
   0
SOLID
   5
136
 100
AcDbEntity
   8
LEVEL001
 100
AcDbTrace
   6
CONTINUOUS
  62
8
  10
 887.24788240462
  20
 303.13092958668
  30
0.0
  11
 885.83726655895
  21
 295.13092958668
  31
0.0
  12
 888.65849825029
  22
 295.13092958668
  32
0.0
  13
 888.65849825029
  23
 295.13092958668
  33
0.0
   0
MTEXT
   5
137
 100
AcDbEntity
   8
LEVEL001
 370
15
  62
8
 100
AcDbMText
  10
 883.24788240462
  20
 278.13092958668
  30
0.0
  40
 10.000000000000
  41
0.0
  71
8
  72
1
   1
\A1;50
   7
GMM002
  11
0.0
  21
 1.0000000000000
  31
0.0
   0
ENDBLK
   5
138
 100
AcDbEntity
   8
0
 100
AcDbBlockEnd
   0
BLOCK
   5
139
 100
AcDbEntity
   8
0
 100
AcDbBlockBegin
   2
*D13
  70
65
  10
0.0
  20
0.0
  30
0.0
   3
*D13
   0
LINE
   5
13A
 100
AcDbEntity
   8
LEVEL001
 370
15
 100
AcDbLine
   6
CONTINUOUS
  62
8
  10
 851.24788240462
  20
 413.13092958668
  30
0.0
  11
 891.24788240462
  21
 413.13092958668
  31
0.0
   0
LINE
   5
13B
 100
AcDbEntity
   8
LEVEL001
 370
15
 100
AcDbLine
   6
CONTINUOUS
  62
8
  10
 796.24788240462
  20
 513.13092958668
  30
0.0
  11
 891.24788240462
  21
 513.13092958668
  31
0.0
   0
LINE
   5
13C
 100
AcDbEntity
   8
LEVEL001
 370
15
 100
AcDbLine
   6
CONTINUOUS
  62
8
  10
 887.24788240462
  20
 413.13092958668
  30
0.0
  11
 887.24788240462
  21
 463.13092958668
  31
0.0
   0
LINE
   5
13D
 100
AcDbEntity
   8
LEVEL001
 370
15
 100
AcDbLine
   6
CONTINUOUS
  62
8
  10
 887.24788240462
  20
 513.13092958668
  30
0.0
  11
 887.24788240462
  21
 463.13092958668
  31
0.0
   0
SOLID
   5
13E
 100
AcDbEntity
   8
LEVEL001
 100
AcDbTrace
   6
CONTINUOUS
  62
8
  10
 887.24788240462
  20
 413.13092958668
  30
0.0
  11
 888.65849825029
  21
 421.13092958668
  31
0.0
  12
 885.83726655895
  22
 421.13092958668
  32
0.0
  13
 885.83726655895
  23
 421.13092958668
  33
0.0
   0
SOLID
   5
13F
 100
AcDbEntity
   8
LEVEL001
 100
AcDbTrace
   6
CONTINUOUS
  62
8
  10
 887.24788240462
  20
 513.13092958668
  30
0.0
  11
 885.83726655895
  21
 505.13092958668
  31
0.0
  12
 888.65849825029
  22
 505.13092958668
  32
0.0
  13
 888.65849825029
  23
 505.13092958668
  33
0.0
   0
MTEXT
   5
140
 100
AcDbEntity
   8
LEVEL001
 370
15
  62
8
 100
AcDbMText
  10
 883.24788240462
  20
 463.13092958668
  30
0.0
  40
 10.000000000000
  41
0.0
  71
8
  72
1
   1
\A1;100
   7
GMM002
  11
0.0
  21
 1.0000000000000
  31
0.0
   0
ENDBLK
   5
141
 100
AcDbEntity
   8
0
 100
AcDbBlockEnd
   0
BLOCK
   5
142
 100
AcDbEntity
   8
0
 100
AcDbBlockBegin
   2
*D14
  70
65
  10
0.0
  20
0.0
  30
0.0
   3
*D14
   0
LINE
   5
143
 100
AcDbEntity
   8
LEVEL001
 370
15
 100
AcDbLine
   6
CONTINUOUS
  62
8
  10
 537.24788240462
  20
 417.13092958668
  30
0.0
  11
 537.24788240462
  21
 567.13092958668
  31
0.0
   0
LINE
   5
144
 100
AcDbEntity
   8
LEVEL001
 370
15
 100
AcDbLine
   6
CONTINUOUS
  62
8
  10
 537.24788240462
  20
 563.13092958668
  30
0.0
  11
 664.74788240462
  21
 563.13092958668
  31
0.0
   0
LINE
   5
145
 100
AcDbEntity
   8
LEVEL001
 370
15
 100
AcDbLine
   6
CONTINUOUS
  62
8
  10
 792.24788240462
  20
 563.13092958668
  30
0.0
  11
 664.74788240462
  21
 563.13092958668
  31
0.0
   0
SOLID
   5
146
 100
AcDbEntity
   8
LEVEL001
 100
AcDbTrace
   6
CONTINUOUS
  62
8
  10
 537.24788240462
  20
 563.13092958668
  30
0.0
  11
 545.24788240462
  21
 561.72031374101
  31
0.0
  12
 545.24788240462
  22
 564.54154543235
  32
0.0
  13
 545.24788240462
  23
 564.54154543235
  33
0.0
   0
SOLID
   5
147
 100
AcDbEntity
   8
LEVEL001
 100
AcDbTrace
   6
CONTINUOUS
  62
8
  10
 792.24788240462
  20
 563.13092958668
  30
0.0
  11
 784.24788240462
  21
 564.54154543235
  31
0.0
  12
 784.24788240462
  22
 561.72031374101
  32
0.0
  13
 784.24788240462
  23
 561.72031374101
  33
0.0
   0
MTEXT
   5
148
 100
AcDbEntity
   8
LEVEL001
 370
15
  62
8
 100
AcDbMText
  10
 664.74788240462
  20
 567.13092958668
  30
0.0
  40
 10.000000000000
  41
0.0
  71
8
  72
1
   1
\A1;255
   7
GMM002
   0
ENDBLK
   5
149
 100
AcDbEntity
   8
0
 100
AcDbBlockEnd
   0
BLOCK
   5
14A
 100
AcDbEntity
   8
0
 100
AcDbBlockBegin
   2
*D15
  70
65
  10
0.0
  20
0.0
  30
0.0
   3
*D15
   0
LINE
   5
14B
 100
AcDbEntity
   8
LEVEL001
 370
15
 100
AcDbLine
   6
CONTINUOUS
  62
8
  10
 792.24788240462
  20
 517.13092958668
  30
0.0
  11
 792.24788240462
  21
 567.13092958668
  31
0.0
   0
LINE
   5
14C
 100
AcDbEntity
   8
LEVEL001
 370
15
 100
AcDbLine
   6
CONTINUOUS
  62
8
  10
 797.24788240462
  20
 512.13092958668
  30
0.0
  11
 797.24788240462
  21
 567.13092958668
  31
0.0
   0
LINE
   5
14D
 100
AcDbEntity
   8
LEVEL001
 370
15
 100
AcDbLine
   6
CONTINUOUS
  62
8
  10
 792.24788240462
  20
 563.13092958668
  30
0.0
  11
 794.74788240462
  21
 563.13092958668
  31
0.0
   0
LINE
   5
14E
 100
AcDbEntity
   8
LEVEL001
 370
15
 100
AcDbLine
   6
CONTINUOUS
  62
8
  10
 817.38945581301
  20
 563.13092958668
  30
0.0
  11
 794.74788240462
  21
 563.13092958668
  31
0.0
   0
SOLID
   5
14F
 100
AcDbEntity
   8
LEVEL001
 100
AcDbTrace
   6
CONTINUOUS
  62
8
  10
 797.24788240462
  20
 563.13092958668
  30
0.0
  11
 805.24788240462
  21
 561.72031374101
  31
0.0
  12
 805.24788240462
  22
 564.54154543235
  32
0.0
  13
 805.24788240462
  23
 564.54154543235
  33
0.0
   0
MTEXT
   5
150
 100
AcDbEntity
   8
LEVEL001
 370
15
  62
8
 100
AcDbMText
  10
 807.38945581301
  20
 567.12016460905
  30
0.0
  40
 10.000000000000
  41
0.0
  71
7
  72
1
   1
\A1;5
   7
GMM002
   0
ENDBLK
   5
151
 100
AcDbEntity
   8
0
 100
AcDbBlockEnd
   0
BLOCK
   5
152
 100
AcDbEntity
   8
0
 100
AcDbBlockBegin
   2
*D16
  70
65
  10
0.0
  20
0.0
  30
0.0
   3
*D16
   0
LINE
   5
153
 100
AcDbEntity
   8
LEVEL001
 370
15
 100
AcDbLine
   6
CONTINUOUS
  62
8
  10
 537.24788240462
  20
 567.13092958668
  30
0.0
  11
 537.24788240462
  21
 607.13092958668
  31
0.0
   0
LINE
   5
154
 100
AcDbEntity
   8
LEVEL001
 370
15
 100
AcDbLine
   6
CONTINUOUS
  62
8
  10
 797.24788240462
  20
 567.13092958668
  30
0.0
  11
 797.24788240462
  21
 607.13092958668
  31
0.0
   0
LINE
   5
155
 100
AcDbEntity
   8
LEVEL001
 370
15
 100
AcDbLine
   6
CONTINUOUS
  62
8
  10
 537.24788240462
  20
 603.13092958668
  30
0.0
  11
 667.24788240462
  21
 603.13092958668
  31
0.0
   0
LINE
   5
156
 100
AcDbEntity
   8
LEVEL001
 370
15
 100
AcDbLine
   6
CONTINUOUS
  62
8
  10
 797.24788240462
  20
 603.13092958668
  30
0.0
  11
 667.24788240462
  21
 603.13092958668
  31
0.0
   0
SOLID
   5
157
 100
AcDbEntity
   8
LEVEL001
 100
AcDbTrace
   6
CONTINUOUS
  62
8
  10
 537.24788240462
  20
 603.13092958668
  30
0.0
  11
 545.24788240462
  21
 601.72031374101
  31
0.0
  12
 545.24788240462
  22
 604.54154543235
  32
0.0
  13
 545.24788240462
  23
 604.54154543235
  33
0.0
   0
SOLID
   5
158
 100
AcDbEntity
   8
LEVEL001
 100
AcDbTrace
   6
CONTINUOUS
  62
8
  10
 797.24788240462
  20
 603.13092958668
  30
0.0
  11
 789.24788240462
  21
 604.54154543235
  31
0.0
  12
 789.24788240462
  22
 601.72031374101
  32
0.0
  13
 789.24788240462
  23
 601.72031374101
  33
0.0
   0
MTEXT
   5
159
 100
AcDbEntity
   8
LEVEL001
 370
15
  62
8
 100
AcDbMText
  10
 667.24788240462
  20
 607.13092958668
  30
0.0
  40
 10.000000000000
  41
0.0
  71
8
  72
1
   1
\A1;260
   7
GMM002
   0
ENDBLK
   5
15A
 100
AcDbEntity
   8
0
 100
AcDbBlockEnd
   0
BLOCK
   5
15B
 100
AcDbEntity
   8
0
 100
AcDbBlockBegin
   2
*D17
  70
65
  10
0.0
  20
0.0
  30
0.0
   3
*D17
   0
LINE
   5
15C
 100
AcDbEntity
   8
LEVEL001
 370
15
 100
AcDbLine
   6
CONTINUOUS
  62
8
  10
 538.24788240462
  20
 253.13092958668
  30
0.0
  11
 483.24788240462
  21
 253.13092958668
  31
0.0
   0
LINE
   5
15D
 100
AcDbEntity
   8
LEVEL001
 370
15
 100
AcDbLine
   6
CONTINUOUS
  62
8
  10
 487.24788240462
  20
 232.93251028806
  30
0.0
  11
 487.24788240462
  21
 255.63092958668
  31
0.0
   0
LINE
   5
15E
 100
AcDbEntity
   8
LEVEL001
 370
15
 100
AcDbLine
   6
CONTINUOUS
  62
8
  10
 487.24788240462
  20
 258.13092958668
  30
0.0
  11
 487.24788240462
  21
 255.63092958668
  31
0.0
   0
SOLID
   5
15F
 100
AcDbEntity
   8
LEVEL001
 100
AcDbTrace
   6
CONTINUOUS
  62
8
  10
 487.24788240462
  20
 253.13092958668
  30
0.0
  11
 485.83726655895
  21
 245.13092958668
  31
0.0
  12
 488.65849825029
  22
 245.13092958668
  32
0.0
  13
 488.65849825029
  23
 245.13092958668
  33
0.0
   0
MTEXT
   5
160
 100
AcDbEntity
   8
LEVEL001
 370
15
  62
8
 100
AcDbMText
  10
 483.92608132741
  20
 242.93251028806
  30
0.0
  40
 10.000000000000
  41
0.0
  71
9
  72
1
   1
\A1;5
   7
GMM002
  11
0.0
  21
 1.0000000000000
  31
0.0
   0
ENDBLK
   5
161
 100
AcDbEntity
   8
0
 100
AcDbBlockEnd
   0
BLOCK
   5
162
 100
AcDbEntity
   8
0
 100
AcDbBlockBegin
   2
*D18
  70
65
  10
0.0
  20
0.0
  30
0.0
   3
*D18
   0
LINE
   5
163
 100
AcDbEntity
   8
LEVEL001
 370
15
 100
AcDbLine
   6
CONTINUOUS
  62
8
  10
 533.24788240462
  20
 258.13092958668
  30
0.0
  11
 483.24788240462
  21
 258.13092958668
  31
0.0
   0
LINE
   5
164
 100
AcDbEntity
   8
LEVEL001
 370
15
 100
AcDbLine
   6
CONTINUOUS
  62
8
  10
 633.24788240462
  20
 513.13092958668
  30
0.0
  11
 483.24788240462
  21
 513.13092958668
  31
0.0
   0
LINE
   5
165
 100
AcDbEntity
   8
LEVEL001
 370
15
 100
AcDbLine
   6
CONTINUOUS
  62
8
  10
 487.24788240462
  20
 258.13092958668
  30
0.0
  11
 487.24788240462
  21
 385.63092958668
  31
0.0
   0
LINE
   5
166
 100
AcDbEntity
   8
LEVEL001
 370
15
 100
AcDbLine
   6
CONTINUOUS
  62
8
  10
 487.24788240462
  20
 513.13092958668
  30
0.0
  11
 487.24788240462
  21
 385.63092958668
  31
0.0
   0
SOLID
   5
167
 100
AcDbEntity
   8
LEVEL001
 100
AcDbTrace
   6
CONTINUOUS
  62
8
  10
 487.24788240462
  20
 258.13092958668
  30
0.0
  11
 488.65849825029
  21
 266.13092958668
  31
0.0
  12
 485.83726655895
  22
 266.13092958668
  32
0.0
  13
 485.83726655895
  23
 266.13092958668
  33
0.0
   0
SOLID
   5
168
 100
AcDbEntity
   8
LEVEL001
 100
AcDbTrace
   6
CONTINUOUS
  62
8
  10
 487.24788240462
  20
 513.13092958668
  30
0.0
  11
 485.83726655895
  21
 505.13092958668
  31
0.0
  12
 488.65849825029
  22
 505.13092958668
  32
0.0
  13
 488.65849825029
  23
 505.13092958668
  33
0.0
   0
MTEXT
   5
169
 100
AcDbEntity
   8
LEVEL001
 370
15
  62
8
 100
AcDbMText
  10
 483.24788240462
  20
 385.63092958668
  30
0.0
  40
 10.000000000000
  41
0.0
  71
8
  72
1
   1
\A1;255
   7
GMM002
  11
0.0
  21
 1.0000000000000
  31
0.0
   0
ENDBLK
   5
16A
 100
AcDbEntity
   8
0
 100
AcDbBlockEnd
   0
BLOCK
   5
16B
 100
AcDbEntity
   8
0
 100
AcDbBlockBegin
   2
*D19
  70
65
  10
0.0
  20
0.0
  30
0.0
   3
*D19
   0
LINE
   5
16C
 100
AcDbEntity
   8
LEVEL001
 370
15
 100
AcDbLine
   6
CONTINUOUS
  62
8
  10
 483.24788240462
  20
 253.13092958668
  30
0.0
  11
 443.24788240462
  21
 253.13092958668
  31
0.0
   0
LINE
   5
16D
 100
AcDbEntity
   8
LEVEL001
 370
15
 100
AcDbLine
   6
CONTINUOUS
  62
8
  10
 629.24788240462
  20
 513.13092958668
  30
0.0
  11
 443.24788240462
  21
 513.13092958668
  31
0.0
   0
LINE
   5
16E
 100
AcDbEntity
   8
LEVEL001
 370
15
 100
AcDbLine
   6
CONTINUOUS
  62
8
  10
 447.24788240462
  20
 253.13092958668
  30
0.0
  11
 447.24788240462
  21
 383.13092958668
  31
0.0
   0
LINE
   5
16F
 100
AcDbEntity
   8
LEVEL001
 370
15
 100
AcDbLine
   6
CONTINUOUS
  62
8
  10
 447.24788240462
  20
 513.13092958668
  30
0.0
  11
 447.24788240462
  21
 383.13092958668
  31
0.0
   0
SOLID
   5
170
 100
AcDbEntity
   8
LEVEL001
 100
AcDbTrace
   6
CONTINUOUS
  62
8
  10
 447.24788240462
  20
 253.13092958668
  30
0.0
  11
 448.65849825029
  21
 261.13092958668
  31
0.0
  12
 445.83726655895
  22
 261.13092958668
  32
0.0
  13
 445.83726655895
  23
 261.13092958668
  33
0.0
   0
SOLID
   5
171
 100
AcDbEntity
   8
LEVEL001
 100
AcDbTrace
   6
CONTINUOUS
  62
8
  10
 447.24788240462
  20
 513.13092958668
  30
0.0
  11
 445.83726655895
  21
 505.13092958668
  31
0.0
  12
 448.65849825029
  22
 505.13092958668
  32
0.0
  13
 448.65849825029
  23
 505.13092958668
  33
0.0
   0
MTEXT
   5
172
 100
AcDbEntity
   8
LEVEL001
 370
15
  62
8
 100
AcDbMText
  10
 443.24788240462
  20
 383.13092958668
  30
0.0
  40
 10.000000000000
  41
0.0
  71
8
  72
1
   1
\A1;260
   7
GMM002
  11
0.0
  21
 1.0000000000000
  31
0.0
   0
ENDBLK
   5
173
 100
AcDbEntity
   8
0
 100
AcDbBlockEnd
   0
BLOCK
   5
174
 100
AcDbEntity
   8
0
 100
AcDbBlockBegin
   2
*D20
  70
65
  10
0.0
  20
0.0
  30
0.0
   3
*D20
   0
LINE
   5
175
 100
AcDbEntity
   8
LEVEL001
 370
15
 100
AcDbLine
   6
CONTINUOUS
  62
8
  10
 290.22744882686
  20
 288.21683818900
  30
0.0
  11
 307.03212586156
  21
 313.13092958668
  31
0.0
   0
LINE
   5
176
 100
AcDbEntity
   8
LEVEL001
 370
15
 100
AcDbLine
   6
CONTINUOUS
  62
8
  10
 307.03212586156
  20
 313.13092958668
  30
0.0
  11
 338.37576498665
  21
 359.60003388935
  31
0.0
   0
SOLID
   5
177
 100
AcDbEntity
   8
LEVEL001
 100
AcDbTrace
   6
CONTINUOUS
  62
8
  10
 295.84830886896
  20
 296.55015042899
  30
0.0
  11
 290.20532658125
  21
 290.70664223916
  31
0.0
  12
 292.54423756259
  22
 289.12903529268
  32
0.0
  13
 292.54423756259
  23
 289.12903529268
  33
0.0
   0
SOLID
   5
178
 100
AcDbEntity
   8
LEVEL001
 100
AcDbTrace
   6
CONTINUOUS
  62
8
  10
 318.21594285416
  20
 329.71170874436
  30
0.0
  11
 323.85892514187
  21
 335.55521693420
  31
0.0
  12
 321.52001416054
  22
 337.13282388068
  32
0.0
  13
 321.52001416054
  23
 337.13282388068
  33
0.0
   0
MTEXT
   5
179
 100
AcDbEntity
   8
LEVEL001
 370
15
  62
8
 100
AcDbMText
  10
 320.52064706473
  20
 340.28178438288
  30
0.0
  40
 10.000000000000
  41
0.0
  71
7
  72
1
   1
\A1;%%c40
   7
GMM002
  11
 0.55919084963012
  21
 0.82903895788434
  31
0.0
   0
ENDBLK
   5
17A
 100
AcDbEntity
   8
0
 100
AcDbBlockEnd
   0
BLOCK
   5
17B
 100
AcDbEntity
   8
0
 100
AcDbBlockBegin
   2
*D21
  70
65
  10
0.0
  20
0.0
  30
0.0
   3
*D21
   0
LINE
   5
17C
 100
AcDbEntity
   8
LEVEL001
 370
15
 100
AcDbLine
   6
CONTINUOUS
  62
8
  10
 258.03212586156
  20
 253.13092958668
  30
0.0
  11
 230.44337556433
  21
 253.13092958668
  31
0.0
   0
LINE
   5
17D
 100
AcDbEntity
   8
LEVEL001
 370
15
 100
AcDbLine
   6
CONTINUOUS
  62
8
  10
 267.46343981844
  20
 313.13092958668
  30
0.0
  11
 230.44337556433
  21
 313.13092958668
  31
0.0
   0
LINE
   5
17E
 100
AcDbEntity
   8
LEVEL001
 370
15
 100
AcDbLine
   6
CONTINUOUS
  62
8
  10
 234.44337556433
  20
 253.13092958668
  30
0.0
  11
 234.44337556433
  21
 283.13092958668
  31
0.0
   0
LINE
   5
17F
 100
AcDbEntity
   8
LEVEL001
 370
15
 100
AcDbLine
   6
CONTINUOUS
  62
8
  10
 234.44337556433
  20
 313.13092958668
  30
0.0
  11
 234.44337556433
  21
 283.13092958668
  31
0.0
   0
SOLID
   5
180
 100
AcDbEntity
   8
LEVEL001
 100
AcDbTrace
   6
CONTINUOUS
  62
8
  10
 234.44337556433
  20
 253.13092958668
  30
0.0
  11
 235.85399141000
  21
 261.13092958668
  31
0.0
  12
 233.03275971867
  22
 261.13092958668
  32
0.0
  13
 233.03275971867
  23
 261.13092958668
  33
0.0
   0
SOLID
   5
181
 100
AcDbEntity
   8
LEVEL001
 100
AcDbTrace
   6
CONTINUOUS
  62
8
  10
 234.44337556433
  20
 313.13092958668
  30
0.0
  11
 233.03275971867
  21
 305.13092958668
  31
0.0
  12
 235.85399141000
  22
 305.13092958668
  32
0.0
  13
 235.85399141000
  23
 305.13092958668
  33
0.0
   0
MTEXT
   5
182
 100
AcDbEntity
   8
LEVEL001
 370
15
  62
8
 100
AcDbMText
  10
 230.44337556433
  20
 283.13092958668
  30
0.0
  40
 10.000000000000
  41
0.0
  71
8
  72
1
   1
\A1;60
   7
GMM002
  11
0.0
  21
 1.0000000000000
  31
0.0
   0
ENDBLK
   5
183
 100
AcDbEntity
   8
0
 100
AcDbBlockEnd
   0
BLOCK
   5
184
 100
AcDbEntity
   8
0
 100
AcDbBlockBegin
   2
*D22
  70
65
  10
0.0
  20
0.0
  30
0.0
   3
*D22
   0
LINE
   5
185
 100
AcDbEntity
   8
LEVEL001
 370
15
 100
AcDbLine
   6
CONTINUOUS
  62
8
  10
 737.24788240462
  20
 693.35953423006
  30
0.0
  11
 737.24788240462
  21
 641.83772634976
  31
0.0
   0
LINE
   5
186
 100
AcDbEntity
   8
LEVEL001
 370
15
 100
AcDbLine
   6
CONTINUOUS
  62
8
  10
 797.24788240462
  20
 683.92822027316
  30
0.0
  11
 797.24788240462
  21
 641.83772634976
  31
0.0
   0
LINE
   5
187
 100
AcDbEntity
   8
LEVEL001
 370
15
 100
AcDbLine
   6
CONTINUOUS
  62
8
  10
 737.24788240462
  20
 645.83772634976
  30
0.0
  11
 767.24788240462
  21
 645.83772634976
  31
0.0
   0
LINE
   5
188
 100
AcDbEntity
   8
LEVEL001
 370
15
 100
AcDbLine
   6
CONTINUOUS
  62
8
  10
 797.24788240462
  20
 645.83772634976
  30
0.0
  11
 767.24788240462
  21
 645.83772634976
  31
0.0
   0
SOLID
   5
189
 100
AcDbEntity
   8
LEVEL001
 100
AcDbTrace
   6
CONTINUOUS
  62
8
  10
 737.24788240462
  20
 645.83772634976
  30
0.0
  11
 745.24788240462
  21
 644.42711050409
  31
0.0
  12
 745.24788240462
  22
 647.24834219543
  32
0.0
  13
 745.24788240462
  23
 647.24834219543
  33
0.0
   0
SOLID
   5
18A
 100
AcDbEntity
   8
LEVEL001
 100
AcDbTrace
   6
CONTINUOUS
  62
8
  10
 797.24788240462
  20
 645.83772634976
  30
0.0
  11
 789.24788240462
  21
 647.24834219543
  31
0.0
  12
 789.24788240462
  22
 644.42711050409
  32
0.0
  13
 789.24788240462
  23
 644.42711050409
  33
0.0
   0
MTEXT
   5
18B
 100
AcDbEntity
   8
LEVEL001
 370
15
  62
8
 100
AcDbMText
  10
 767.24788240462
  20
 649.83772634976
  30
0.0
  40
 10.000000000000
  41
0.0
  71
8
  72
1
   1
\A1;60
   7
GMM002
   0
ENDBLK
   5
18C
 100
AcDbEntity
   8
0
 100
AcDbBlockEnd
   0
BLOCK
   5
18D
 100
AcDbEntity
   8
0
 100
AcDbBlockBegin
   2
*D23
  70
65
  10
0.0
  20
0.0
  30
0.0
   3
*D23
   0
LINE
   5
18E
 100
AcDbEntity
   8
LEVEL001
 370
15
 100
AcDbLine
   6
CONTINUOUS
  62
8
  10
 771.50566116160
  20
 715.52879491085
  30
0.0
  11
 737.24788240462
  21
 732.92822027316
  31
0.0
   0
LINE
   5
18F
 100
AcDbEntity
   8
LEVEL001
 370
15
 100
AcDbLine
   6
CONTINUOUS
  62
8
  10
 737.24788240462
  20
 732.92822027316
  30
0.0
  11
 687.15453815293
  21
 758.37048290902
  31
0.0
   0
SOLID
   5
190
 100
AcDbEntity
   8
LEVEL001
 100
AcDbTrace
   6
CONTINUOUS
  62
8
  10
 755.07974372593
  20
 723.87147020386
  30
0.0
  11
 761.57370849655
  21
 718.99107486927
  31
0.0
  12
 762.85126801235
  22
 721.50646548303
  32
0.0
  13
 762.85126801235
  23
 721.50646548303
  33
0.0
   0
SOLID
   5
191
 100
AcDbEntity
   8
LEVEL001
 100
AcDbTrace
   6
CONTINUOUS
  62
8
  10
 719.41602108331
  20
 741.98497034246
  30
0.0
  11
 712.92205631269
  21
 746.86536567706
  31
0.0
  12
 711.64449679689
  22
 744.34997506330
  32
0.0
  13
 711.64449679689
  23
 744.34997506330
  33
0.0
   0
MTEXT
   5
192
 100
AcDbEntity
   8
LEVEL001
 370
15
  62
8
 100
AcDbMText
  10
 712.14730788448
  20
 750.16308008319
  30
0.0
  40
 10.000000000000
  41
0.0
  71
9
  72
1
   1
\A1;%%c40
   7
GMM002
  11
 0.89159306606531
  21
-0.45283750346483
  31
0.0
   0
ENDBLK
   5
193
 100
AcDbEntity
   8
0
 100
AcDbBlockEnd
   0
BLOCK
   5
194
 100
AcDbEntity
   8
0
 100
AcDbBlockBegin
   2
*D24
  70
65
  10
0.0
  20
0.0
  30
0.0
   3
*D24
   0
LINE
   5
195
 100
AcDbEntity
   8
LEVEL001
 370
15
 100
AcDbLine
   6
CONTINUOUS
  62
8
  10
 747.24788240462
  20
 110.15549747846
  30
0.0
  11
 747.24788240462
  21
 63.530041152257
  31
0.0
   0
LINE
   5
196
 100
AcDbEntity
   8
LEVEL001
 370
15
 100
AcDbLine
   6
CONTINUOUS
  62
8
  10
 797.24788240462
  20
 90.163374485591
  30
0.0
  11
 797.24788240462
  21
 63.530041152257
  31
0.0
   0
LINE
   5
197
 100
AcDbEntity
   8
LEVEL001
 370
15
 100
AcDbLine
   6
CONTINUOUS
  62
8
  10
 747.24788240462
  20
 67.530041152257
  30
0.0
  11
 772.24788240462
  21
 67.530041152257
  31
0.0
   0
LINE
   5
198
 100
AcDbEntity
   8
LEVEL001
 370
15
 100
AcDbLine
   6
CONTINUOUS
  62
8
  10
 797.24788240462
  20
 67.530041152257
  30
0.0
  11
 772.24788240462
  21
 67.530041152257
  31
0.0
   0
SOLID
   5
199
 100
AcDbEntity
   8
LEVEL001
 100
AcDbTrace
   6
CONTINUOUS
  62
8
  10
 747.24788240462
  20
 67.530041152257
  30
0.0
  11
 755.24788240462
  21
 66.119425306589
  31
0.0
  12
 755.24788240462
  22
 68.940656997925
  32
0.0
  13
 755.24788240462
  23
 68.940656997925
  33
0.0
   0
SOLID
   5
19A
 100
AcDbEntity
   8
LEVEL001
 100
AcDbTrace
   6
CONTINUOUS
  62
8
  10
 797.24788240462
  20
 67.530041152257
  30
0.0
  11
 789.24788240462
  21
 68.940656997925
  31
0.0
  12
 789.24788240462
  22
 66.119425306589
  32
0.0
  13
 789.24788240462
  23
 66.119425306589
  33
0.0
   0
MTEXT
   5
19B
 100
AcDbEntity
   8
LEVEL001
 370
15
  62
8
 100
AcDbMText
  10
 772.24788240462
  20
 71.530041152257
  30
0.0
  40
 10.000000000000
  41
0.0
  71
8
  72
1
   1
\A1;50
   7
GMM002
   0
ENDBLK
   5
19C
 100
AcDbEntity
   8
0
 100
AcDbBlockEnd
   0
BLOCK
   5
19D
 100
AcDbEntity
   8
0
 100
AcDbBlockBegin
   2
*D25
  70
65
  10
0.0
  20
0.0
  30
0.0
   3
*D25
   0
LINE
   5
19E
 100
AcDbEntity
   8
LEVEL001
 370
15
 100
AcDbLine
   6
CONTINUOUS
  62
8
  10
 667.83173362906
  20
 978.56443466972
  30
0.0
  11
 667.83173362906
  21
 928.38418775614
  31
0.0
   0
LINE
   5
19F
 100
AcDbEntity
   8
LEVEL001
 370
15
 100
AcDbLine
   6
CONTINUOUS
  62
8
  10
 713.83173362906
  20
 978.56443466972
  30
0.0
  11
 713.83173362906
  21
 928.38418775614
  31
0.0
   0
LINE
   5
1A0
 100
AcDbEntity
   8
LEVEL001
 370
15
 100
AcDbLine
   6
CONTINUOUS
  62
8
  10
 667.83173362906
  20
 932.38418775614
  30
0.0
  11
 690.83173362906
  21
 932.38418775614
  31
0.0
   0
LINE
   5
1A1
 100
AcDbEntity
   8
LEVEL001
 370
15
 100
AcDbLine
   6
CONTINUOUS
  62
8
  10
 713.83173362906
  20
 932.38418775614
  30
0.0
  11
 690.83173362906
  21
 932.38418775614
  31
0.0
   0
SOLID
   5
1A2
 100
AcDbEntity
   8
LEVEL001
 100
AcDbTrace
   6
CONTINUOUS
  62
8
  10
 667.83173362906
  20
 932.38418775614
  30
0.0
  11
 675.83173362906
  21
 930.97357191047
  31
0.0
  12
 675.83173362906
  22
 933.79480360181
  32
0.0
  13
 675.83173362906
  23
 933.79480360181
  33
0.0
   0
SOLID
   5
1A3
 100
AcDbEntity
   8
LEVEL001
 100
AcDbTrace
   6
CONTINUOUS
  62
8
  10
 713.83173362906
  20
 932.38418775614
  30
0.0
  11
 705.83173362906
  21
 933.79480360181
  31
0.0
  12
 705.83173362906
  22
 930.97357191047
  32
0.0
  13
 705.83173362906
  23
 930.97357191047
  33
0.0
   0
MTEXT
   5
1A4
 100
AcDbEntity
   8
LEVEL001
 370
15
  62
8
 100
AcDbMText
  10
 690.83173362906
  20
 936.38418775614
  30
0.0
  40
 10.000000000000
  41
0.0
  71
8
  72
1
   1
\A1;46
   7
GMM002
   0
ENDBLK
   5
1A5
 100
AcDbEntity
   8
0
 100
AcDbBlockEnd
   0
BLOCK
   5
1A6
 100
AcDbEntity
   8
0
 100
AcDbBlockBegin
   2
*D26
  70
65
  10
0.0
  20
0.0
  30
0.0
   3
*D26
   0
LINE
   5
1A7
 100
AcDbEntity
   8
LEVEL001
 370
15
 100
AcDbLine
   6
CONTINUOUS
  62
8
  10
 768.43510940066
  20
 977.56443466972
  30
0.0
  11
 768.43510940066
  21
 928.38418775614
  31
0.0
   0
LINE
   5
1A8
 100
AcDbEntity
   8
LEVEL001
 370
15
 100
AcDbLine
   6
CONTINUOUS
  62
8
  10
 793.93510940066
  20
 957.41072587151
  30
0.0
  11
 793.93510940066
  21
 928.38418775614
  31
0.0
   0
LINE
   5
1A9
 100
AcDbEntity
   8
LEVEL001
 370
15
 100
AcDbLine
   6
CONTINUOUS
  62
8
  10
 768.43510940066
  20
 932.38418775614
  30
0.0
  11
 781.18510940066
  21
 932.38418775614
  31
0.0
   0
LINE
   5
1AA
 100
AcDbEntity
   8
LEVEL001
 370
15
 100
AcDbLine
   6
CONTINUOUS
  62
8
  10
 793.93510940066
  20
 932.38418775614
  30
0.0
  11
 781.18510940066
  21
 932.38418775614
  31
0.0
   0
SOLID
   5
1AB
 100
AcDbEntity
   8
LEVEL001
 100
AcDbTrace
   6
CONTINUOUS
  62
8
  10
 768.43510940066
  20
 932.38418775614
  30
0.0
  11
 776.43510940066
  21
 930.97357191047
  31
0.0
  12
 776.43510940066
  22
 933.79480360181
  32
0.0
  13
 776.43510940066
  23
 933.79480360181
  33
0.0
   0
SOLID
   5
1AC
 100
AcDbEntity
   8
LEVEL001
 100
AcDbTrace
   6
CONTINUOUS
  62
8
  10
 793.93510940066
  20
 932.38418775614
  30
0.0
  11
 785.93510940066
  21
 933.79480360181
  31
0.0
  12
 785.93510940066
  22
 930.97357191047
  32
0.0
  13
 785.93510940066
  23
 930.97357191047
  33
0.0
   0
MTEXT
   5
1AD
 100
AcDbEntity
   8
LEVEL001
 370
15
  62
8
 100
AcDbMText
  10
 781.18510940066
  20
 936.38418775614
  30
0.0
  40
 10.000000000000
  41
0.0
  71
8
  72
1
   1
\A1;25.5
   7
GMM002
   0
ENDBLK
   5
1AE
 100
AcDbEntity
   8
0
 100
AcDbBlockEnd
   0
BLOCK
   5
1AF
 100
AcDbEntity
   8
0
 100
AcDbBlockBegin
   2
*D27
  70
65
  10
0.0
  20
0.0
  30
0.0
   3
*D27
   0
LINE
   5
1B0
 100
AcDbEntity
   8
LEVEL001
 370
15
 100
AcDbLine
   6
CONTINUOUS
  62
8
  10
 767.12600126850
  20
 958.56443466972
  30
0.0
  11
 744.32394113363
  21
 958.56443466972
  31
0.0
   0
LINE
   5
1B1
 100
AcDbEntity
   8
LEVEL001
 370
15
 100
AcDbLine
   6
CONTINUOUS
  62
8
  10
 767.12600126850
  20
 1004.5644346697
  30
0.0
  11
 744.32394113363
  21
 1004.5644346697
  31
0.0
   0
LINE
   5
1B2
 100
AcDbEntity
   8
LEVEL001
 370
15
 100
AcDbLine
   6
CONTINUOUS
  62
8
  10
 748.32394113363
  20
 958.56443466972
  30
0.0
  11
 748.32394113363
  21
 981.56443466972
  31
0.0
   0
LINE
   5
1B3
 100
AcDbEntity
   8
LEVEL001
 370
15
 100
AcDbLine
   6
CONTINUOUS
  62
8
  10
 748.32394113363
  20
 1004.5644346697
  30
0.0
  11
 748.32394113363
  21
 981.56443466972
  31
0.0
   0
SOLID
   5
1B4
 100
AcDbEntity
   8
LEVEL001
 100
AcDbTrace
   6
CONTINUOUS
  62
8
  10
 748.32394113363
  20
 958.56443466972
  30
0.0
  11
 749.73455697930
  21
 966.56443466972
  31
0.0
  12
 746.91332528796
  22
 966.56443466972
  32
0.0
  13
 746.91332528796
  23
 966.56443466972
  33
0.0
   0
SOLID
   5
1B5
 100
AcDbEntity
   8
LEVEL001
 100
AcDbTrace
   6
CONTINUOUS
  62
8
  10
 748.32394113363
  20
 1004.5644346697
  30
0.0
  11
 746.91332528796
  21
 996.56443466972
  31
0.0
  12
 749.73455697930
  22
 996.56443466972
  32
0.0
  13
 749.73455697930
  23
 996.56443466972
  33
0.0
   0
MTEXT
   5
1B6
 100
AcDbEntity
   8
LEVEL001
 370
15
  62
8
 100
AcDbMText
  10
 744.32394113363
  20
 981.56443466972
  30
0.0
  40
 10.000000000000
  41
0.0
  71
8
  72
1
   1
\A1;%%c46
   7
GMM002
  11
0.0
  21
 1.0000000000000
  31
0.0
   0
ENDBLK
   5
1B7
 100
AcDbEntity
   8
0
 100
AcDbBlockEnd
   0
BLOCK
   5
1B8
 100
AcDbEntity
   8
0
 100
AcDbBlockBegin
   2
*D28
  70
65
  10
0.0
  20
0.0
  30
0.0
   3
*D28
   0
LINE
   5
1B9
 100
AcDbEntity
   8
LEVEL001
 370
15
 100
AcDbLine
   6
CONTINUOUS
  62
8
  10
 797.14761549228
  20
 958.56443466972
  30
0.0
  11
 819.61102812918
  21
 958.56443466972
  31
0.0
   0
LINE
   5
1BA
 100
AcDbEntity
   8
LEVEL001
 370
15
 100
AcDbLine
   6
CONTINUOUS
  62
8
  10
 796.49629970281
  20
 1004.5644346697
  30
0.0
  11
 819.61102812918
  21
 1004.5644346697
  31
0.0
   0
LINE
   5
1BB
 100
AcDbEntity
   8
LEVEL001
 370
15
 100
AcDbLine
   6
CONTINUOUS
  62
8
  10
 815.61102812918
  20
 958.56443466972
  30
0.0
  11
 815.61102812918
  21
 981.56443466972
  31
0.0
   0
LINE
   5
1BC
 100
AcDbEntity
   8
LEVEL001
 370
15
 100
AcDbLine
   6
CONTINUOUS
  62
8
  10
 815.61102812918
  20
 1004.5644346697
  30
0.0
  11
 815.61102812918
  21
 981.56443466972
  31
0.0
   0
SOLID
   5
1BD
 100
AcDbEntity
   8
LEVEL001
 100
AcDbTrace
   6
CONTINUOUS
  62
8
  10
 815.61102812918
  20
 958.56443466972
  30
0.0
  11
 817.02164397485
  21
 966.56443466972
  31
0.0
  12
 814.20041228351
  22
 966.56443466972
  32
0.0
  13
 814.20041228351
  23
 966.56443466972
  33
0.0
   0
SOLID
   5
1BE
 100
AcDbEntity
   8
LEVEL001
 100
AcDbTrace
   6
CONTINUOUS
  62
8
  10
 815.61102812918
  20
 1004.5644346697
  30
0.0
  11
 814.20041228351
  21
 996.56443466972
  31
0.0
  12
 817.02164397485
  22
 996.56443466972
  32
0.0
  13
 817.02164397485
  23
 996.56443466972
  33
0.0
   0
MTEXT
   5
1BF
 100
AcDbEntity
   8
LEVEL001
 370
15
  62
8
 100
AcDbMText
  10
 811.61102812918
  20
 981.56443466972
  30
0.0
  40
 10.000000000000
  41
0.0
  71
8
  72
1
   1
\A1;%%c46
   7
GMM002
  11
0.0
  21
 1.0000000000000
  31
0.0
   0
ENDBLK
   5
1C0
 100
AcDbEntity
   8
0
 100
AcDbBlockEnd
   0
BLOCK
   5
1C1
 100
AcDbEntity
   8
0
 100
AcDbBlockBegin
   2
*D29
  70
65
  10
0.0
  20
0.0
  30
0.0
   3
*D29
   0
LINE
   5
1C2
 100
AcDbEntity
   8
LEVEL001
 370
15
 100
AcDbLine
   6
CONTINUOUS
  62
8
  10
 801.24788240462
  20
 413.13092958668
  30
0.0
  11
 851.24788240462
  21
 413.13092958668
  31
0.0
   0
LINE
   5
1C3
 100
AcDbEntity
   8
LEVEL001
 370
15
 100
AcDbLine
   6
CONTINUOUS
  62
8
  10
 801.24788240462
  20
 508.13092958668
  30
0.0
  11
 851.24788240462
  21
 508.13092958668
  31
0.0
   0
LINE
   5
1C4
 100
AcDbEntity
   8
LEVEL001
 370
15
 100
AcDbLine
   6
CONTINUOUS
  62
8
  10
 847.24788240462
  20
 413.13092958668
  30
0.0
  11
 847.24788240462
  21
 460.63092958668
  31
0.0
   0
LINE
   5
1C5
 100
AcDbEntity
   8
LEVEL001
 370
15
 100
AcDbLine
   6
CONTINUOUS
  62
8
  10
 847.24788240462
  20
 508.13092958668
  30
0.0
  11
 847.24788240462
  21
 460.63092958668
  31
0.0
   0
SOLID
   5
1C6
 100
AcDbEntity
   8
LEVEL001
 100
AcDbTrace
   6
CONTINUOUS
  62
8
  10
 847.24788240462
  20
 413.13092958668
  30
0.0
  11
 848.65849825029
  21
 421.13092958668
  31
0.0
  12
 845.83726655895
  22
 421.13092958668
  32
0.0
  13
 845.83726655895
  23
 421.13092958668
  33
0.0
   0
SOLID
   5
1C7
 100
AcDbEntity
   8
LEVEL001
 100
AcDbTrace
   6
CONTINUOUS
  62
8
  10
 847.24788240462
  20
 508.13092958668
  30
0.0
  11
 845.83726655895
  21
 500.13092958668
  31
0.0
  12
 848.65849825029
  22
 500.13092958668
  32
0.0
  13
 848.65849825029
  23
 500.13092958668
  33
0.0
   0
MTEXT
   5
1C8
 100
AcDbEntity
   8
LEVEL001
 370
15
  62
8
 100
AcDbMText
  10
 843.24788240462
  20
 460.63092958668
  30
0.0
  40
 10.000000000000
  41
0.0
  71
8
  72
1
   1
\A1;94
   7
GMM002
  11
0.0
  21
 1.0000000000000
  31
0.0
   0
ENDBLK
   5
1C9
 100
AcDbEntity
   8
0
 100
AcDbBlockEnd
   0
BLOCK
   5
1CA
 100
AcDbEntity
   8
0
 100
AcDbBlockBegin
   2
*D30
  70
65
  10
0.0
  20
0.0
  30
0.0
   3
*D30
   0
LINE
   5
1CB
 100
AcDbEntity
   8
LEVEL001
 370
15
 100
AcDbLine
   6
CONTINUOUS
  62
8
  10
 229.26002962792
  20
 908.86666666667
  30
0.0
  11
 209.22313332993
  21
 908.86666666667
  31
0.0
   0
LINE
   5
1CC
 100
AcDbEntity
   8
LEVEL001
 370
15
 100
AcDbLine
   6
CONTINUOUS
  62
8
  10
 279.26002962792
  20
 1008.8666666667
  30
0.0
  11
 209.22313332993
  21
 1008.8666666667
  31
0.0
   0
LINE
   5
1CD
 100
AcDbEntity
   8
LEVEL001
 370
15
 100
AcDbLine
   6
CONTINUOUS
  62
8
  10
 213.22313332993
  20
 908.86666666667
  30
0.0
  11
 213.22313332993
  21
 958.86666666667
  31
0.0
   0
LINE
   5
1CE
 100
AcDbEntity
   8
LEVEL001
 370
15
 100
AcDbLine
   6
CONTINUOUS
  62
8
  10
 213.22313332993
  20
 1008.8666666667
  30
0.0
  11
 213.22313332993
  21
 958.86666666667
  31
0.0
   0
SOLID
   5
1CF
 100
AcDbEntity
   8
LEVEL001
 100
AcDbTrace
   6
CONTINUOUS
  62
8
  10
 213.22313332993
  20
 908.86666666667
  30
0.0
  11
 214.63374917560
  21
 916.86666666667
  31
0.0
  12
 211.81251748426
  22
 916.86666666667
  32
0.0
  13
 211.81251748426
  23
 916.86666666667
  33
0.0
   0
SOLID
   5
1D0
 100
AcDbEntity
   8
LEVEL001
 100
AcDbTrace
   6
CONTINUOUS
  62
8
  10
 213.22313332993
  20
 1008.8666666667
  30
0.0
  11
 211.81251748426
  21
 1000.8666666667
  31
0.0
  12
 214.63374917560
  22
 1000.8666666667
  32
0.0
  13
 214.63374917560
  23
 1000.8666666667
  33
0.0
   0
MTEXT
   5
1D1
 100
AcDbEntity
   8
LEVEL001
 370
15
  62
8
 100
AcDbMText
  10
 209.22313332993
  20
 958.86666666667
  30
0.0
  40
 10.000000000000
  41
0.0
  71
8
  72
1
   1
\A1;100
   7
GMM002
  11
0.0
  21
 1.0000000000000
  31
0.0
   0
ENDBLK
   5
1D2
 100
AcDbEntity
   8
0
 100
AcDbBlockEnd
   0
BLOCK
   5
1D3
 100
AcDbEntity
   8
0
 100
AcDbBlockBegin
   2
*D31
  70
65
  10
0.0
  20
0.0
  30
0.0
   3
*D31
   0
LINE
   5
1D4
 100
AcDbEntity
   8
LEVEL001
 370
15
 100
AcDbLine
   6
CONTINUOUS
  62
8
  10
 233.26002962792
  20
 972.86666666667
  30
0.0
  11
 233.26002962792
  21
 1030.9376845684
  31
0.0
   0
LINE
   5
1D5
 100
AcDbEntity
   8
LEVEL001
 370
15
 100
AcDbLine
   6
CONTINUOUS
  62
8
  10
 333.26002962792
  20
 972.86666666667
  30
0.0
  11
 333.26002962792
  21
 1030.9376845684
  31
0.0
   0
LINE
   5
1D6
 100
AcDbEntity
   8
LEVEL001
 370
15
 100
AcDbLine
   6
CONTINUOUS
  62
8
  10
 233.26002962792
  20
 1026.9376845684
  30
0.0
  11
 283.26002962792
  21
 1026.9376845684
  31
0.0
   0
LINE
   5
1D7
 100
AcDbEntity
   8
LEVEL001
 370
15
 100
AcDbLine
   6
CONTINUOUS
  62
8
  10
 333.26002962792
  20
 1026.9376845684
  30
0.0
  11
 283.26002962792
  21
 1026.9376845684
  31
0.0
   0
SOLID
   5
1D8
 100
AcDbEntity
   8
LEVEL001
 100
AcDbTrace
   6
CONTINUOUS
  62
8
  10
 233.26002962792
  20
 1026.9376845684
  30
0.0
  11
 241.26002962792
  21
 1025.5270687228
  31
0.0
  12
 241.26002962792
  22
 1028.3483004141
  32
0.0
  13
 241.26002962792
  23
 1028.3483004141
  33
0.0
   0
SOLID
   5
1D9
 100
AcDbEntity
   8
LEVEL001
 100
AcDbTrace
   6
CONTINUOUS
  62
8
  10
 333.26002962792
  20
 1026.9376845684
  30
0.0
  11
 325.26002962792
  21
 1028.3483004141
  31
0.0
  12
 325.26002962792
  22
 1025.5270687228
  32
0.0
  13
 325.26002962792
  23
 1025.5270687228
  33
0.0
   0
MTEXT
   5
1DA
 100
AcDbEntity
   8
LEVEL001
 370
15
  62
8
 100
AcDbMText
  10
 283.26002962792
  20
 1040.9376845684
  30
0.0
  40
 10.000000000000
  41
0.0
  71
8
  72
1
   1
\A1;100
   7
GMM002
  44
 0.79999984000003
   0
ENDBLK
   5
1DB
 100
AcDbEntity
   8
0
 100
AcDbBlockEnd
   0
BLOCK
   5
1DC
 100
AcDbEntity
   8
0
 100
AcDbBlockBegin
   2
*D32
  70
65
  10
0.0
  20
0.0
  30
0.0
   3
*D32
   0
LINE
   5
1DD
 100
AcDbEntity
   8
LEVEL001
 370
15
 100
AcDbLine
   6
CONTINUOUS
  62
8
  10
 123.62602693401
  20
 908.86666666667
  30
0.0
  11
 179.74165184845
  21
 908.86666666667
  31
0.0
   0
LINE
   5
1DE
 100
AcDbEntity
   8
LEVEL001
 370
15
 100
AcDbLine
   6
CONTINUOUS
  62
8
  10
 123.62602693401
  20
 1002.8666666667
  30
0.0
  11
 179.74165184845
  21
 1002.8666666667
  31
0.0
   0
LINE
   5
1DF
 100
AcDbEntity
   8
LEVEL001
 370
15
 100
AcDbLine
   6
CONTINUOUS
  62
8
  10
 175.74165184845
  20
 908.86666666667
  30
0.0
  11
 175.74165184845
  21
 955.86666666667
  31
0.0
   0
LINE
   5
1E0
 100
AcDbEntity
   8
LEVEL001
 370
15
 100
AcDbLine
   6
CONTINUOUS
  62
8
  10
 175.74165184845
  20
 1002.8666666667
  30
0.0
  11
 175.74165184845
  21
 955.86666666667
  31
0.0
   0
SOLID
   5
1E1
 100
AcDbEntity
   8
LEVEL001
 100
AcDbTrace
   6
CONTINUOUS
  62
8
  10
 175.74165184845
  20
 908.86666666667
  30
0.0
  11
 177.15226769412
  21
 916.86666666667
  31
0.0
  12
 174.33103600278
  22
 916.86666666667
  32
0.0
  13
 174.33103600278
  23
 916.86666666667
  33
0.0
   0
SOLID
   5
1E2
 100
AcDbEntity
   8
LEVEL001
 100
AcDbTrace
   6
CONTINUOUS
  62
8
  10
 175.74165184845
  20
 1002.8666666667
  30
0.0
  11
 174.33103600278
  21
 994.86666666667
  31
0.0
  12
 177.15226769412
  22
 994.86666666667
  32
0.0
  13
 177.15226769412
  23
 994.86666666667
  33
0.0
   0
MTEXT
   5
1E3
 100
AcDbEntity
   8
LEVEL001
 370
15
  62
8
 100
AcDbMText
  10
 171.74165184845
  20
 955.86666666667
  30
0.0
  40
 10.000000000000
  41
0.0
  71
8
  72
1
   1
\A1;94
   7
GMM002
  11
0.0
  21
 1.0000000000000
  31
0.0
   0
ENDBLK
   5
1E4
 100
AcDbEntity
   8
0
 100
AcDbBlockEnd
   0
BLOCK
   5
1E5
 100
AcDbEntity
   8
0
 100
AcDbBlockBegin
   2
*D33
  70
65
  10
0.0
  20
0.0
  30
0.0
   3
*D33
   0
LINE
   5
1E6
 100
AcDbEntity
   8
LEVEL001
 370
15
 100
AcDbLine
   6
CONTINUOUS
  62
8
  10
 103.62602693401
  20
 908.86666666667
  30
0.0
  11
 80.482392589190
  21
 908.86666666667
  31
0.0
   0
LINE
   5
1E7
 100
AcDbEntity
   8
LEVEL001
 370
15
 100
AcDbLine
   6
CONTINUOUS
  62
8
  10
 103.62602693401
  20
 1008.8666666667
  30
0.0
  11
 80.482392589190
  21
 1008.8666666667
  31
0.0
   0
LINE
   5
1E8
 100
AcDbEntity
   8
LEVEL001
 370
15
 100
AcDbLine
   6
CONTINUOUS
  62
8
  10
 84.482392589190
  20
 908.86666666667
  30
0.0
  11
 84.482392589190
  21
 958.86666666667
  31
0.0
   0
LINE
   5
1E9
 100
AcDbEntity
   8
LEVEL001
 370
15
 100
AcDbLine
   6
CONTINUOUS
  62
8
  10
 84.482392589190
  20
 1008.8666666667
  30
0.0
  11
 84.482392589190
  21
 958.86666666667
  31
0.0
   0
SOLID
   5
1EA
 100
AcDbEntity
   8
LEVEL001
 100
AcDbTrace
   6
CONTINUOUS
  62
8
  10
 84.482392589190
  20
 908.86666666667
  30
0.0
  11
 85.893008434857
  21
 916.86666666667
  31
0.0
  12
 83.071776743522
  22
 916.86666666667
  32
0.0
  13
 83.071776743522
  23
 916.86666666667
  33
0.0
   0
SOLID
   5
1EB
 100
AcDbEntity
   8
LEVEL001
 100
AcDbTrace
   6
CONTINUOUS
  62
8
  10
 84.482392589190
  20
 1008.8666666667
  30
0.0
  11
 83.071776743522
  21
 1000.8666666667
  31
0.0
  12
 85.893008434857
  22
 1000.8666666667
  32
0.0
  13
 85.893008434857
  23
 1000.8666666667
  33
0.0
   0
MTEXT
   5
1EC
 100
AcDbEntity
   8
LEVEL001
 370
15
  62
8
 100
AcDbMText
  10
 80.482392589190
  20
 958.86666666667
  30
0.0
  40
 10.000000000000
  41
0.0
  71
8
  72
1
   1
\A1;100
   7
GMM002
  11
0.0
  21
 1.0000000000000
  31
0.0
   0
ENDBLK
   5
1ED
 100
AcDbEntity
   8
0
 100
AcDbBlockEnd
   0
BLOCK
   5
1EE
 100
AcDbEntity
   8
0
 100
AcDbBlockBegin
   2
*D34
  70
65
  10
0.0
  20
0.0
  30
0.0
   3
*D34
   0
LINE
   5
1EF
 100
AcDbEntity
   8
LEVEL001
 370
15
 100
AcDbLine
   6
CONTINUOUS
  62
8
  10
 144.62602693401
  20
 994.86666666667
  30
0.0
  11
 144.62602693401
  21
 1030.9376845684
  31
0.0
   0
LINE
   5
1F0
 100
AcDbEntity
   8
LEVEL001
 370
15
 100
AcDbLine
   6
CONTINUOUS
  62
8
  10
 144.62602693401
  20
 1026.9376845684
  30
0.0
  11
 132.12602693401
  21
 1026.9376845684
  31
0.0
   0
LINE
   5
1F1
 100
AcDbEntity
   8
LEVEL001
 370
15
 100
AcDbLine
   6
CONTINUOUS
  62
8
  10
 119.62602693401
  20
 1026.9376845684
  30
0.0
  11
 132.12602693401
  21
 1026.9376845684
  31
0.0
   0
SOLID
   5
1F2
 100
AcDbEntity
   8
LEVEL001
 100
AcDbTrace
   6
CONTINUOUS
  62
8
  10
 144.62602693401
  20
 1026.9376845684
  30
0.0
  11
 136.62602693401
  21
 1028.3483004141
  31
0.0
  12
 136.62602693401
  22
 1025.5270687228
  32
0.0
  13
 136.62602693401
  23
 1025.5270687228
  33
0.0
   0
SOLID
   5
1F3
 100
AcDbEntity
   8
LEVEL001
 100
AcDbTrace
   6
CONTINUOUS
  62
8
  10
 119.62602693401
  20
 1026.9376845684
  30
0.0
  11
 127.62602693401
  21
 1025.5270687228
  31
0.0
  12
 127.62602693401
  22
 1028.3483004141
  32
0.0
  13
 127.62602693401
  23
 1028.3483004141
  33
0.0
   0
MTEXT
   5
1F4
 100
AcDbEntity
   8
LEVEL001
 370
15
  62
8
 100
AcDbMText
  10
 132.12602693401
  20
 1030.9376845684
  30
0.0
  40
 10.000000000000
  41
0.0
  71
8
  72
1
   1
\A1;25
   7
GMM002
   0
ENDBLK
   5
1F5
 100
AcDbEntity
   8
0
 100
AcDbBlockEnd
   0
BLOCK
   5
1F6
 100
AcDbEntity
   8
0
 100
AcDbBlockBegin
   2
*D35
  70
65
  10
0.0
  20
0.0
  30
0.0
   3
*D35
   0
LINE
   5
1F7
 100
AcDbEntity
   8
LEVEL001
 370
15
 100
AcDbLine
   6
CONTINUOUS
  62
8
  10
 119.62602693401
  20
 1006.8666666667
  30
0.0
  11
 119.62602693401
  21
 1030.9376845684
  31
0.0
   0
LINE
   5
1F8
 100
AcDbEntity
   8
LEVEL001
 370
15
 100
AcDbLine
   6
CONTINUOUS
  62
8
  10
 119.62602693401
  20
 1026.9376845684
  30
0.0
  11
 117.12602693401
  21
 1026.9376845684
  31
0.0
   0
LINE
   5
1F9
 100
AcDbEntity
   8
LEVEL001
 370
15
 100
AcDbLine
   6
CONTINUOUS
  62
8
  10
 114.62602693401
  20
 1026.9376845684
  30
0.0
  11
 117.12602693401
  21
 1026.9376845684
  31
0.0
   0
MTEXT
   5
1FA
 100
AcDbEntity
   8
LEVEL001
 370
15
  62
8
 100
AcDbMText
  10
 117.12602693401
  20
 1030.9376845684
  30
0.0
  40
 10.000000000000
  41
0.0
  71
8
  72
1
   1
\A1;5
   7
GMM002
   0
ENDBLK
   5
1FB
 100
AcDbEntity
   8
0
 100
AcDbBlockEnd
   0
BLOCK
   5
1FC
 100
AcDbEntity
   8
0
 100
AcDbBlockBegin
   2
*D36
  70
65
  10
0.0
  20
0.0
  30
0.0
   3
*D36
   0
LINE
   5
1FD
 100
AcDbEntity
   8
LEVEL001
 370
15
 100
AcDbLine
   6
CONTINUOUS
  62
8
  10
 114.62602693401
  20
 1012.8666666667
  30
0.0
  11
 114.62602693401
  21
 1030.9376845684
  31
0.0
   0
LINE
   5
1FE
 100
AcDbEntity
   8
LEVEL001
 370
15
 100
AcDbLine
   6
CONTINUOUS
  62
8
  10
 107.62602693401
  20
 1012.8666666667
  30
0.0
  11
 107.62602693401
  21
 1030.9376845684
  31
0.0
   0
LINE
   5
1FF
 100
AcDbEntity
   8
LEVEL001
 370
15
 100
AcDbLine
   6
CONTINUOUS
  62
8
  10
 114.62602693401
  20
 1026.9376845684
  30
0.0
  11
 111.12602693401
  21
 1026.9376845684
  31
0.0
   0
LINE
   5
200
 100
AcDbEntity
   8
LEVEL001
 370
15
 100
AcDbLine
   6
CONTINUOUS
  62
8
  10
 89.922816224032
  20
 1026.9376845684
  30
0.0
  11
 111.12602693401
  21
 1026.9376845684
  31
0.0
   0
INSERT
   5
201
 100
AcDbEntity
   8
LEVEL001
   6
CONTINUOUS
  62
8
 100
AcDbBlockReference
   2
_DOT
  10
 114.62602693401
  20
 1026.9376845684
  30
0.0
  41
 1.6000000000000
  42
 1.6000000000000
  43
 1.6000000000000
  50
0.0
   0
SOLID
   5
202
 100
AcDbEntity
   8
LEVEL001
 100
AcDbTrace
   6
CONTINUOUS
  62
8
  10
 107.62602693401
  20
 1026.9376845684
  30
0.0
  11
 99.626026934007
  21
 1028.3483004141
  31
0.0
  12
 99.626026934007
  22
 1025.5270687228
  32
0.0
  13
 99.626026934007
  23
 1025.5270687228
  33
0.0
   0
MTEXT
   5
203
 100
AcDbEntity
   8
LEVEL001
 370
15
  62
8
 100
AcDbMText
  10
 99.922816224032
  20
 1030.2020552969
  30
0.0
  40
 10.000000000000
  41
0.0
  71
9
  72
1
   1
\A1;7
   7
GMM002
   0
ENDBLK
   5
204
 100
AcDbEntity
   8
0
 100
AcDbBlockEnd
   0
BLOCK
   5
205
 100
AcDbEntity
   8
0
 100
AcDbBlockBegin
   2
*D37
  70
65
  10
0.0
  20
0.0
  30
0.0
   3
*D37
   0
LINE
   5
206
 100
AcDbEntity
   8
LEVEL001
 370
15
 100
AcDbLine
   6
CONTINUOUS
  62
8
  10
 418.86510863858
  20
 908.86666666667
  30
0.0
  11
 478.61572592253
  21
 908.86666666667
  31
0.0
   0
LINE
   5
207
 100
AcDbEntity
   8
LEVEL001
 370
15
 100
AcDbLine
   6
CONTINUOUS
  62
8
  10
 418.86510863858
  20
 1003.8666666667
  30
0.0
  11
 478.61572592253
  21
 1003.8666666667
  31
0.0
   0
LINE
   5
208
 100
AcDbEntity
   8
LEVEL001
 370
15
 100
AcDbLine
   6
CONTINUOUS
  62
8
  10
 474.61572592253
  20
 908.86666666667
  30
0.0
  11
 474.61572592253
  21
 956.36666666667
  31
0.0
   0
LINE
   5
209
 100
AcDbEntity
   8
LEVEL001
 370
15
 100
AcDbLine
   6
CONTINUOUS
  62
8
  10
 474.61572592253
  20
 1003.8666666667
  30
0.0
  11
 474.61572592253
  21
 956.36666666667
  31
0.0
   0
SOLID
   5
20A
 100
AcDbEntity
   8
LEVEL001
 100
AcDbTrace
   6
CONTINUOUS
  62
8
  10
 474.61572592253
  20
 908.86666666667
  30
0.0
  11
 476.02634176820
  21
 916.86666666667
  31
0.0
  12
 473.20511007686
  22
 916.86666666667
  32
0.0
  13
 473.20511007686
  23
 916.86666666667
  33
0.0
   0
SOLID
   5
20B
 100
AcDbEntity
   8
LEVEL001
 100
AcDbTrace
   6
CONTINUOUS
  62
8
  10
 474.61572592253
  20
 1003.8666666667
  30
0.0
  11
 473.20511007686
  21
 995.86666666667
  31
0.0
  12
 476.02634176820
  22
 995.86666666667
  32
0.0
  13
 476.02634176820
  23
 995.86666666667
  33
0.0
   0
MTEXT
   5
20C
 100
AcDbEntity
   8
LEVEL001
 370
15
  62
8
 100
AcDbMText
  10
 470.61572592253
  20
 956.36666666667
  30
0.0
  40
 10.000000000000
  41
0.0
  71
8
  72
1
   1
\A1;94
   7
GMM002
  11
0.0
  21
 1.0000000000000
  31
0.0
   0
ENDBLK
   5
20D
 100
AcDbEntity
   8
0
 100
AcDbBlockEnd
   0
BLOCK
   5
20E
 100
AcDbEntity
   8
0
 100
AcDbBlockBegin
   2
*D38
  70
65
  10
0.0
  20
0.0
  30
0.0
   3
*D38
   0
LINE
   5
20F
 100
AcDbEntity
   8
LEVEL001
 370
15
 100
AcDbLine
   6
CONTINUOUS
  62
8
  10
 394.86510863858
  20
 994.86666666667
  30
0.0
  11
 394.86510863858
  21
 1030.9376845684
  31
0.0
   0
LINE
   5
210
 100
AcDbEntity
   8
LEVEL001
 370
15
 100
AcDbLine
   6
CONTINUOUS
  62
8
  10
 370.08574573658
  20
 1026.9376845684
  30
0.0
  11
 402.36510863858
  21
 1026.9376845684
  31
0.0
   0
LINE
   5
211
 100
AcDbEntity
   8
LEVEL001
 370
15
 100
AcDbLine
   6
CONTINUOUS
  62
8
  10
 409.86510863858
  20
 1026.9376845684
  30
0.0
  11
 402.36510863858
  21
 1026.9376845684
  31
0.0
   0
SOLID
   5
212
 100
AcDbEntity
   8
LEVEL001
 100
AcDbTrace
   6
CONTINUOUS
  62
8
  10
 394.86510863858
  20
 1026.9376845684
  30
0.0
  11
 386.86510863858
  21
 1028.3483004141
  31
0.0
  12
 386.86510863858
  22
 1025.5270687228
  32
0.0
  13
 386.86510863858
  23
 1025.5270687228
  33
0.0
   0
MTEXT
   5
213
 100
AcDbEntity
   8
LEVEL001
 370
15
  62
8
 100
AcDbMText
  10
 388.08574573658
  20
 1031.0757201646
  30
0.0
  40
 10.000000000000
  41
0.0
  71
9
  72
1
   1
\A1;15
   7
GMM002
   0
ENDBLK
   5
214
 100
AcDbEntity
   8
0
 100
AcDbBlockEnd
   0
BLOCK
   5
215
 100
AcDbEntity
   8
0
 100
AcDbBlockBegin
   2
*D39
  70
65
  10
0.0
  20
0.0
  30
0.0
   3
*D39
   0
LINE
   5
216
 100
AcDbEntity
   8
LEVEL001
 370
15
 100
AcDbLine
   6
CONTINUOUS
  62
8
  10
 409.86510863858
  20
 1007.8666666667
  30
0.0
  11
 409.86510863858
  21
 1030.9376845684
  31
0.0
   0
LINE
   5
217
 100
AcDbEntity
   8
LEVEL001
 370
15
 100
AcDbLine
   6
CONTINUOUS
  62
8
  10
 409.86510863858
  20
 1026.9376845684
  30
0.0
  11
 412.36510863858
  21
 1026.9376845684
  31
0.0
   0
LINE
   5
218
 100
AcDbEntity
   8
LEVEL001
 370
15
 100
AcDbLine
   6
CONTINUOUS
  62
8
  10
 414.86510863858
  20
 1026.9376845684
  30
0.0
  11
 412.36510863858
  21
 1026.9376845684
  31
0.0
   0
INSERT
   5
219
 100
AcDbEntity
   8
LEVEL001
   6
CONTINUOUS
  62
8
 100
AcDbBlockReference
   2
_DOT
  10
 409.86510863858
  20
 1026.9376845684
  30
0.0
  41
 1.6000000000000
  42
 1.6000000000000
  43
 1.6000000000000
  50
 180.00000000000
   0
MTEXT
   5
21A
 100
AcDbEntity
   8
LEVEL001
 370
15
  62
8
 100
AcDbMText
  10
 412.36510863858
  20
 1030.9376845684
  30
0.0
  40
 10.000000000000
  41
0.0
  71
8
  72
1
   1
\A1;5
   7
GMM002
   0
ENDBLK
   5
21B
 100
AcDbEntity
   8
0
 100
AcDbBlockEnd
   0
BLOCK
   5
21C
 100
AcDbEntity
   8
0
 100
AcDbBlockBegin
   2
*D40
  70
65
  10
0.0
  20
0.0
  30
0.0
   3
*D40
   0
LINE
   5
21D
 100
AcDbEntity
   8
LEVEL001
 370
15
 100
AcDbLine
   6
CONTINUOUS
  62
8
  10
 414.86510863858
  20
 1007.8666666667
  30
0.0
  11
 414.86510863858
  21
 1030.9376845684
  31
0.0
   0
LINE
   5
21E
 100
AcDbEntity
   8
LEVEL001
 370
15
 100
AcDbLine
   6
CONTINUOUS
  62
8
  10
 429.86510863858
  20
 994.86666666667
  30
0.0
  11
 429.86510863858
  21
 1030.9376845684
  31
0.0
   0
LINE
   5
21F
 100
AcDbEntity
   8
LEVEL001
 370
15
 100
AcDbLine
   6
CONTINUOUS
  62
8
  10
 414.86510863858
  20
 1026.9376845684
  30
0.0
  11
 422.36510863858
  21
 1026.9376845684
  31
0.0
   0
LINE
   5
220
 100
AcDbEntity
   8
LEVEL001
 370
15
 100
AcDbLine
   6
CONTINUOUS
  62
8
  10
 454.75735067485
  20
 1026.9376845684
  30
0.0
  11
 422.36510863858
  21
 1026.9376845684
  31
0.0
   0
INSERT
   5
221
 100
AcDbEntity
   8
LEVEL001
   6
CONTINUOUS
  62
8
 100
AcDbBlockReference
   2
_DOT
  10
 414.86510863858
  20
 1026.9376845684
  30
0.0
  41
 1.6000000000000
  42
 1.6000000000000
  43
 1.6000000000000
  50
 180.00000000000
   0
SOLID
   5
222
 100
AcDbEntity
   8
LEVEL001
 100
AcDbTrace
   6
CONTINUOUS
  62
8
  10
 429.86510863858
  20
 1026.9376845684
  30
0.0
  11
 437.86510863858
  21
 1025.5270687228
  31
0.0
  12
 437.86510863858
  22
 1028.3483004141
  32
0.0
  13
 437.86510863858
  23
 1028.3483004141
  33
0.0
   0
MTEXT
   5
223
 100
AcDbEntity
   8
LEVEL001
 370
15
  62
8
 100
AcDbMText
  10
 436.75735067485
  20
 1031.3654320988
  30
0.0
  40
 10.000000000000
  41
0.0
  71
7
  72
1
   1
\A1;15
   7
GMM002
   0
ENDBLK
   5
224
 100
AcDbEntity
   8
0
 100
AcDbBlockEnd
   0
BLOCK
   5
225
 100
AcDbEntity
   8
0
 100
AcDbBlockBegin
   2
*D41
  70
65
  10
0.0
  20
0.0
  30
0.0
   3
*D41
   0
LINE
   5
226
 100
AcDbEntity
   8
LEVEL001
 370
15
 100
AcDbLine
   6
CONTINUOUS
  62
8
  10
 526.03477354158
  20
 972.86666666667
  30
0.0
  11
 526.03477354158
  21
 1030.9376845684
  31
0.0
   0
LINE
   5
227
 100
AcDbEntity
   8
LEVEL001
 370
15
 100
AcDbLine
   6
CONTINUOUS
  62
8
  10
 616.03477354158
  20
 972.86666666667
  30
0.0
  11
 616.03477354158
  21
 1030.9376845684
  31
0.0
   0
LINE
   5
228
 100
AcDbEntity
   8
LEVEL001
 370
15
 100
AcDbLine
   6
CONTINUOUS
  62
8
  10
 526.03477354158
  20
 1026.9376845684
  30
0.0
  11
 571.03477354158
  21
 1026.9376845684
  31
0.0
   0
LINE
   5
229
 100
AcDbEntity
   8
LEVEL001
 370
15
 100
AcDbLine
   6
CONTINUOUS
  62
8
  10
 616.03477354158
  20
 1026.9376845684
  30
0.0
  11
 571.03477354158
  21
 1026.9376845684
  31
0.0
   0
SOLID
   5
22A
 100
AcDbEntity
   8
LEVEL001
 100
AcDbTrace
   6
CONTINUOUS
  62
8
  10
 526.03477354158
  20
 1026.9376845684
  30
0.0
  11
 534.03477354158
  21
 1025.5270687228
  31
0.0
  12
 534.03477354158
  22
 1028.3483004141
  32
0.0
  13
 534.03477354158
  23
 1028.3483004141
  33
0.0
   0
SOLID
   5
22B
 100
AcDbEntity
   8
LEVEL001
 100
AcDbTrace
   6
CONTINUOUS
  62
8
  10
 616.03477354158
  20
 1026.9376845684
  30
0.0
  11
 608.03477354158
  21
 1028.3483004141
  31
0.0
  12
 608.03477354158
  22
 1025.5270687228
  32
0.0
  13
 608.03477354158
  23
 1025.5270687228
  33
0.0
   0
MTEXT
   5
22C
 100
AcDbEntity
   8
LEVEL001
 370
15
  62
8
 100
AcDbMText
  10
 571.03477354158
  20
 1030.9376845684
  30
0.0
  40
 10.000000000000
  41
0.0
  71
8
  72
1
   1
\A1;90
   7
GMM002
   0
ENDBLK
   5
22D
 100
AcDbEntity
   8
0
 100
AcDbBlockEnd
   0
BLOCK
   5
22E
 100
AcDbEntity
   8
0
 100
AcDbBlockBegin
   2
*D42
  70
65
  10
0.0
  20
0.0
  30
0.0
   3
*D42
   0
LINE
   5
22F
 100
AcDbEntity
   8
LEVEL001
 370
15
 100
AcDbLine
   6
CONTINUOUS
  62
8
  10
 522.03477354158
  20
 908.86666666667
  30
0.0
  11
 502.03477354158
  21
 908.86666666667
  31
0.0
   0
LINE
   5
230
 100
AcDbEntity
   8
LEVEL001
 370
15
 100
AcDbLine
   6
CONTINUOUS
  62
8
  10
 565.03477354158
  20
 1003.8666666667
  30
0.0
  11
 502.03477354158
  21
 1003.8666666667
  31
0.0
   0
LINE
   5
231
 100
AcDbEntity
   8
LEVEL001
 370
15
 100
AcDbLine
   6
CONTINUOUS
  62
8
  10
 506.03477354158
  20
 908.86666666667
  30
0.0
  11
 506.03477354158
  21
 956.36666666667
  31
0.0
   0
LINE
   5
232
 100
AcDbEntity
   8
LEVEL001
 370
15
 100
AcDbLine
   6
CONTINUOUS
  62
8
  10
 506.03477354158
  20
 1003.8666666667
  30
0.0
  11
 506.03477354158
  21
 956.36666666667
  31
0.0
   0
SOLID
   5
233
 100
AcDbEntity
   8
LEVEL001
 100
AcDbTrace
   6
CONTINUOUS
  62
8
  10
 506.03477354158
  20
 908.86666666667
  30
0.0
  11
 507.44538938725
  21
 916.86666666667
  31
0.0
  12
 504.62415769591
  22
 916.86666666667
  32
0.0
  13
 504.62415769591
  23
 916.86666666667
  33
0.0
   0
SOLID
   5
234
 100
AcDbEntity
   8
LEVEL001
 100
AcDbTrace
   6
CONTINUOUS
  62
8
  10
 506.03477354158
  20
 1003.8666666667
  30
0.0
  11
 504.62415769591
  21
 995.86666666667
  31
0.0
  12
 507.44538938725
  22
 995.86666666667
  32
0.0
  13
 507.44538938725
  23
 995.86666666667
  33
0.0
   0
MTEXT
   5
235
 100
AcDbEntity
   8
LEVEL001
 370
15
  62
8
 100
AcDbMText
  10
 502.03477354158
  20
 956.36666666667
  30
0.0
  40
 10.000000000000
  41
0.0
  71
8
  72
1
   1
\A1;94
   7
GMM002
  11
0.0
  21
 1.0000000000000
  31
0.0
   0
ENDBLK
   5
236
 100
AcDbEntity
   8
0
 100
AcDbBlockEnd
   0
ENDSEC
   0
SECTION
   2
ENTITIES
   0
LINE
   5
237
 100
AcDbEntity
   8
LEVEL002
 370
30
 100
AcDbLine
   6
CONTINUOUS
  62
7
  10
 1376.6000000000
  20
 1088.3000000000
  30
0.0
  11
 1347.8000000000
  21
 1088.3000000000
  31
0.0
   0
LINE
   5
238
 100
AcDbEntity
   8
LEVEL002
 370
30
 100
AcDbLine
   6
CONTINUOUS
  62
7
  10
 1347.8000000000
  20
 1088.3000000000
  30
0.0
  11
 1347.8000000000
  21
 1045.1000000000
  31
0.0
   0
LINE
   5
239
 100
AcDbEntity
   8
LEVEL002
 370
30
 100
AcDbLine
   6
CONTINUOUS
  62
7
  10
 1347.8000000000
  20
 1045.1000000000
  30
0.0
  11
 1362.2000000000
  21
 1045.1000000000
  31
0.0
   0
LINE
   5
23A
 100
AcDbEntity
   8
LEVEL002
 370
30
 100
AcDbLine
   6
CONTINUOUS
  62
7
  10
 1362.2000000000
  20
 1045.1000000000
  30
0.0
  11
 1362.2000000000
  21
 1052.3000000000
  31
0.0
   0
LINE
   5
23B
 100
AcDbEntity
   8
LEVEL002
 370
30
 100
AcDbLine
   6
CONTINUOUS
  62
7
  10
 1362.2000000000
  20
 1052.3000000000
  30
0.0
  11
 1376.6000000000
  21
 1052.3000000000
  31
0.0
   0
ARC
   5
23C
 100
AcDbEntity
   8
LEVEL002
 370
30
   6
CONTINUOUS
  62
7
 100
AcDbCircle
  10
 1376.6000000000
  20
 1070.3000000000
  30
0.0
  40
 18.000000000000
 100
AcDbArc
  50
 270.00000000000
  51
 90.000000000000
   0
LINE
   5
23D
 100
AcDbEntity
   8
LEVEL002
 370
30
 100
AcDbLine
   6
CONTINUOUS
  62
7
  10
 1362.2000000000
  20
 1066.7000000000
  30
0.0
  11
 1376.6000000000
  21
 1066.7000000000
  31
0.0
   0
ARC
   5
23E
 100
AcDbEntity
   8
LEVEL002
 370
30
   6
CONTINUOUS
  62
7
 100
AcDbCircle
  10
 1376.6000000000
  20
 1070.3000000000
  30
0.0
  40
 3.6000000000000
 100
AcDbArc
  50
 270.00000000000
  51
 90.000000000000
   0
LINE
   5
23F
 100
AcDbEntity
   8
LEVEL002
 370
30
 100
AcDbLine
   6
CONTINUOUS
  62
7
  10
 1376.6000000000
  20
 1073.9000000000
  30
0.0
  11
 1362.2000000000
  21
 1073.9000000000
  31
0.0
   0
LINE
   5
240
 100
AcDbEntity
   8
LEVEL002
 370
30
 100
AcDbLine
   6
CONTINUOUS
  62
7
  10
 1362.2000000000
  20
 1073.9000000000
  30
0.0
  11
 1362.2000000000
  21
 1066.7000000000
  31
0.0
   0
LINE
   5
241
 100
AcDbEntity
   8
LEVEL002
 370
30
 100
AcDbLine
   6
CONTINUOUS
  62
7
  10
 1383.8000000000
  20
 1045.1000000000
  30
0.0
  11
 1412.6000000000
  21
 1088.3000000000
  31
0.0
   0
LINE
   5
242
 100
AcDbEntity
   8
LEVEL002
 370
30
 100
AcDbLine
   6
CONTINUOUS
  62
7
  10
 1412.6000000000
  20
 1088.3000000000
  30
0.0
  11
 1448.6000000000
  21
 1088.3000000000
  31
0.0
   0
LINE
   5
243
 100
AcDbEntity
   8
LEVEL002
 370
30
 100
AcDbLine
   6
CONTINUOUS
  62
7
  10
 1448.6000000000
  20
 1088.3000000000
  30
0.0
  11
 1448.6000000000
  21
 1059.5000000000
  31
0.0
   0
LINE
   5
244
 100
AcDbEntity
   8
LEVEL002
 370
30
 100
AcDbLine
   6
CONTINUOUS
  62
7
  10
 1448.6000000000
  20
 1059.5000000000
  30
0.0
  11
 1470.2000000000
  21
 1059.5000000000
  31
0.0
   0
LINE
   5
245
 100
AcDbEntity
   8
LEVEL002
 370
30
 100
AcDbLine
   6
CONTINUOUS
  62
7
  10
 1470.2000000000
  20
 1059.5000000000
  30
0.0
  11
 1470.2000000000
  21
 1073.9000000000
  31
0.0
   0
LINE
   5
246
 100
AcDbEntity
   8
LEVEL002
 370
30
 100
AcDbLine
   6
CONTINUOUS
  62
7
  10
 1470.2000000000
  20
 1073.9000000000
  30
0.0
  11
 1455.8000000000
  21
 1073.9000000000
  31
0.0
   0
LINE
   5
247
 100
AcDbEntity
   8
LEVEL002
 370
30
 100
AcDbLine
   6
CONTINUOUS
  62
7
  10
 1455.8000000000
  20
 1073.9000000000
  30
0.0
  11
 1455.8000000000
  21
 1088.3000000000
  31
0.0
   0
LINE
   5
248
 100
AcDbEntity
   8
LEVEL002
 370
30
 100
AcDbLine
   6
CONTINUOUS
  62
7
  10
 1455.8000000000
  20
 1088.3000000000
  30
0.0
  11
 1542.2000000000
  21
 1088.3000000000
  31
0.0
   0
LINE
   5
249
 100
AcDbEntity
   8
LEVEL002
 370
30
 100
AcDbLine
   6
CONTINUOUS
  62
7
  10
 1542.2000000000
  20
 1088.3000000000
  30
0.0
  11
 1542.2000000000
  21
 1073.9000000000
  31
0.0
   0
LINE
   5
24A
 100
AcDbEntity
   8
LEVEL002
 370
30
 100
AcDbLine
   6
CONTINUOUS
  62
7
  10
 1542.2000000000
  20
 1073.9000000000
  30
0.0
  11
 1513.4000000000
  21
 1073.9000000000
  31
0.0
   0
LINE
   5
24B
 100
AcDbEntity
   8
LEVEL002
 370
30
 100
AcDbLine
   6
CONTINUOUS
  62
7
  10
 1513.4000000000
  20
 1073.9000000000
  30
0.0
  11
 1513.4000000000
  21
 1070.3000000000
  31
0.0
   0
LINE
   5
24C
 100
AcDbEntity
   8
LEVEL002
 370
30
 100
AcDbLine
   6
CONTINUOUS
  62
7
  10
 1513.4000000000
  20
 1070.3000000000
  30
0.0
  11
 1538.6000000000
  21
 1070.3000000000
  31
0.0
   0
LINE
   5
24D
 100
AcDbEntity
   8
LEVEL002
 370
30
 100
AcDbLine
   6
CONTINUOUS
  62
7
  10
 1538.6000000000
  20
 1070.3000000000
  30
0.0
  11
 1538.6000000000
  21
 1063.1000000000
  31
0.0
   0
LINE
   5
24E
 100
AcDbEntity
   8
LEVEL002
 370
30
 100
AcDbLine
   6
CONTINUOUS
  62
7
  10
 1538.6000000000
  20
 1063.1000000000
  30
0.0
  11
 1513.4000000000
  21
 1063.1000000000
  31
0.0
   0
LINE
   5
24F
 100
AcDbEntity
   8
LEVEL002
 370
30
 100
AcDbLine
   6
CONTINUOUS
  62
7
  10
 1513.4000000000
  20
 1063.1000000000
  30
0.0
  11
 1513.4000000000
  21
 1059.5000000000
  31
0.0
   0
LINE
   5
250
 100
AcDbEntity
   8
LEVEL002
 370
30
 100
AcDbLine
   6
CONTINUOUS
  62
7
  10
 1513.4000000000
  20
 1059.5000000000
  30
0.0
  11
 1542.2000000000
  21
 1059.5000000000
  31
0.0
   0
LINE
   5
251
 100
AcDbEntity
   8
LEVEL002
 370
30
 100
AcDbLine
   6
CONTINUOUS
  62
7
  10
 1542.2000000000
  20
 1059.5000000000
  30
0.0
  11
 1542.2000000000
  21
 1045.1000000000
  31
0.0
   0
LINE
   5
252
 100
AcDbEntity
   8
LEVEL002
 370
30
 100
AcDbLine
   6
CONTINUOUS
  62
7
  10
 1542.2000000000
  20
 1045.1000000000
  30
0.0
  11
 1499.0000000000
  21
 1045.1000000000
  31
0.0
   0
LINE
   5
253
 100
AcDbEntity
   8
LEVEL002
 370
30
 100
AcDbLine
   6
CONTINUOUS
  62
7
  10
 1499.0000000000
  20
 1045.1000000000
  30
0.0
  11
 1499.0000000000
  21
 1073.9000000000
  31
0.0
   0
LINE
   5
254
 100
AcDbEntity
   8
LEVEL002
 370
30
 100
AcDbLine
   6
CONTINUOUS
  62
7
  10
 1499.0000000000
  20
 1073.9000000000
  30
0.0
  11
 1484.6000000000
  21
 1073.9000000000
  31
0.0
   0
LINE
   5
255
 100
AcDbEntity
   8
LEVEL002
 370
30
 100
AcDbLine
   6
CONTINUOUS
  62
7
  10
 1484.6000000000
  20
 1073.9000000000
  30
0.0
  11
 1484.6000000000
  21
 1045.1000000000
  31
0.0
   0
LINE
   5
256
 100
AcDbEntity
   8
LEVEL002
 370
30
 100
AcDbLine
   6
CONTINUOUS
  62
7
  10
 1484.6000000000
  20
 1045.1000000000
  30
0.0
  11
 1434.2000000000
  21
 1045.1000000000
  31
0.0
   0
LINE
   5
257
 100
AcDbEntity
   8
LEVEL002
 370
30
 100
AcDbLine
   6
CONTINUOUS
  62
7
  10
 1434.2000000000
  20
 1045.1000000000
  30
0.0
  11
 1434.2000000000
  21
 1088.3000000000
  31
0.0
   0
LINE
   5
258
 100
AcDbEntity
   8
LEVEL002
 370
30
 100
AcDbLine
   6
CONTINUOUS
  62
7
  10
 1434.2000000000
  20
 1088.3000000000
  30
0.0
  11
 1405.4000000000
  21
 1045.1000000000
  31
0.0
   0
LINE
   5
259
 100
AcDbEntity
   8
LEVEL002
 370
30
 100
AcDbLine
   6
CONTINUOUS
  62
7
  10
 1405.4000000000
  20
 1045.1000000000
  30
0.0
  11
 1383.8000000000
  21
 1045.1000000000
  31
0.0
   0
LINE
   5
25A
 100
AcDbEntity
   8
LEVEL002
 370
30
 100
AcDbLine
   6
CONTINUOUS
  62
7
  10
 1429.4000000000
  20
 1072.4466769388
  30
0.0
  11
 1411.1688820408
  21
 1045.1000000000
  31
0.0
   0
LINE
   5
25B
 100
AcDbEntity
   8
LEVEL002
 370
30
 100
AcDbLine
   6
CONTINUOUS
  62
7
  10
 1411.1688820408
  20
 1045.1000000000
  30
0.0
  11
 1429.4000000000
  21
 1045.1000000000
  31
0.0
   0
LINE
   5
25C
 100
AcDbEntity
   8
LEVEL002
 370
30
 100
AcDbLine
   6
CONTINUOUS
  62
7
  10
 1429.4000000000
  20
 1045.1000000000
  30
0.0
  11
 1429.4000000000
  21
 1072.4466769388
  31
0.0
   0
ARC
   5
25D
 100
AcDbEntity
   8
LEVEL002
 370
30
   6
CONTINUOUS
  62
7
 100
AcDbCircle
  10
 1563.8000000000
  20
 1066.7000000000
  30
0.0
  40
 21.600000000000
 100
AcDbArc
  50
 90.000000000000
  51
 270.00000000000
   0
ARC
   5
25E
 100
AcDbEntity
   8
LEVEL002
 370
30
   6
CONTINUOUS
  62
7
 100
AcDbCircle
  10
 1563.8000000000
  20
 1066.7000000000
  30
0.0
  40
 7.2000000000000
 100
AcDbArc
  50
 90.000000000000
  51
 270.00000000000
   0
LINE
   5
25F
 100
AcDbEntity
   8
LEVEL002
 370
30
 100
AcDbLine
   6
CONTINUOUS
  62
7
  10
 1563.8000000000
  20
 1088.3000000000
  30
0.0
  11
 1585.4000000000
  21
 1088.3000000000
  31
0.0
   0
LINE
   5
260
 100
AcDbEntity
   8
LEVEL002
 370
30
 100
AcDbLine
   6
CONTINUOUS
  62
7
  10
 1585.4000000000
  20
 1088.3000000000
  30
0.0
  11
 1585.4000000000
  21
 1073.9000000000
  31
0.0
   0
LINE
   5
261
 100
AcDbEntity
   8
LEVEL002
 370
30
 100
AcDbLine
   6
CONTINUOUS
  62
7
  10
 1585.4000000000
  20
 1073.9000000000
  30
0.0
  11
 1563.8000000000
  21
 1073.9000000000
  31
0.0
   0
LINE
   5
262
 100
AcDbEntity
   8
LEVEL002
 370
30
 100
AcDbLine
   6
CONTINUOUS
  62
7
  10
 1347.8000000000
  20
 1088.3000000000
  30
0.0
  11
 1347.8000000000
  21
 1045.1000000000
  31
0.0
   0
LINE
   5
263
 100
AcDbEntity
   8
LEVEL002
 370
30
 100
AcDbLine
   6
CONTINUOUS
  62
7
  10
 1347.8000000000
  20
 1045.1000000000
  30
0.0
  11
 1362.2000000000
  21
 1045.1000000000
  31
0.0
   0
LINE
   5
264
 100
AcDbEntity
   8
LEVEL002
 370
30
 100
AcDbLine
   6
CONTINUOUS
  62
7
  10
 1362.2000000000
  20
 1045.1000000000
  30
0.0
  11
 1362.2000000000
  21
 1052.3000000000
  31
0.0
   0
LINE
   5
265
 100
AcDbEntity
   8
LEVEL002
 370
30
 100
AcDbLine
   6
CONTINUOUS
  62
7
  10
 1362.2000000000
  20
 1052.3000000000
  30
0.0
  11
 1376.6000000000
  21
 1052.3000000000
  31
0.0
   0
ARC
   5
266
 100
AcDbEntity
   8
LEVEL002
 370
30
   6
CONTINUOUS
  62
7
 100
AcDbCircle
  10
 1376.6000000000
  20
 1070.3000000000
  30
0.0
  40
 18.000000000000
 100
AcDbArc
  50
 270.00000000000
  51
 90.000000000000
   0
LINE
   5
267
 100
AcDbEntity
   8
LEVEL002
 370
30
 100
AcDbLine
   6
CONTINUOUS
  62
7
  10
 1376.6000000000
  20
 1088.3000000000
  30
0.0
  11
 1347.8000000000
  21
 1088.3000000000
  31
0.0
   0
LINE
   5
268
 100
AcDbEntity
   8
LEVEL002
 370
30
 100
AcDbLine
   6
CONTINUOUS
  62
7
  10
 1362.2000000000
  20
 1073.9000000000
  30
0.0
  11
 1362.2000000000
  21
 1066.7000000000
  31
0.0
   0
LINE
   5
269
 100
AcDbEntity
   8
LEVEL002
 370
30
 100
AcDbLine
   6
CONTINUOUS
  62
7
  10
 1362.2000000000
  20
 1066.7000000000
  30
0.0
  11
 1376.6000000000
  21
 1066.7000000000
  31
0.0
   0
ARC
   5
26A
 100
AcDbEntity
   8
LEVEL002
 370
30
   6
CONTINUOUS
  62
7
 100
AcDbCircle
  10
 1376.6000000000
  20
 1070.3000000000
  30
0.0
  40
 3.6000000000000
 100
AcDbArc
  50
 270.00000000000
  51
 90.000000000000
   0
LINE
   5
26B
 100
AcDbEntity
   8
LEVEL002
 370
30
 100
AcDbLine
   6
CONTINUOUS
  62
7
  10
 1376.6000000000
  20
 1073.9000000000
  30
0.0
  11
 1362.2000000000
  21
 1073.9000000000
  31
0.0
   0
LINE
   5
26C
 100
AcDbEntity
   8
LEVEL002
 370
30
 100
AcDbLine
   6
CONTINUOUS
  62
7
  10
 1412.6000000000
  20
 1088.3000000000
  30
0.0
  11
 1383.8000000000
  21
 1045.1000000000
  31
0.0
   0
LINE
   5
26D
 100
AcDbEntity
   8
LEVEL002
 370
30
 100
AcDbLine
   6
CONTINUOUS
  62
7
  10
 1383.8000000000
  20
 1045.1000000000
  30
0.0
  11
 1405.4000000000
  21
 1045.1000000000
  31
0.0
   0
LINE
   5
26E
 100
AcDbEntity
   8
LEVEL002
 370
30
 100
AcDbLine
   6
CONTINUOUS
  62
7
  10
 1405.4000000000
  20
 1045.1000000000
  30
0.0
  11
 1434.2000000000
  21
 1088.3000000000
  31
0.0
   0
LINE
   5
26F
 100
AcDbEntity
   8
LEVEL002
 370
30
 100
AcDbLine
   6
CONTINUOUS
  62
7
  10
 1434.2000000000
  20
 1088.3000000000
  30
0.0
  11
 1412.6000000000
  21
 1088.3000000000
  31
0.0
   0
LINE
   5
270
 100
AcDbEntity
   8
LEVEL002
 370
30
 100
AcDbLine
   6
CONTINUOUS
  62
7
  10
 1429.4000000000
  20
 1045.1000000000
  30
0.0
  11
 1429.4000000000
  21
 1072.4466769388
  31
0.0
   0
LINE
   5
271
 100
AcDbEntity
   8
LEVEL002
 370
30
 100
AcDbLine
   6
CONTINUOUS
  62
7
  10
 1429.4000000000
  20
 1072.4466769388
  30
0.0
  11
 1411.1688820408
  21
 1045.1000000000
  31
0.0
   0
LINE
   5
272
 100
AcDbEntity
   8
LEVEL002
 370
30
 100
AcDbLine
   6
CONTINUOUS
  62
7
  10
 1411.1688820408
  20
 1045.1000000000
  30
0.0
  11
 1429.4000000000
  21
 1045.1000000000
  31
0.0
   0
LINE
   5
273
 100
AcDbEntity
   8
LEVEL002
 370
30
 100
AcDbLine
   6
CONTINUOUS
  62
7
  10
 1434.2000000000
  20
 1045.1000000000
  30
0.0
  11
 1484.6000000000
  21
 1045.1000000000
  31
0.0
   0
LINE
   5
274
 100
AcDbEntity
   8
LEVEL002
 370
30
 100
AcDbLine
   6
CONTINUOUS
  62
7
  10
 1484.6000000000
  20
 1045.1000000000
  30
0.0
  11
 1484.6000000000
  21
 1073.9000000000
  31
0.0
   0
LINE
   5
275
 100
AcDbEntity
   8
LEVEL002
 370
30
 100
AcDbLine
   6
CONTINUOUS
  62
7
  10
 1484.6000000000
  20
 1073.9000000000
  30
0.0
  11
 1499.0000000000
  21
 1073.9000000000
  31
0.0
   0
LINE
   5
276
 100
AcDbEntity
   8
LEVEL002
 370
30
 100
AcDbLine
   6
CONTINUOUS
  62
7
  10
 1499.0000000000
  20
 1073.9000000000
  30
0.0
  11
 1499.0000000000
  21
 1045.1000000000
  31
0.0
   0
LINE
   5
277
 100
AcDbEntity
   8
LEVEL002
 370
30
 100
AcDbLine
   6
CONTINUOUS
  62
7
  10
 1499.0000000000
  20
 1045.1000000000
  30
0.0
  11
 1542.2000000000
  21
 1045.1000000000
  31
0.0
   0
LINE
   5
278
 100
AcDbEntity
   8
LEVEL002
 370
30
 100
AcDbLine
   6
CONTINUOUS
  62
7
  10
 1542.2000000000
  20
 1045.1000000000
  30
0.0
  11
 1542.2000000000
  21
 1059.5000000000
  31
0.0
   0
LINE
   5
279
 100
AcDbEntity
   8
LEVEL002
 370
30
 100
AcDbLine
   6
CONTINUOUS
  62
7
  10
 1542.2000000000
  20
 1059.5000000000
  30
0.0
  11
 1513.4000000000
  21
 1059.5000000000
  31
0.0
   0
LINE
   5
27A
 100
AcDbEntity
   8
LEVEL002
 370
30
 100
AcDbLine
   6
CONTINUOUS
  62
7
  10
 1513.4000000000
  20
 1059.5000000000
  30
0.0
  11
 1513.4000000000
  21
 1063.1000000000
  31
0.0
   0
LINE
   5
27B
 100
AcDbEntity
   8
LEVEL002
 370
30
 100
AcDbLine
   6
CONTINUOUS
  62
7
  10
 1513.4000000000
  20
 1063.1000000000
  30
0.0
  11
 1538.6000000000
  21
 1063.1000000000
  31
0.0
   0
LINE
   5
27C
 100
AcDbEntity
   8
LEVEL002
 370
30
 100
AcDbLine
   6
CONTINUOUS
  62
7
  10
 1538.6000000000
  20
 1063.1000000000
  30
0.0
  11
 1538.6000000000
  21
 1070.3000000000
  31
0.0
   0
LINE
   5
27D
 100
AcDbEntity
   8
LEVEL002
 370
30
 100
AcDbLine
   6
CONTINUOUS
  62
7
  10
 1538.6000000000
  20
 1070.3000000000
  30
0.0
  11
 1513.4000000000
  21
 1070.3000000000
  31
0.0
   0
LINE
   5
27E
 100
AcDbEntity
   8
LEVEL002
 370
30
 100
AcDbLine
   6
CONTINUOUS
  62
7
  10
 1513.4000000000
  20
 1070.3000000000
  30
0.0
  11
 1513.4000000000
  21
 1073.9000000000
  31
0.0
   0
LINE
   5
27F
 100
AcDbEntity
   8
LEVEL002
 370
30
 100
AcDbLine
   6
CONTINUOUS
  62
7
  10
 1513.4000000000
  20
 1073.9000000000
  30
0.0
  11
 1542.2000000000
  21
 1073.9000000000
  31
0.0
   0
LINE
   5
280
 100
AcDbEntity
   8
LEVEL002
 370
30
 100
AcDbLine
   6
CONTINUOUS
  62
7
  10
 1542.2000000000
  20
 1073.9000000000
  30
0.0
  11
 1542.2000000000
  21
 1088.3000000000
  31
0.0
   0
LINE
   5
281
 100
AcDbEntity
   8
LEVEL002
 370
30
 100
AcDbLine
   6
CONTINUOUS
  62
7
  10
 1542.2000000000
  20
 1088.3000000000
  30
0.0
  11
 1455.8000000000
  21
 1088.3000000000
  31
0.0
   0
LINE
   5
282
 100
AcDbEntity
   8
LEVEL002
 370
30
 100
AcDbLine
   6
CONTINUOUS
  62
7
  10
 1455.8000000000
  20
 1088.3000000000
  30
0.0
  11
 1455.8000000000
  21
 1073.9000000000
  31
0.0
   0
LINE
   5
283
 100
AcDbEntity
   8
LEVEL002
 370
30
 100
AcDbLine
   6
CONTINUOUS
  62
7
  10
 1455.8000000000
  20
 1073.9000000000
  30
0.0
  11
 1470.2000000000
  21
 1073.9000000000
  31
0.0
   0
LINE
   5
284
 100
AcDbEntity
   8
LEVEL002
 370
30
 100
AcDbLine
   6
CONTINUOUS
  62
7
  10
 1470.2000000000
  20
 1073.9000000000
  30
0.0
  11
 1470.2000000000
  21
 1059.5000000000
  31
0.0
   0
LINE
   5
285
 100
AcDbEntity
   8
LEVEL002
 370
30
 100
AcDbLine
   6
CONTINUOUS
  62
7
  10
 1470.2000000000
  20
 1059.5000000000
  30
0.0
  11
 1448.6000000000
  21
 1059.5000000000
  31
0.0
   0
LINE
   5
286
 100
AcDbEntity
   8
LEVEL002
 370
30
 100
AcDbLine
   6
CONTINUOUS
  62
7
  10
 1448.6000000000
  20
 1059.5000000000
  30
0.0
  11
 1448.6000000000
  21
 1088.3000000000
  31
0.0
   0
LINE
   5
287
 100
AcDbEntity
   8
LEVEL002
 370
30
 100
AcDbLine
   6
CONTINUOUS
  62
7
  10
 1448.6000000000
  20
 1088.3000000000
  30
0.0
  11
 1434.2000000000
  21
 1088.3000000000
  31
0.0
   0
LINE
   5
288
 100
AcDbEntity
   8
LEVEL002
 370
30
 100
AcDbLine
   6
CONTINUOUS
  62
7
  10
 1434.2000000000
  20
 1088.3000000000
  30
0.0
  11
 1434.2000000000
  21
 1045.1000000000
  31
0.0
   0
LINE
   5
289
 100
AcDbEntity
   8
LEVEL002
 370
30
 100
AcDbLine
   6
CONTINUOUS
  62
7
  10
 1563.8000000000
  20
 1045.1000000000
  30
0.0
  11
 1585.4000000000
  21
 1045.1000000000
  31
0.0
   0
LINE
   5
28A
 100
AcDbEntity
   8
LEVEL002
 370
30
 100
AcDbLine
   6
CONTINUOUS
  62
7
  10
 1585.4000000000
  20
 1045.1000000000
  30
0.0
  11
 1585.4000000000
  21
 1059.5000000000
  31
0.0
   0
LINE
   5
28B
 100
AcDbEntity
   8
LEVEL002
 370
30
 100
AcDbLine
   6
CONTINUOUS
  62
7
  10
 1585.4000000000
  20
 1059.5000000000
  30
0.0
  11
 1563.8000000000
  21
 1059.5000000000
  31
0.0
   0
ARC
   5
28C
 100
AcDbEntity
   8
LEVEL002
 370
30
   6
CONTINUOUS
  62
7
 100
AcDbCircle
  10
 1563.8000000000
  20
 1066.7000000000
  30
0.0
  40
 7.2000000000000
 100
AcDbArc
  50
 90.000000000000
  51
 270.00000000000
   0
LINE
   5
28D
 100
AcDbEntity
   8
LEVEL002
 370
30
 100
AcDbLine
   6
CONTINUOUS
  62
7
  10
 1563.8000000000
  20
 1073.9000000000
  30
0.0
  11
 1585.4000000000
  21
 1073.9000000000
  31
0.0
   0
LINE
   5
28E
 100
AcDbEntity
   8
LEVEL002
 370
30
 100
AcDbLine
   6
CONTINUOUS
  62
7
  10
 1585.4000000000
  20
 1073.9000000000
  30
0.0
  11
 1585.4000000000
  21
 1088.3000000000
  31
0.0
   0
LINE
   5
28F
 100
AcDbEntity
   8
LEVEL002
 370
30
 100
AcDbLine
   6
CONTINUOUS
  62
7
  10
 1585.4000000000
  20
 1088.3000000000
  30
0.0
  11
 1563.8000000000
  21
 1088.3000000000
  31
0.0
   0
ARC
   5
290
 100
AcDbEntity
   8
LEVEL002
 370
30
   6
CONTINUOUS
  62
7
 100
AcDbCircle
  10
 1563.8000000000
  20
 1066.7000000000
  30
0.0
  40
 21.600000000000
 100
AcDbArc
  50
 90.000000000000
  51
 270.00000000000
   0
MTEXT
   5
292
 100
AcDbEntity
   8
LEVEL002
 370
30
  62
7
 100
AcDbMText
  10
 1347.8000000000
  20
 1095.5000000000
  30
0.0
  40
 15.000000000000
  41
0.0
  71
7
  72
1
   1
\T1.000000;ケージーパルテック株式会社
   7
GMM001
  44
 0.79999984000003
   0
LINE
   5
293
 100
AcDbEntity
   8
LEVEL002
 370
30
 100
AcDbLine
   6
CONTINUOUS
  62
7
  10
 1333.4000000000
  20
 1054.7000000000
  30
0.0
  11
 1315.4000000000
  21
 1083.5000000000
  31
0.0
   0
LINE
   5
294
 100
AcDbEntity
   8
LEVEL002
 370
30
 100
AcDbLine
   6
CONTINUOUS
  62
7
  10
 1315.4000000000
  20
 1083.5000000000
  30
0.0
  11
 1333.4000000000
  21
 1083.5000000000
  31
0.0
   0
LINE
   5
295
 100
AcDbEntity
   8
LEVEL002
 370
30
 100
AcDbLine
   6
CONTINUOUS
  62
7
  10
 1333.4000000000
  20
 1083.5000000000
  30
0.0
  11
 1333.4000000000
  21
 1054.7000000000
  31
0.0
   0
LINE
   5
296
 100
AcDbEntity
   8
LEVEL002
 370
30
 100
AcDbLine
   6
CONTINUOUS
  62
7
  10
 1315.4000000000
  20
 1083.5000000000
  30
0.0
  11
 1333.4000000000
  21
 1054.7000000000
  31
0.0
   0
LINE
   5
297
 100
AcDbEntity
   8
LEVEL002
 370
30
 100
AcDbLine
   6
CONTINUOUS
  62
7
  10
 1333.4000000000
  20
 1054.7000000000
  30
0.0
  11
 1333.4000000000
  21
 1083.5000000000
  31
0.0
   0
LINE
   5
298
 100
AcDbEntity
   8
LEVEL002
 370
30
 100
AcDbLine
   6
CONTINUOUS
  62
7
  10
 1333.4000000000
  20
 1083.5000000000
  30
0.0
  11
 1315.4000000000
  21
 1083.5000000000
  31
0.0
   0
LINE
   5
299
 100
AcDbEntity
   8
LEVEL002
 370
30
 100
AcDbLine
   6
CONTINUOUS
  62
7
  10
 1276.2000000000
  20
 1121.9000000000
  30
0.0
  11
 1250.6000000000
  21
 1083.5000000000
  31
0.0
   0
LINE
   5
29A
 100
AcDbEntity
   8
LEVEL002
 370
30
 100
AcDbLine
   6
CONTINUOUS
  62
7
  10
 1250.6000000000
  20
 1083.5000000000
  30
0.0
  11
 1276.2000000000
  21
 1045.1000000000
  31
0.0
   0
LINE
   5
29B
 100
AcDbEntity
   8
LEVEL002
 370
30
 100
AcDbLine
   6
CONTINUOUS
  62
7
  10
 1297.8000000000
  20
 1045.1000000000
  30
0.0
  11
 1272.2000000000
  21
 1083.5000000000
  31
0.0
   0
LINE
   5
29C
 100
AcDbEntity
   8
LEVEL002
 370
30
 100
AcDbLine
   6
CONTINUOUS
  62
7
  10
 1272.2000000000
  20
 1083.5000000000
  30
0.0
  11
 1297.8000000000
  21
 1121.9000000000
  31
0.0
   0
LINE
   5
29D
 100
AcDbEntity
   8
LEVEL002
 370
30
 100
AcDbLine
   6
CONTINUOUS
  62
7
  10
 1308.6000000000
  20
 1121.9000000000
  30
0.0
  11
 1283.0000000000
  21
 1083.5000000000
  31
0.0
   0
LINE
   5
29E
 100
AcDbEntity
   8
LEVEL002
 370
30
 100
AcDbLine
   6
CONTINUOUS
  62
7
  10
 1283.0000000000
  20
 1083.5000000000
  30
0.0
  11
 1308.6000000000
  21
 1045.1000000000
  31
0.0
   0
LINE
   5
29F
 100
AcDbEntity
   8
LEVEL002
 370
30
 100
AcDbLine
   6
CONTINUOUS
  62
7
  10
 1330.2000000000
  20
 1045.1000000000
  30
0.0
  11
 1304.6000000000
  21
 1083.5000000000
  31
0.0
   0
LINE
   5
2A0
 100
AcDbEntity
   8
LEVEL002
 370
30
 100
AcDbLine
   6
CONTINUOUS
  62
7
  10
 1304.6000000000
  20
 1083.5000000000
  30
0.0
  11
 1330.2000000000
  21
 1121.9000000000
  31
0.0
   0
LINE
   5
2A1
 100
AcDbEntity
   8
LEVEL002
 370
30
 100
AcDbLine
   6
CONTINUOUS
  62
7
  10
 1276.2000000000
  20
 1045.1000000000
  30
0.0
  11
 1250.6000000000
  21
 1083.5000000000
  31
0.0
   0
LINE
   5
2A2
 100
AcDbEntity
   8
LEVEL002
 370
30
 100
AcDbLine
   6
CONTINUOUS
  62
7
  10
 1250.6000000000
  20
 1083.5000000000
  30
0.0
  11
 1276.2000000000
  21
 1121.9000000000
  31
0.0
   0
LINE
   5
2A3
 100
AcDbEntity
   8
LEVEL002
 370
30
 100
AcDbLine
   6
CONTINUOUS
  62
7
  10
 1276.2000000000
  20
 1121.9000000000
  30
0.0
  11
 1297.8000000000
  21
 1121.9000000000
  31
0.0
   0
LINE
   5
2A4
 100
AcDbEntity
   8
LEVEL002
 370
30
 100
AcDbLine
   6
CONTINUOUS
  62
7
  10
 1297.8000000000
  20
 1121.9000000000
  30
0.0
  11
 1272.2000000000
  21
 1083.5000000000
  31
0.0
   0
LINE
   5
2A5
 100
AcDbEntity
   8
LEVEL002
 370
30
 100
AcDbLine
   6
CONTINUOUS
  62
7
  10
 1272.2000000000
  20
 1083.5000000000
  30
0.0
  11
 1297.8000000000
  21
 1045.1000000000
  31
0.0
   0
LINE
   5
2A6
 100
AcDbEntity
   8
LEVEL002
 370
30
 100
AcDbLine
   6
CONTINUOUS
  62
7
  10
 1297.8000000000
  20
 1045.1000000000
  30
0.0
  11
 1276.2000000000
  21
 1045.1000000000
  31
0.0
   0
LINE
   5
2A7
 100
AcDbEntity
   8
LEVEL002
 370
30
 100
AcDbLine
   6
CONTINUOUS
  62
7
  10
 1308.6000000000
  20
 1045.1000000000
  30
0.0
  11
 1283.0000000000
  21
 1083.5000000000
  31
0.0
   0
LINE
   5
2A8
 100
AcDbEntity
   8
LEVEL002
 370
30
 100
AcDbLine
   6
CONTINUOUS
  62
7
  10
 1283.0000000000
  20
 1083.5000000000
  30
0.0
  11
 1308.6000000000
  21
 1121.9000000000
  31
0.0
   0
LINE
   5
2A9
 100
AcDbEntity
   8
LEVEL002
 370
30
 100
AcDbLine
   6
CONTINUOUS
  62
7
  10
 1308.6000000000
  20
 1121.9000000000
  30
0.0
  11
 1330.2000000000
  21
 1121.9000000000
  31
0.0
   0
LINE
   5
2AA
 100
AcDbEntity
   8
LEVEL002
 370
30
 100
AcDbLine
   6
CONTINUOUS
  62
7
  10
 1330.2000000000
  20
 1121.9000000000
  30
0.0
  11
 1304.6000000000
  21
 1083.5000000000
  31
0.0
   0
LINE
   5
2AB
 100
AcDbEntity
   8
LEVEL002
 370
30
 100
AcDbLine
   6
CONTINUOUS
  62
7
  10
 1304.6000000000
  20
 1083.5000000000
  30
0.0
  11
 1330.2000000000
  21
 1045.1000000000
  31
0.0
   0
LINE
   5
2AC
 100
AcDbEntity
   8
LEVEL002
 370
30
 100
AcDbLine
   6
CONTINUOUS
  62
7
  10
 1330.2000000000
  20
 1045.1000000000
  30
0.0
  11
 1308.6000000000
  21
 1045.1000000000
  31
0.0
   0
LINE
   5
2AD
 100
AcDbEntity
   8
LEVEL001
 370
30
 100
AcDbLine
   6
DOT
  62
7
  10
0.0
  20
0.0
  30
0.0
  11
 1680.0000000000
  21
0.0
  31
0.0
   0
LINE
   5
2AE
 100
AcDbEntity
   8
LEVEL001
 370
30
 100
AcDbLine
   6
DOT
  62
7
  10
 1680.0000000000
  20
0.0
  30
0.0
  11
 1680.0000000000
  21
 1188.0000000000
  31
0.0
   0
LINE
   5
2AF
 100
AcDbEntity
   8
LEVEL001
 370
30
 100
AcDbLine
   6
DOT
  62
7
  10
 1680.0000000000
  20
 1188.0000000000
  30
0.0
  11
0.0
  21
 1188.0000000000
  31
0.0
   0
LINE
   5
2B0
 100
AcDbEntity
   8
LEVEL001
 370
30
 100
AcDbLine
   6
DOT
  62
7
  10
0.0
  20
 1188.0000000000
  30
0.0
  11
0.0
  21
0.0
  31
0.0
   0
LINE
   5
2B1
 100
AcDbEntity
   8
LEVEL002
 370
40
 100
AcDbLine
   6
CONTINUOUS
  62
3
  10
 61.999999999800
  20
 1100.0000000000
  30
0.0
  11
 1217.9999999998
  21
 1100.0000000000
  31
0.0
   0
LINE
   5
2B2
 100
AcDbEntity
   8
LEVEL002
 370
40
 100
AcDbLine
   6
CONTINUOUS
  62
3
  10
 1217.9999999998
  20
 1027.0000000000
  30
0.0
  11
 1617.9999999998
  21
 1027.0000000000
  31
0.0
   0
LINE
   5
2B3
 100
AcDbEntity
   8
LEVEL002
 370
40
 100
AcDbLine
   6
CONTINUOUS
  62
3
  10
 1217.9999999998
  20
 947.00000000000
  30
0.0
  11
 1617.9999999998
  21
 947.00000000000
  31
0.0
   0
LINE
   5
2B4
 100
AcDbEntity
   8
LEVEL002
 370
40
 100
AcDbLine
   6
CONTINUOUS
  62
3
  10
 1217.9999999998
  20
 867.00000000000
  30
0.0
  11
 1617.9999999998
  21
 867.00000000000
  31
0.0
   0
LINE
   5
2B5
 100
AcDbEntity
   8
LEVEL002
 370
40
 100
AcDbLine
   6
CONTINUOUS
  62
3
  10
 1217.9999999998
  20
 288.00000000004
  30
0.0
  11
 1617.9999999998
  21
 288.00000000004
  31
0.0
   0
LINE
   5
2B6
 100
AcDbEntity
   8
LEVEL002
 370
40
 100
AcDbLine
   6
CONTINUOUS
  62
3
  10
 1217.9999999998
  20
 208.00000000004
  30
0.0
  11
 1617.9999999998
  21
 208.00000000004
  31
0.0
   0
LINE
   5
2B7
 100
AcDbEntity
   8
LEVEL002
 370
40
 100
AcDbLine
   6
CONTINUOUS
  62
3
  10
 1217.9999999998
  20
 128.00000000004
  30
0.0
  11
 1617.9999999998
  21
 128.00000000004
  31
0.0
   0
LINE
   5
2B8
 100
AcDbEntity
   8
LEVEL002
 370
40
 100
AcDbLine
   6
CONTINUOUS
  62
3
  10
 1417.9999999998
  20
 208.00000000004
  30
0.0
  11
 1417.9999999998
  21
 48.000000000040
  31
0.0
   0
LINE
   5
2B9
 100
AcDbEntity
   8
LEVEL002
 370
40
 100
AcDbLine
   6
CONTINUOUS
  62
3
  10
 1417.9999999998
  20
 154.66666666672
  30
0.0
  11
 1617.9999999998
  21
 154.66666666672
  31
0.0
   0
LINE
   5
2BA
 100
AcDbEntity
   8
LEVEL002
 370
40
 100
AcDbLine
   6
CONTINUOUS
  62
3
  10
 1417.9999999998
  20
 181.33333333338
  30
0.0
  11
 1617.9999999998
  21
 181.33333333338
  31
0.0
   0
LINE
   5
2BB
 100
AcDbEntity
   8
LEVEL002
 370
50
 100
AcDbLine
   6
CONTINUOUS
  62
4
  10
 1617.9999999998
  20
 1140.0000000000
  30
0.0
  11
 61.999999999800
  21
 1140.0000000000
  31
0.0
   0
LINE
   5
2BC
 100
AcDbEntity
   8
LEVEL002
 370
50
 100
AcDbLine
   6
CONTINUOUS
  62
4
  10
 1217.9999999998
  20
 1140.0000000000
  30
0.0
  11
 1217.9999999998
  21
 48.000000000040
  31
0.0
   0
LINE
   5
2BD
 100
AcDbEntity
   8
LEVEL002
 370
50
 100
AcDbLine
   6
CONTINUOUS
  62
4
  10
 1617.9999999998
  20
 48.000000000040
  30
0.0
  11
 1617.9999999998
  21
 1140.0000000000
  31
0.0
   0
LINE
   5
2BE
 100
AcDbEntity
   8
LEVEL002
 370
50
 100
AcDbLine
   6
CONTINUOUS
  62
4
  10
 61.999999999800
  20
 1140.0000000000
  30
0.0
  11
 61.999999999800
  21
 48.000000000040
  31
0.0
   0
LINE
   5
2BF
 100
AcDbEntity
   8
LEVEL002
 370
50
 100
AcDbLine
   6
CONTINUOUS
  62
4
  10
 61.999999999800
  20
 48.000000000040
  30
0.0
  11
 1617.9999999998
  21
 48.000000000040
  31
0.0
   0
HATCH
   5
2C0
 100
AcDbEntity
   8
LEVEL001
  62
1
 100
AcDbHatch
  10
0.0
  20
0.0
  30
0.0
 210
0.0
 220
0.0
 230
 1.0000000000000
   2
SOLID
  70
1
  71
1
  91
7
  92
1
  93
6
  72
1
  10
 1297.8000000000
  20
 1121.9000000000
  11
 1272.2000000000
  21
 1083.5000000000
  72
1
  10
 1272.2000000000
  20
 1083.5000000000
  11
 1297.8000000000
  21
 1045.1000000000
  72
1
  10
 1297.8000000000
  20
 1045.1000000000
  11
 1276.2000000000
  21
 1045.1000000000
  72
1
  10
 1276.2000000000
  20
 1045.1000000000
  11
 1250.6000000000
  21
 1083.5000000000
  72
1
  10
 1250.6000000000
  20
 1083.5000000000
  11
 1276.2000000000
  21
 1121.9000000000
  72
1
  10
 1276.2000000000
  20
 1121.9000000000
  11
 1297.8000000000
  21
 1121.9000000000
  97
1
 330

  92
16
  93
6
  72
1
  10
 1308.6000000000
  20
 1121.9000000000
  11
 1330.2000000000
  21
 1121.9000000000
  72
1
  10
 1330.2000000000
  20
 1121.9000000000
  11
 1304.6000000000
  21
 1083.5000000000
  72
1
  10
 1304.6000000000
  20
 1083.5000000000
  11
 1330.2000000000
  21
 1045.1000000000
  72
1
  10
 1330.2000000000
  20
 1045.1000000000
  11
 1308.6000000000
  21
 1045.1000000000
  72
1
  10
 1308.6000000000
  20
 1045.1000000000
  11
 1283.0000000000
  21
 1083.5000000000
  72
1
  10
 1283.0000000000
  20
 1083.5000000000
  11
 1308.6000000000
  21
 1121.9000000000
  97
1
 330

  92
16
  93
3
  72
1
  10
 1333.4000000000
  20
 1083.5000000000
  11
 1315.4000000000
  21
 1083.5000000000
  72
1
  10
 1315.4000000000
  20
 1083.5000000000
  11
 1333.4000000000
  21
 1054.7000000000
  72
1
  10
 1333.4000000000
  20
 1054.7000000000
  11
 1333.4000000000
  21
 1083.5000000000
  97
1
 330

  92
16
  93
6
  72
1
  10
 1347.8000000000
  20
 1088.3000000000
  11
 1376.6000000000
  21
 1088.3000000000
  72
2
  10
 1376.6000000000
  20
 1070.3000000000
  40
 18.000000000000
  50
 270.00000000000
  51
 90.000000000000
  73
0
  72
1
  10
 1376.6000000000
  20
 1052.3000000000
  11
 1362.2000000000
  21
 1052.3000000000
  72
1
  10
 1362.2000000000
  20
 1052.3000000000
  11
 1362.2000000000
  21
 1045.1000000000
  72
1
  10
 1362.2000000000
  20
 1045.1000000000
  11
 1347.8000000000
  21
 1045.1000000000
  72
1
  10
 1347.8000000000
  20
 1045.1000000000
  11
 1347.8000000000
  21
 1088.3000000000
  97
1
 330

  92
16
  93
4
  72
1
  10
 1376.6000000000
  20
 1073.9000000000
  11
 1362.2000000000
  21
 1073.9000000000
  72
1
  10
 1362.2000000000
  20
 1073.9000000000
  11
 1362.2000000000
  21
 1066.7000000000
  72
1
  10
 1362.2000000000
  20
 1066.7000000000
  11
 1376.6000000000
  21
 1066.7000000000
  72
2
  10
 1376.6000000000
  20
 1070.3000000000
  40
 3.6000000000000
  50
 270.00000000000
  51
 90.000000000000
  73
1
  97
1
 330

  92
16
  93
4
  72
1
  10
 1383.8000000000
  20
 1045.1000000000
  11
 1412.6000000000
  21
 1088.3000000000
  72
1
  10
 1412.6000000000
  20
 1088.3000000000
  11
 1434.2000000000
  21
 1088.3000000000
  72
1
  10
 1434.2000000000
  20
 1088.3000000000
  11
 1405.4000000000
  21
 1045.1000000000
  72
1
  10
 1405.4000000000
  20
 1045.1000000000
  11
 1383.8000000000
  21
 1045.1000000000
  97
1
 330

  92
16
  93
3
  72
1
  10
 1429.4000000000
  20
 1072.4466769388
  11
 1411.1688820408
  21
 1045.1000000000
  72
1
  10
 1411.1688820408
  20
 1045.1000000000
  11
 1429.4000000000
  21
 1045.1000000000
  72
1
  10
 1429.4000000000
  20
 1045.1000000000
  11
 1429.4000000000
  21
 1072.4466769388
  97
1
 330

  75
0
  76
1
  98
1
  10
0.0
  20
0.0
   0
HATCH
   5
2C1
 100
AcDbEntity
   8
LEVEL001
  62
1
 100
AcDbHatch
  10
0.0
  20
0.0
  30
0.0
 210
0.0
 220
0.0
 230
 1.0000000000000
   2
SOLID
  70
1
  71
1
  91
1
  92
1
  93
22
  72
1
  10
 1434.2000000000
  20
 1088.3000000000
  11
 1448.6000000000
  21
 1088.3000000000
  72
1
  10
 1448.6000000000
  20
 1088.3000000000
  11
 1448.6000000000
  21
 1059.5000000000
  72
1
  10
 1448.6000000000
  20
 1059.5000000000
  11
 1470.2000000000
  21
 1059.5000000000
  72
1
  10
 1470.2000000000
  20
 1059.5000000000
  11
 1470.2000000000
  21
 1073.9000000000
  72
1
  10
 1470.2000000000
  20
 1073.9000000000
  11
 1455.8000000000
  21
 1073.9000000000
  72
1
  10
 1455.8000000000
  20
 1073.9000000000
  11
 1455.8000000000
  21
 1088.3000000000
  72
1
  10
 1455.8000000000
  20
 1088.3000000000
  11
 1542.2000000000
  21
 1088.3000000000
  72
1
  10
 1542.2000000000
  20
 1088.3000000000
  11
 1542.2000000000
  21
 1073.9000000000
  72
1
  10
 1542.2000000000
  20
 1073.9000000000
  11
 1513.4000000000
  21
 1073.9000000000
  72
1
  10
 1513.4000000000
  20
 1073.9000000000
  11
 1513.4000000000
  21
 1070.3000000000
  72
1
  10
 1513.4000000000
  20
 1070.3000000000
  11
 1538.6000000000
  21
 1070.3000000000
  72
1
  10
 1538.6000000000
  20
 1070.3000000000
  11
 1538.6000000000
  21
 1063.1000000000
  72
1
  10
 1538.6000000000
  20
 1063.1000000000
  11
 1513.4000000000
  21
 1063.1000000000
  72
1
  10
 1513.4000000000
  20
 1063.1000000000
  11
 1513.4000000000
  21
 1059.5000000000
  72
1
  10
 1513.4000000000
  20
 1059.5000000000
  11
 1542.2000000000
  21
 1059.5000000000
  72
1
  10
 1542.2000000000
  20
 1059.5000000000
  11
 1542.2000000000
  21
 1045.1000000000
  72
1
  10
 1542.2000000000
  20
 1045.1000000000
  11
 1499.0000000000
  21
 1045.1000000000
  72
1
  10
 1499.0000000000
  20
 1045.1000000000
  11
 1499.0000000000
  21
 1073.9000000000
  72
1
  10
 1499.0000000000
  20
 1073.9000000000
  11
 1484.6000000000
  21
 1073.9000000000
  72
1
  10
 1484.6000000000
  20
 1073.9000000000
  11
 1484.6000000000
  21
 1045.1000000000
  72
1
  10
 1484.6000000000
  20
 1045.1000000000
  11
 1434.2000000000
  21
 1045.1000000000
  72
1
  10
 1434.2000000000
  20
 1045.1000000000
  11
 1434.2000000000
  21
 1088.3000000000
  97
1
 330

  75
0
  76
1
  98
1
  10
0.0
  20
0.0
   0
HATCH
   5
2C2
 100
AcDbEntity
   8
LEVEL001
  62
1
 100
AcDbHatch
  10
0.0
  20
0.0
  30
0.0
 210
0.0
 220
0.0
 230
 1.0000000000000
   2
SOLID
  70
1
  71
1
  91
1
  92
1
  93
8
  72
1
  10
 1585.4000000000
  20
 1088.3000000000
  11
 1563.8000000000
  21
 1088.3000000000
  72
2
  10
 1563.8000000000
  20
 1066.7000000000
  40
 21.600000000000
  50
 90.000000000000
  51
 270.00000000000
  73
1
  72
1
  10
 1563.8000000000
  20
 1045.1000000000
  11
 1585.4000000000
  21
 1045.1000000000
  72
1
  10
 1585.4000000000
  20
 1045.1000000000
  11
 1585.4000000000
  21
 1059.5000000000
  72
1
  10
 1585.4000000000
  20
 1059.5000000000
  11
 1563.8000000000
  21
 1059.5000000000
  72
2
  10
 1563.8000000000
  20
 1066.7000000000
  40
 7.2000000000000
  50
 90.000000000000
  51
 270.00000000000
  73
0
  72
1
  10
 1563.8000000000
  20
 1073.9000000000
  11
 1585.4000000000
  21
 1073.9000000000
  72
1
  10
 1585.4000000000
  20
 1073.9000000000
  11
 1585.4000000000
  21
 1088.3000000000
  97
1
 330

  75
0
  76
1
  98
1
  10
0.0
  20
0.0
   0
MTEXT
   5
2C4
 100
AcDbEntity
   8
LEVEL002
 370
15
  62
8
 100
AcDbMText
  10
 1243.1999999998
  20
 113.00000000004
  30
0.0
  40
 12.000000000000
  41
0.0
  71
5
  72
1
   1
\T1.000000;サイズ：
   7
GMM002
  44
 0.79999984000003
   0
MTEXT
   5
2C6
 100
AcDbEntity
   8
LEVEL002
 370
15
  62
8
 100
AcDbMText
  10
 1237.1999999998
  20
 193.00000000004
  30
0.0
  40
 12.000000000000
  41
0.0
  71
5
  72
1
   1
\T1.000000;縮尺：
   7
GMM002
  44
 0.79999984000003
   0
MTEXT
   5
2C8
 100
AcDbEntity
   8
LEVEL002
 370
15
  62
8
 100
AcDbMText
  10
 1249.1999999998
  20
 273.00000000004
  30
0.0
  40
 12.000000000000
  41
0.0
  71
5
  72
1
   1
\T1.000000;図面名称：
   7
GMM002
  44
 0.79999984000003
   0
MTEXT
   5
2CA
 100
AcDbEntity
   8
LEVEL002
 370
15
  62
8
 100
AcDbMText
  10
 1455.1999999998
  20
 113.00000000004
  30
0.0
  40
 12.000000000000
  41
0.0
  71
5
  72
1
   1
\T1.000000;ファイル名：
   7
GMM002
  44
 0.79999984000003
   0
MTEXT
   5
2CC
 100
AcDbEntity
   8
LEVEL002
 370
15
  62
8
 100
AcDbMText
  10
 1449.1999999998
  20
 194.66666666672
  30
0.0
  40
 11.200000000000
  41
0.0
  71
5
  72
1
   1
\T1.000000;作成日付：
   7
GMM003
  44
 0.79999984000003
   0
MTEXT
   5
2CE
 100
AcDbEntity
   8
LEVEL002
 370
15
  62
8
 100
AcDbMText
  10
 1449.1999999998
  20
 168.00000000004
  30
0.0
  40
 11.200000000000
  41
0.0
  71
5
  72
1
   1
\T1.000000;変更日付：
   7
GMM003
  44
 0.79999984000003
   0
MTEXT
   5
2D0
 100
AcDbEntity
   8
LEVEL002
 370
15
  62
8
 100
AcDbMText
  10
 1317.9999999998
  20
 73.000000000040
  30
0.0
  40
 15.000000000000
  41
0.0
  71
5
  72
1
   1
\T1.000000;Ａ３
   7
GMM002
  44
 0.79999984000003
   0
MTEXT
   5
2D2
 100
AcDbEntity
   8
LEVEL002
 370
15
  62
8
 100
AcDbMText
  10
 1237.1999999998
  20
 852.00000000000
  30
0.0
  40
 12.000000000000
  41
0.0
  71
5
  72
1
   1
\T1.000000;仕様：
   7
GMM002
  44
 0.79999984000003
   0
MTEXT
   5
2D4
 100
AcDbEntity
   8
LEVEL002
 370
15
  62
8
 100
AcDbMText
  10
 1237.1999999998
  20
 932.00000000000
  30
0.0
  40
 12.000000000000
  41
0.0
  71
5
  72
1
   1
\T1.000000;形式：
   7
GMM002
  44
 0.79999984000003
   0
MTEXT
   5
2D6
 100
AcDbEntity
   8
LEVEL002
 370
15
  62
8
 100
AcDbMText
  10
 1243.1999999998
  20
 1012.0000000000
  30
0.0
  40
 12.000000000000
  41
0.0
  71
5
  72
1
   1
\T1.000000;商品名：
   7
GMM002
  44
 0.79999984000003
   0
MTEXT
   5
2D8
 100
AcDbEntity
   8
LEVEL002
 370
15
  62
8
 100
AcDbMText
  10
 1387.5999999998
  20
 307.48321383605
  30
0.0
  40
 16.000000000000
  41
0.0
  71
5
  72
1
   1
\T1.000000;　※本製品は予告無しに変更する事があります。
   7
GMM002
  44
 0.79999984000003
   0
MTEXT
   5
2DA
 100
AcDbEntity
   8
LEVEL002
 370
15
  62
8
 100
AcDbMText
  10
 1417.9999999998
  20
 233.00000000004
  30
0.0
  40
 15.000000000000
  41
0.0
  71
5
  72
1
   1
\T1.000000;三面図
   7
GMM002
  44
 0.79999984000003
   0
MTEXT
   5
2DC
 100
AcDbEntity
   8
LEVEL002
 370
15
  62
8
 100
AcDbMText
  10
 1345.9999999998
  20
 978.00000000000
  30
0.0
  40
 18.000000000000
  41
0.0
  71
7
  72
1
   1
\T1.000000;　ウォールガード
   7
GMM002
  44
 0.79999984000003
   0
MTEXT
   5
2DE
 100
AcDbEntity
   8
LEVEL002
 370
15
  62
8
 100
AcDbMText
  10
 1548.8603382430
  20
 194.66666666672
  30
0.0
  40
 12.000000000000
  41
0.0
  71
5
  72
1
   1
\T1.000000;令和０６年０４月２３日
   7
GMM002
  44
 0.79999984000003
   0
MTEXT
   5
2E0
 100
AcDbEntity
   8
LEVEL002
 370
15
  62
8
 100
AcDbMText
  10
 1548.8603382430
  20
 168.00000000004
  30
0.0
  40
 12.000000000000
  41
0.0
  71
5
  72
1
   1
\T1.000000;令和　　年　　月　　日
   7
GMM002
  44
 0.79999984000003
   0
MTEXT
   5
2E2
 100
AcDbEntity
   8
LEVEL002
 370
15
  62
8
 100
AcDbMText
  10
 1548.8603382430
  20
 141.33333333338
  30
0.0
  40
 12.000000000000
  41
0.0
  71
5
  72
1
   1
\T1.000000;令和　　年　　月　　日
   7
GMM002
  44
 0.79999984000003
   0
MTEXT
   5
2E4
 100
AcDbEntity
   8
LEVEL001
 370
20
  62
6
 100
AcDbMText
  10
 63.199999999800
  20
 1120.0000000000
  30
0.0
  40
 18.000000000000
  41
0.0
  71
4
  72
1
   1
\W0.500000;\T1.000000; \W1.000000;\T1.000000;　ＷＧ１００\W0.500000;\T1.000000;m/m\W1.000000;\T1.000000;用部品各種
   7
GMM002
  44
 0.79999984000003
   0
MTEXT
   5
2E6
 100
AcDbEntity
   8
LEVEL002
 370
15
  62
8
 100
AcDbMText
  10
 1417.9999999998
  20
 907.00000000000
  30
0.0
  40
 16.000000000000
  41
0.0
  71
5
  72
1
   1
\W1.000000;\T1.000000;ＷＧ１００\W0.500000;\T1.000000;m/m\W1.000000;\T1.000000;用部品各種
   7
GMM002
  44
 0.79999984000003
   0
MTEXT
   5
2E8
 100
AcDbEntity
   8
LEVEL002
 370
15
  62
8
 100
AcDbMText
  10
 1317.9999999998
  20
 153.00000000004
  30
0.0
  40
 15.000000000000
  41
0.0
  71
5
  72
1
   1
\T1.000000;Ｓ＝１：４
   7
GMM002
  44
 0.79999984000003
   0
MTEXT
   5
2EA
 100
AcDbEntity
   8
LEVEL002
 370
15
  62
8
 100
AcDbMText
  10
 1517.9999999998
  20
 80.333333333380
  30
0.0
  40
 10.000000000000
  41
0.0
  71
5
  72
1
   1
\W1.000000;\T1.000000;ＷＧ１００\W0.500000;\T1.000000;m/m\W1.000000;\T1.000000;部品－１
   7
GMM002
  44
 0.79999984000003
   0
MTEXT
   5
2EC
 100
AcDbEntity
   8
LEVEL001
 370
20
  62
6
 100
AcDbMText
  10
 142.19259259259
  20
 1074.6222222222
  30
0.0
  40
 12.000000000000
  41
0.0
  71
5
  72
1
   1
\T1.000000;エンド（ＷＧＰ１Ｂ）
   7
GMM002
  44
 0.79999984000003
   0
LINE
   5
2ED
 100
AcDbEntity
   8
LEVEL001
 370
20
 100
AcDbLine
   6
CONTINUOUS
  62
6
  10
 79.035390946502
  20
 1064.8444444444
  30
0.0
  11
 205.34979423868
  21
 1064.8444444444
  31
0.0
   0
LINE
   5
2EE
 100
AcDbEntity
   8
LEVEL001
 370
40
 100
AcDbLine
   6
CONTINUOUS
  62
3
  10
 61.999999999800
  20
 850.00000000000
  30
0.0
  11
 1217.9999999998
  21
 850.00000000000
  31
0.0
   0
LINE
   5
2EF
 100
AcDbEntity
   8
LEVEL001
 370
40
 100
AcDbLine
   6
CONTINUOUS
  62
3
  10
 832.66666666647
  20
 1100.0000000000
  30
0.0
  11
 832.66666666647
  21
 850.00000000000
  31
0.0
   0
MTEXT
   5
2F1
 100
AcDbEntity
   8
LEVEL001
 370
20
  62
6
 100
AcDbMText
  10
 927.52592592593
  20
 1074.6222222222
  30
0.0
  40
 12.000000000000
  41
0.0
  71
5
  72
1
   1
\T1.000000;出隅コーナー（ＷＧＣ１Ｂ）
   7
GMM002
  44
 0.79999984000003
   0
LINE
   5
2F2
 100
AcDbEntity
   8
LEVEL001
 370
20
 100
AcDbLine
   6
CONTINUOUS
  62
6
  10
 844.88888888889
  20
 1064.8444444444
  30
0.0
  11
 1004.2666666667
  21
 1064.8444444444
  31
0.0
   0
ARC
   5
2F3
 100
AcDbEntity
   8
LEVEL002
 370
15
   6
HIDDEN
  62
2
 100
AcDbCircle
  10
 1003.1640583964
  20
 908.86666666667
  30
0.0
  40
 76.000000000000
 100
AcDbArc
  50
 90.000000000000
  51
 180.00000000000
   0
ARC
   5
2F4
 100
AcDbEntity
   8
LEVEL002
 370
15
   6
HIDDEN
  62
2
 100
AcDbCircle
  10
 1003.1640583964
  20
 908.86666666667
  30
0.0
  40
 30.000000000000
 100
AcDbArc
  50
 90.000000000000
  51
 180.00000000000
   0
LINE
   5
2F5
 100
AcDbEntity
   8
LEVEL002
 370
15
 100
AcDbLine
   6
HIDDEN
  62
2
  10
 927.16405839638
  20
 908.86666666667
  30
0.0
  11
 927.16405839638
  21
 873.86666666667
  31
0.0
   0
LINE
   5
2F6
 100
AcDbEntity
   8
LEVEL002
 370
15
 100
AcDbLine
   6
HIDDEN
  62
2
  10
 973.16405839637
  20
 873.86666666667
  30
0.0
  11
 973.16405839637
  21
 908.86666666667
  31
0.0
   0
LINE
   5
2F7
 100
AcDbEntity
   8
LEVEL002
 370
15
 100
AcDbLine
   6
HIDDEN
  62
2
  10
 1038.1640583964
  20
 984.86666666667
  30
0.0
  11
 1003.1640583964
  21
 984.86666666667
  31
0.0
   0
LINE
   5
2F8
 100
AcDbEntity
   8
LEVEL002
 370
15
 100
AcDbLine
   6
HIDDEN
  62
2
  10
 1003.1640583964
  20
 938.86666666667
  30
0.0
  11
 1038.1640583964
  21
 938.86666666667
  31
0.0
   0
LINE
   5
2F9
 100
AcDbEntity
   8
LEVEL002
 370
15
 100
AcDbLine
   6
HIDDEN
  62
2
  10
 1112.7470527147
  20
 938.86666666667
  30
0.0
  11
 1112.7470527147
  21
 873.86666666667
  31
0.0
   0
LINE
   5
2FA
 100
AcDbEntity
   8
LEVEL002
 370
15
 100
AcDbLine
   6
HIDDEN
  62
2
  10
 1164.7470527147
  20
 873.86666666667
  30
0.0
  11
 1164.7470527147
  21
 938.86666666667
  31
0.0
   0
LINE
   5
2FB
 100
AcDbEntity
   8
LEVEL002
 370
15
 100
AcDbLine
   6
DASHDOT
  62
8
  10
 1138.7470527147
  20
 1019.7595035594
  30
0.0
  11
 1138.7470527147
  21
 863.97660882257
  31
0.0
   0
DIMENSION
   5
2FC
 100
AcDbEntity
   8
LEVEL001
 370
15
   6
CONTINUOUS
  62
8
 100
AcDbDimension
   2
*D1
  10
 1003.1640583964
  20
 1028.8666666667
  30
0.0
  11
 953.16405839638
  21
 1028.8666666667
  31
0.0
  70
0
   3
GMM001
 100
AcDbAlignedDimension
  13
 903.16405839638
  23
 910.86666666667
  33
0.0
  14
 1003.1640583964
  24
 1008.8666666667
  34
0.0
 100
AcDbRotatedDimension
   0
DIMENSION
   5
2FD
 100
AcDbEntity
   8
LEVEL001
 370
15
   6
CONTINUOUS
  62
8
 100
AcDbDimension
   2
*D2
  10
 1008.1640583964
  20
 1028.8666666667
  30
0.0
  11
 1005.6640583964
  21
 1028.8666666667
  31
0.0
  70
0
   3
GMM002
 100
AcDbAlignedDimension
  13
 1003.1640583964
  23
 1008.8666666667
  33
0.0
  14
 1008.1640583964
  24
 1003.8666666667
  34
0.0
 100
AcDbRotatedDimension
   0
DIMENSION
   5
2FE
 100
AcDbEntity
   8
LEVEL001
 370
15
   6
CONTINUOUS
  62
8
 100
AcDbDimension
   2
*D3
  10
 1038.1640583964
  20
 1028.8666666667
  30
0.0
  11
 1023.1640583964
  21
 1028.8666666667
  31
0.0
  70
0
   3
GMM001
 100
AcDbAlignedDimension
  13
 1008.1640583964
  23
 1003.8666666667
  33
0.0
  14
 1038.1640583964
  24
 990.86666666667
  34
0.0
 100
AcDbRotatedDimension
   0
DIMENSION
   5
2FF
 100
AcDbEntity
   8
LEVEL001
 370
15
   6
CONTINUOUS
  62
8
 100
AcDbDimension
   2
*D4
  10
 883.16405839638
  20
 903.86666666667
  30
0.0
  11
 883.16405839638
  21
 888.86666666667
  31
0.0
  70
0
   3
GMM001
 100
AcDbAlignedDimension
  13
 921.16405839638
  23
 873.86666666667
  33
0.0
  14
 908.16405839638
  24
 903.86666666667
  34
0.0
  50
 90.000000000000
 100
AcDbRotatedDimension
   0
DIMENSION
   5
300
 100
AcDbEntity
   8
LEVEL001
 370
15
   6
CONTINUOUS
  62
8
 100
AcDbDimension
   2
*D5
  10
 883.16405839638
  20
 908.86666666667
  30
0.0
  11
 883.16405839638
  21
 906.36666666667
  31
0.0
  70
0
   3
GMM002
 100
AcDbAlignedDimension
  13
 908.16405839638
  23
 903.86666666667
  33
0.0
  14
 903.16405839638
  24
 908.86666666667
  34
0.0
  50
 90.000000000000
 100
AcDbRotatedDimension
   0
DIMENSION
   5
301
 100
AcDbEntity
   8
LEVEL001
 370
15
   6
CONTINUOUS
  62
8
 100
AcDbDimension
   2
*D6
  10
 883.16405839638
  20
 1008.8666666667
  30
0.0
  11
 883.16405839638
  21
 958.86666666667
  31
0.0
  70
0
   3
GMM001
 100
AcDbAlignedDimension
  13
 903.16405839638
  23
 908.86666666667
  33
0.0
  14
 1003.1640583964
  24
 1008.8666666667
  34
0.0
  50
 90.000000000000
 100
AcDbRotatedDimension
   0
DIMENSION
   5
302
 100
AcDbEntity
   8
LEVEL001
 370
15
   6
CONTINUOUS
  62
8
 100
AcDbDimension
   2
*D7
  10
 1070.0542397661
  20
 1003.8666666667
  30
0.0
  11
 1070.0542397661
  21
 956.36666666667
  31
0.0
  70
0
   1
\A1;94
   3
GMM001
 100
AcDbAlignedDimension
  13
 1008.1640583964
  23
 908.86666666667
  33
0.0
  14
 1008.1640583964
  24
 1003.8666666667
  34
0.0
  50
 90.000000000000
 100
AcDbRotatedDimension
   0
ARC
   5
303
 100
AcDbEntity
   8
LEVEL002
 370
30
   6
CONTINUOUS
  62
7
 100
AcDbCircle
  10
 1003.1640583964
  20
 908.86666666667
  30
0.0
  40
 100.00000000000
 100
AcDbArc
  50
 90.000000000000
  51
 180.00000000000
   0
LINE
   5
304
 100
AcDbEntity
   8
LEVEL002
 370
30
 100
AcDbLine
   6
CONTINUOUS
  62
7
  10
 903.16405839638
  20
 908.86666666667
  30
0.0
  11
 1003.1640583964
  21
 908.86666666667
  31
0.0
   0
LINE
   5
305
 100
AcDbEntity
   8
LEVEL002
 370
30
 100
AcDbLine
   6
CONTINUOUS
  62
7
  10
 1003.1640583964
  20
 908.86666666667
  30
0.0
  11
 1003.1640583964
  21
 1008.8666666667
  31
0.0
   0
LINE
   5
306
 100
AcDbEntity
   8
LEVEL002
 370
30
 100
AcDbLine
   6
CONTINUOUS
  62
7
  10
 908.16405839638
  20
 908.86666666667
  30
0.0
  11
 908.16405839638
  21
 903.86666666667
  31
0.0
   0
LINE
   5
307
 100
AcDbEntity
   8
LEVEL002
 370
30
 100
AcDbLine
   6
CONTINUOUS
  62
7
  10
 908.16405839638
  20
 903.86666666667
  30
0.0
  11
 1003.1640583964
  21
 903.86666666667
  31
0.0
   0
LINE
   5
308
 100
AcDbEntity
   8
LEVEL002
 370
30
 100
AcDbLine
   6
CONTINUOUS
  62
7
  10
 1008.1640583964
  20
 908.86666666667
  30
0.0
  11
 1008.1640583964
  21
 1003.8666666667
  31
0.0
   0
LINE
   5
309
 100
AcDbEntity
   8
LEVEL002
 370
30
 100
AcDbLine
   6
CONTINUOUS
  62
7
  10
 1008.1640583964
  20
 1003.8666666667
  30
0.0
  11
 1003.1640583964
  21
 1003.8666666667
  31
0.0
   0
LINE
   5
30A
 100
AcDbEntity
   8
LEVEL002
 370
30
 100
AcDbLine
   6
CONTINUOUS
  62
7
  10
 1034.1640583964
  20
 994.86666666667
  30
0.0
  11
 1038.1640583964
  21
 990.86666666667
  31
0.0
   0
LINE
   5
30B
 100
AcDbEntity
   8
LEVEL002
 370
30
 100
AcDbLine
   6
CONTINUOUS
  62
7
  10
 1038.1640583964
  20
 932.86666666667
  30
0.0
  11
 1038.1640583964
  21
 990.86666666667
  31
0.0
   0
LINE
   5
30C
 100
AcDbEntity
   8
LEVEL002
 370
30
 100
AcDbLine
   6
CONTINUOUS
  62
7
  10
 1034.1640583964
  20
 928.86666666667
  30
0.0
  11
 1034.1640583964
  21
 994.86666666667
  31
0.0
   0
LINE
   5
30D
 100
AcDbEntity
   8
LEVEL002
 370
30
 100
AcDbLine
   6
CONTINUOUS
  62
7
  10
 1038.1640583964
  20
 932.86666666667
  30
0.0
  11
 1034.1640583964
  21
 928.86666666667
  31
0.0
   0
LINE
   5
30E
 100
AcDbEntity
   8
LEVEL002
 370
30
 100
AcDbLine
   6
CONTINUOUS
  62
7
  10
 1008.1640583964
  20
 928.86666666667
  30
0.0
  11
 1034.1640583964
  21
 928.86666666667
  31
0.0
   0
LINE
   5
30F
 100
AcDbEntity
   8
LEVEL002
 370
30
 100
AcDbLine
   6
CONTINUOUS
  62
7
  10
 1034.1640583964
  20
 994.86666666667
  30
0.0
  11
 1008.1640583964
  21
 994.86666666667
  31
0.0
   0
LINE
   5
310
 100
AcDbEntity
   8
LEVEL002
 370
30
 100
AcDbLine
   6
CONTINUOUS
  62
7
  10
 921.16405839638
  20
 873.86666666667
  30
0.0
  11
 917.16405839638
  21
 877.86666666667
  31
0.0
   0
LINE
   5
311
 100
AcDbEntity
   8
LEVEL002
 370
30
 100
AcDbLine
   6
CONTINUOUS
  62
7
  10
 917.16405839638
  20
 877.86666666667
  30
0.0
  11
 983.16405839637
  21
 877.86666666667
  31
0.0
   0
LINE
   5
312
 100
AcDbEntity
   8
LEVEL002
 370
30
 100
AcDbLine
   6
CONTINUOUS
  62
7
  10
 983.16405839637
  20
 877.86666666667
  30
0.0
  11
 979.16405839637
  21
 873.86666666667
  31
0.0
   0
LINE
   5
313
 100
AcDbEntity
   8
LEVEL002
 370
30
 100
AcDbLine
   6
CONTINUOUS
  62
7
  10
 921.16405839638
  20
 873.86666666667
  30
0.0
  11
 979.16405839637
  21
 873.86666666667
  31
0.0
   0
LINE
   5
314
 100
AcDbEntity
   8
LEVEL002
 370
30
 100
AcDbLine
   6
CONTINUOUS
  62
7
  10
 917.16405839638
  20
 903.86666666667
  30
0.0
  11
 917.16405839638
  21
 877.86666666667
  31
0.0
   0
LINE
   5
315
 100
AcDbEntity
   8
LEVEL002
 370
30
 100
AcDbLine
   6
CONTINUOUS
  62
7
  10
 983.16405839637
  20
 877.86666666667
  30
0.0
  11
 983.16405839637
  21
 903.86666666667
  31
0.0
   0
ARC
   5
316
 100
AcDbEntity
   8
LEVEL002
 370
30
   6
CONTINUOUS
  62
7
 100
AcDbCircle
  10
 1118.7470527147
  20
 968.86666666667
  30
0.0
  40
 30.000000000000
 100
AcDbArc
  50
 143.13010235416
  51
 180.00000000000
   0
LINE
   5
317
 100
AcDbEntity
   8
LEVEL002
 370
30
 100
AcDbLine
   6
CONTINUOUS
  62
7
  10
 1088.7470527147
  20
 968.86666666667
  30
0.0
  11
 1088.7470527147
  21
 908.86666666667
  31
0.0
   0
LINE
   5
318
 100
AcDbEntity
   8
LEVEL002
 370
30
 100
AcDbLine
   6
CONTINUOUS
  62
7
  10
 1088.7470527147
  20
 908.86666666667
  30
0.0
  11
 1188.7470527147
  21
 908.86666666667
  31
0.0
   0
LINE
   5
319
 100
AcDbEntity
   8
LEVEL002
 370
30
 100
AcDbLine
   6
CONTINUOUS
  62
7
  10
 1188.7470527147
  20
 908.86666666667
  30
0.0
  11
 1188.7470527147
  21
 968.86666666667
  31
0.0
   0
ARC
   5
31A
 100
AcDbEntity
   8
LEVEL002
 370
30
   6
CONTINUOUS
  62
7
 100
AcDbCircle
  10
 1158.7470527147
  20
 968.86666666667
  30
0.0
  40
 30.000000000000
 100
AcDbArc
  50
0.0
  51
 36.869897645843
   0
ARC
   5
31B
 100
AcDbEntity
   8
LEVEL002
 370
30
   6
CONTINUOUS
  62
7
 100
AcDbCircle
  10
 1138.7470527147
  20
 953.86666666667
  30
0.0
  40
 55.000000000000
 100
AcDbArc
  50
 36.869897645844
  51
 143.13010235416
   0
ARC
   5
31C
 100
AcDbEntity
   8
LEVEL002
 370
30
   6
CONTINUOUS
  62
7
 100
AcDbCircle
  10
 1158.7470527147
  20
 968.86666666667
  30
0.0
  40
 25.000000000000
 100
AcDbArc
  50
0.0
  51
 36.869897645844
   0
ARC
   5
31D
 100
AcDbEntity
   8
LEVEL002
 370
30
   6
CONTINUOUS
  62
7
 100
AcDbCircle
  10
 1138.7470527147
  20
 953.86666666667
  30
0.0
  40
 50.000000000000
 100
AcDbArc
  50
 36.869897645844
  51
 143.13010235416
   0
ARC
   5
31E
 100
AcDbEntity
   8
LEVEL002
 370
30
   6
CONTINUOUS
  62
7
 100
AcDbCircle
  10
 1118.7470527147
  20
 968.86666666667
  30
0.0
  40
 25.000000000000
 100
AcDbArc
  50
 143.13010235415
  51
 180.00000000000
   0
ARC
   5
31F
 100
AcDbEntity
   8
LEVEL002
 370
30
   6
CONTINUOUS
  62
7
 100
AcDbCircle
  10
 1158.7470527147
  20
 968.86666666667
  30
0.0
  40
 16.000000000000
 100
AcDbArc
  50
0.0
  51
 36.869897645843
   0
ARC
   5
320
 100
AcDbEntity
   8
LEVEL002
 370
30
   6
CONTINUOUS
  62
7
 100
AcDbCircle
  10
 1138.7470527147
  20
 953.86666666667
  30
0.0
  40
 41.000000000000
 100
AcDbArc
  50
 36.869897645844
  51
 143.13010235416
   0
ARC
   5
321
 100
AcDbEntity
   8
LEVEL002
 370
30
   6
CONTINUOUS
  62
7
 100
AcDbCircle
  10
 1118.7470527147
  20
 968.86666666667
  30
0.0
  40
 16.000000000000
 100
AcDbArc
  50
 143.13010235416
  51
 180.00000000000
   0
LINE
   5
322
 100
AcDbEntity
   8
LEVEL002
 370
30
 100
AcDbLine
   6
CONTINUOUS
  62
7
  10
 1102.7470527147
  20
 928.86666666667
  30
0.0
  11
 1174.7470527147
  21
 928.86666666667
  31
0.0
   0
LINE
   5
323
 100
AcDbEntity
   8
LEVEL002
 370
30
 100
AcDbLine
   6
CONTINUOUS
  62
7
  10
 1102.7470527147
  20
 968.86666666667
  30
0.0
  11
 1102.7470527147
  21
 928.86666666667
  31
0.0
   0
LINE
   5
324
 100
AcDbEntity
   8
LEVEL002
 370
30
 100
AcDbLine
   6
CONTINUOUS
  62
7
  10
 1174.7470527147
  20
 928.86666666667
  30
0.0
  11
 1174.7470527147
  21
 968.86666666667
  31
0.0
   0
LINE
   5
325
 100
AcDbEntity
   8
LEVEL002
 370
30
 100
AcDbLine
   6
CONTINUOUS
  62
7
  10
 1093.7470527147
  20
 908.86666666667
  30
0.0
  11
 1093.7470527147
  21
 903.86666666667
  31
0.0
   0
LINE
   5
326
 100
AcDbEntity
   8
LEVEL002
 370
30
 100
AcDbLine
   6
CONTINUOUS
  62
7
  10
 1093.7470527147
  20
 903.86666666667
  30
0.0
  11
 1183.7470527147
  21
 903.86666666667
  31
0.0
   0
LINE
   5
327
 100
AcDbEntity
   8
LEVEL002
 370
30
 100
AcDbLine
   6
CONTINUOUS
  62
7
  10
 1183.7470527147
  20
 903.86666666667
  30
0.0
  11
 1183.7470527147
  21
 908.86666666667
  31
0.0
   0
LINE
   5
328
 100
AcDbEntity
   8
LEVEL002
 370
30
 100
AcDbLine
   6
CONTINUOUS
  62
7
  10
 1093.7470527147
  20
 968.86666666667
  30
0.0
  11
 1093.7470527147
  21
 908.86666666667
  31
0.0
   0
LINE
   5
329
 100
AcDbEntity
   8
LEVEL002
 370
30
 100
AcDbLine
   6
CONTINUOUS
  62
7
  10
 1183.7470527147
  20
 908.86666666667
  30
0.0
  11
 1183.7470527147
  21
 968.86666666667
  31
0.0
   0
LINE
   5
32A
 100
AcDbEntity
   8
LEVEL002
 370
30
 100
AcDbLine
   6
CONTINUOUS
  62
7
  10
 1112.7470527147
  20
 938.86666666667
  30
0.0
  11
 1164.7470527147
  21
 938.86666666667
  31
0.0
   0
LINE
   5
32B
 100
AcDbEntity
   8
LEVEL002
 370
30
 100
AcDbLine
   6
CONTINUOUS
  62
7
  10
 1164.7470527147
  20
 938.86666666667
  30
0.0
  11
 1164.7470527147
  21
 968.86666666667
  31
0.0
   0
ARC
   5
32C
 100
AcDbEntity
   8
LEVEL002
 370
30
   6
CONTINUOUS
  62
7
 100
AcDbCircle
  10
 1158.7470527147
  20
 968.86666666667
  30
0.0
  40
 6.0000000000000
 100
AcDbArc
  50
 0.10856293312729E-11
  51
 36.869897645841
   0
ARC
   5
32D
 100
AcDbEntity
   8
LEVEL002
 370
30
   6
CONTINUOUS
  62
7
 100
AcDbCircle
  10
 1138.7470527147
  20
 953.86666666667
  30
0.0
  40
 31.000000000000
 100
AcDbArc
  50
 36.869897645844
  51
 143.13010235416
   0
ARC
   5
32E
 100
AcDbEntity
   8
LEVEL002
 370
30
   6
CONTINUOUS
  62
7
 100
AcDbCircle
  10
 1118.7470527147
  20
 968.86666666667
  30
0.0
  40
 6.0000000000000
 100
AcDbArc
  50
 143.13010235416
  51
 180.00000000000
   0
LINE
   5
32F
 100
AcDbEntity
   8
LEVEL002
 370
30
 100
AcDbLine
   6
CONTINUOUS
  62
7
  10
 1112.7470527147
  20
 968.86666666667
  30
0.0
  11
 1112.7470527147
  21
 938.86666666667
  31
0.0
   0
LINE
   5
330
 100
AcDbEntity
   8
LEVEL002
 370
30
 100
AcDbLine
   6
CONTINUOUS
  62
7
  10
 1106.7470527147
  20
 968.86666666667
  30
0.0
  11
 1106.7470527147
  21
 932.86666666667
  31
0.0
   0
LINE
   5
331
 100
AcDbEntity
   8
LEVEL002
 370
30
 100
AcDbLine
   6
CONTINUOUS
  62
7
  10
 1106.7470527147
  20
 932.86666666667
  30
0.0
  11
 1170.7470527147
  21
 932.86666666667
  31
0.0
   0
LINE
   5
332
 100
AcDbEntity
   8
LEVEL002
 370
30
 100
AcDbLine
   6
CONTINUOUS
  62
7
  10
 1170.7470527147
  20
 932.86666666667
  30
0.0
  11
 1170.7470527147
  21
 968.86666666667
  31
0.0
   0
ARC
   5
333
 100
AcDbEntity
   8
LEVEL002
 370
30
   6
CONTINUOUS
  62
7
 100
AcDbCircle
  10
 1158.7470527147
  20
 968.86666666667
  30
0.0
  40
 12.000000000000
 100
AcDbArc
  50
0.0
  51
 36.869897645841
   0
ARC
   5
334
 100
AcDbEntity
   8
LEVEL002
 370
30
   6
CONTINUOUS
  62
7
 100
AcDbCircle
  10
 1138.7470527147
  20
 953.86666666667
  30
0.0
  40
 37.000000000000
 100
AcDbArc
  50
 36.869897645844
  51
 143.13010235416
   0
ARC
   5
335
 100
AcDbEntity
   8
LEVEL002
 370
30
   6
CONTINUOUS
  62
7
 100
AcDbCircle
  10
 1118.7470527147
  20
 968.86666666667
  30
0.0
  40
 12.000000000000
 100
AcDbArc
  50
 143.13010235417
  51
 180.00000000000
   0
LINE
   5
336
 100
AcDbEntity
   8
LEVEL002
 370
30
 100
AcDbLine
   6
CONTINUOUS
  62
7
  10
 1106.7470527147
  20
 873.86666666667
  30
0.0
  11
 1170.7470527147
  21
 873.86666666667
  31
0.0
   0
LINE
   5
337
 100
AcDbEntity
   8
LEVEL002
 370
30
 100
AcDbLine
   6
CONTINUOUS
  62
7
  10
 1106.7470527147
  20
 873.86666666667
  30
0.0
  11
 1102.7470527147
  21
 877.86666666667
  31
0.0
   0
LINE
   5
338
 100
AcDbEntity
   8
LEVEL002
 370
30
 100
AcDbLine
   6
CONTINUOUS
  62
7
  10
 1174.7470527147
  20
 877.86666666667
  30
0.0
  11
 1170.7470527147
  21
 873.86666666667
  31
0.0
   0
LINE
   5
339
 100
AcDbEntity
   8
LEVEL002
 370
30
 100
AcDbLine
   6
CONTINUOUS
  62
7
  10
 1102.7470527147
  20
 877.86666666667
  30
0.0
  11
 1174.7470527147
  21
 877.86666666667
  31
0.0
   0
LINE
   5
33A
 100
AcDbEntity
   8
LEVEL002
 370
30
 100
AcDbLine
   6
CONTINUOUS
  62
7
  10
 1102.7470527147
  20
 903.86666666667
  30
0.0
  11
 1102.7470527147
  21
 877.86666666667
  31
0.0
   0
LINE
   5
33B
 100
AcDbEntity
   8
LEVEL002
 370
30
 100
AcDbLine
   6
CONTINUOUS
  62
7
  10
 1174.7470527147
  20
 877.86666666667
  30
0.0
  11
 1174.7470527147
  21
 903.86666666667
  31
0.0
   0
LINE
   5
33C
 100
AcDbEntity
   8
LEVEL002
 370
30
 100
AcDbLine
   6
CONTINUOUS
  62
7
  10
 1008.1640583964
  20
 908.86666666667
  30
0.0
  11
 1003.1640583964
  21
 908.86666666667
  31
0.0
   0
LINE
   5
33D
 100
AcDbEntity
   8
LEVEL002
 370
30
 100
AcDbLine
   6
CONTINUOUS
  62
7
  10
 1003.1640583964
  20
 903.86666666667
  30
0.0
  11
 1003.1640583964
  21
 908.86666666667
  31
0.0
   0
MTEXT
   5
33F
 100
AcDbEntity
   8
LEVEL001
 370
20
  62
6
 100
AcDbMText
  10
 855.64444444444
  20
 1054.0888888889
  30
0.0
  40
 12.000000000000
  41
0.0
  71
4
  72
1
   1
\T1.000000;色：黒
   7
GMM002
  44
 0.79999984000003
   0
MTEXT
   5
341
 100
AcDbEntity
   8
LEVEL001
 370
20
  62
6
 100
AcDbMText
  10
 89.790946502057
  20
 1054.0888888889
  30
0.0
  40
 12.000000000000
  41
0.0
  71
4
  72
1
   1
\T1.000000;色：黒
   7
GMM002
  44
 0.79999984000003
   0
ARC
   5
342
 100
AcDbEntity
   8
LEVEL002
 370
30
   6
CONTINUOUS
  62
7
 100
AcDbCircle
  10
 968.78324424672
  20
 458.13092958668
  30
0.0
  40
 37.000000000000
 100
AcDbArc
  50
 36.869897645844
  51
 143.13010235416
   0
ARC
   5
343
 100
AcDbEntity
   8
LEVEL002
 370
30
   6
CONTINUOUS
  62
7
 100
AcDbCircle
  10
 988.78324424672
  20
 473.13092958668
  30
0.0
  40
 12.000000000000
 100
AcDbArc
  50
 0.40711099922733E-11
  51
 36.869897645863
   0
LINE
   5
344
 100
AcDbEntity
   8
LEVEL002
 370
30
 100
AcDbLine
   6
CONTINUOUS
  62
7
  10
 1000.7832442467
  20
 473.13092958668
  30
0.0
  11
 1000.7832442467
  21
 437.13092958668
  31
0.0
   0
LINE
   5
345
 100
AcDbEntity
   8
LEVEL002
 370
30
 100
AcDbLine
   6
CONTINUOUS
  62
7
  10
 1000.7832442467
  20
 437.13092958668
  30
0.0
  11
 936.78324424672
  21
 437.13092958668
  31
0.0
   0
ARC
   5
346
 100
AcDbEntity
   8
LEVEL002
 370
30
   6
CONTINUOUS
  62
7
 100
AcDbCircle
  10
 948.78324424672
  20
 473.13092958668
  30
0.0
  40
 12.000000000000
 100
AcDbArc
  50
 143.13010235416
  51
 180.00000000000
   0
LINE
   5
347
 100
AcDbEntity
   8
LEVEL002
 370
30
 100
AcDbLine
   6
CONTINUOUS
  62
7
  10
 936.78324424672
  20
 437.13092958668
  30
0.0
  11
 936.78324424672
  21
 473.13092958668
  31
0.0
   0
ARC
   5
348
 100
AcDbEntity
   8
LEVEL002
 370
40
   6
CONTINUOUS
  62
3
 100
AcDbCircle
  10
 577.24788240460
  20
 159.16337448559
  30
0.0
  40
 6.0000000000000
 100
AcDbArc
  50
 89.999999999845
  51
 126.86989764572
   0
ARC
   5
349
 100
AcDbEntity
   8
LEVEL002
 370
30
   6
CONTINUOUS
  62
7
 100
AcDbCircle
  10
 592.24788240462
  20
 139.16337448559
  30
0.0
  40
 37.000000000000
 100
AcDbArc
  50
 126.86989764584
  51
 233.13010235416
   0
ARC
   5
34A
 100
AcDbEntity
   8
LEVEL002
 370
30
   6
CONTINUOUS
  62
7
 100
AcDbCircle
  10
 577.24788240462
  20
 159.16337448559
  30
0.0
  40
 12.000000000000
 100
AcDbArc
  50
 90.000000000018
  51
 126.86989764586
   0
LINE
   5
34B
 100
AcDbEntity
   8
LEVEL002
 370
30
 100
AcDbLine
   6
CONTINUOUS
  62
7
  10
 577.24788240462
  20
 171.16337448559
  30
0.0
  11
 613.24788240462
  21
 171.16337448559
  31
0.0
   0
LINE
   5
34C
 100
AcDbEntity
   8
LEVEL002
 370
30
 100
AcDbLine
   6
CONTINUOUS
  62
7
  10
 613.24788240462
  20
 171.16337448559
  30
0.0
  11
 613.24788240462
  21
 107.16337448559
  31
0.0
   0
ARC
   5
34D
 100
AcDbEntity
   8
LEVEL002
 370
40
   6
CONTINUOUS
  62
3
 100
AcDbCircle
  10
 577.24788240461
  20
 119.16337448560
  30
0.0
  40
 6.0000000000000
 100
AcDbArc
  50
 233.13010235429
  51
 270.00000000012
   0
ARC
   5
34E
 100
AcDbEntity
   8
LEVEL002
 370
30
   6
CONTINUOUS
  62
7
 100
AcDbCircle
  10
 577.24788240462
  20
 119.16337448559
  30
0.0
  40
 12.000000000000
 100
AcDbArc
  50
 233.13010235416
  51
 270.00000000000
   0
LINE
   5
34F
 100
AcDbEntity
   8
LEVEL002
 370
30
 100
AcDbLine
   6
CONTINUOUS
  62
7
  10
 613.24788240462
  20
 107.16337448559
  30
0.0
  11
 577.24788240462
  21
 107.16337448559
  31
0.0
   0
LINE
   5
350
 100
AcDbEntity
   8
LEVEL002
 370
15
 100
AcDbLine
   6
DASHDOT
  62
8
  10
 968.78324424672
  20
 209.09896771981
  30
0.0
  11
 968.78324424672
  21
 557.16289145355
  31
0.0
   0
LINE
   5
351
 100
AcDbEntity
   8
LEVEL002
 370
15
 100
AcDbLine
   6
DASHDOT
  62
8
  10
 943.77536723959
  20
 303.13092958668
  30
0.0
  11
 993.79112125385
  21
 303.13092958668
  31
0.0
   0
LINE
   5
352
 100
AcDbEntity
   8
LEVEL002
 370
15
 100
AcDbLine
   6
DASHDOT
  62
8
  10
 841.27984427149
  20
 139.16337448559
  30
0.0
  11
 493.21592053775
  21
 139.16337448559
  31
0.0
   0
LINE
   5
353
 100
AcDbEntity
   8
LEVEL002
 370
15
 100
AcDbLine
   6
DASHDOT
  62
8
  10
 747.24788240462
  20
 114.15549747846
  30
0.0
  11
 747.24788240462
  21
 164.17125149272
  31
0.0
   0
LINE
   5
354
 100
AcDbEntity
   8
LEVEL002
 370
15
 100
AcDbLine
   6
DASHDOT
  62
8
  10
 841.27984427149
  20
 732.92822027316
  30
0.0
  11
 493.21592053775
  21
 732.92822027316
  31
0.0
   0
LINE
   5
355
 100
AcDbEntity
   8
LEVEL002
 370
15
 100
AcDbLine
   6
DASHDOT
  62
8
  10
 737.24788240462
  20
 697.35953423006
  30
0.0
  11
 737.24788240462
  21
 768.49690631626
  31
0.0
   0
LINE
   5
356
 100
AcDbEntity
   8
LEVEL002
 370
15
 100
AcDbLine
   6
DASHDOT
  62
8
  10
 307.03212586156
  20
 209.09896771981
  30
0.0
  11
 307.03212586156
  21
 557.16289145355
  31
0.0
   0
LINE
   5
357
 100
AcDbEntity
   8
LEVEL002
 370
15
 100
AcDbLine
   6
DASHDOT
  62
8
  10
 271.46343981844
  20
 313.13092958668
  30
0.0
  11
 342.60081190468
  21
 313.13092958668
  31
0.0
   0
ARC
   5
358
 100
AcDbEntity
   8
LEVEL002
 370
30
   6
CONTINUOUS
  62
7
 100
AcDbCircle
  10
 968.78324424672
  20
 458.13092958668
  30
0.0
  40
 50.000000000000
 100
AcDbArc
  50
 36.869897645844
  51
 143.13010235416
   0
ARC
   5
359
 100
AcDbEntity
   8
LEVEL002
 370
30
   6
CONTINUOUS
  62
7
 100
AcDbCircle
  10
 968.78324424672
  20
 458.13092958668
  30
0.0
  40
 55.000000000000
 100
AcDbArc
  50
 36.869897645844
  51
 143.13010235416
   0
ARC
   5
35A
 100
AcDbEntity
   8
LEVEL002
 370
30
   6
CONTINUOUS
  62
7
 100
AcDbCircle
  10
 948.78324424672
  20
 473.13092958668
  30
0.0
  40
 25.000000000000
 100
AcDbArc
  50
 143.13010235415
  51
 180.00000000000
   0
ARC
   5
35B
 100
AcDbEntity
   8
LEVEL002
 370
30
   6
CONTINUOUS
  62
7
 100
AcDbCircle
  10
 948.78324424672
  20
 473.13092958668
  30
0.0
  40
 30.000000000000
 100
AcDbArc
  50
 143.13010235416
  51
 180.00000000000
   0
ARC
   5
35C
 100
AcDbEntity
   8
LEVEL002
 370
30
   6
CONTINUOUS
  62
7
 100
AcDbCircle
  10
 988.78324424672
  20
 473.13092958668
  30
0.0
  40
 25.000000000000
 100
AcDbArc
  50
 0.18238572765384E-11
  51
 36.869897645849
   0
ARC
   5
35D
 100
AcDbEntity
   8
LEVEL002
 370
30
   6
CONTINUOUS
  62
7
 100
AcDbCircle
  10
 988.78324424672
  20
 473.13092958668
  30
0.0
  40
 30.000000000000
 100
AcDbArc
  50
0.0
  51
 36.869897645844
   0
LINE
   5
35E
 100
AcDbEntity
   8
LEVEL002
 370
30
 100
AcDbLine
   6
CONTINUOUS
  62
7
  10
 923.78324424672
  20
 473.13092958668
  30
0.0
  11
 923.78324424672
  21
 413.13092958668
  31
0.0
   0
LINE
   5
35F
 100
AcDbEntity
   8
LEVEL002
 370
30
 100
AcDbLine
   6
CONTINUOUS
  62
7
  10
 923.78324424672
  20
 413.13092958668
  30
0.0
  11
 1013.7832442467
  21
 413.13092958668
  31
0.0
   0
LINE
   5
360
 100
AcDbEntity
   8
LEVEL002
 370
30
 100
AcDbLine
   6
CONTINUOUS
  62
7
  10
 1013.7832442467
  20
 413.13092958668
  30
0.0
  11
 1013.7832442467
  21
 473.13092958668
  31
0.0
   0
ARC
   5
361
 100
AcDbEntity
   8
LEVEL002
 370
30
   6
CONTINUOUS
  62
7
 100
AcDbCircle
  10
 968.78324424672
  20
 458.13092958668
  30
0.0
  40
 41.000000000000
 100
AcDbArc
  50
 36.869897645843
  51
 143.13010235416
   0
ARC
   5
362
 100
AcDbEntity
   8
LEVEL002
 370
30
   6
CONTINUOUS
  62
7
 100
AcDbCircle
  10
 988.78324424672
  20
 473.13092958668
  30
0.0
  40
 16.000000000000
 100
AcDbArc
  50
 0.14248884972957E-11
  51
 36.869897645835
   0
LINE
   5
363
 100
AcDbEntity
   8
LEVEL002
 370
30
 100
AcDbLine
   6
CONTINUOUS
  62
7
  10
 1004.7832442467
  20
 473.13092958668
  30
0.0
  11
 1004.7832442467
  21
 433.13092958668
  31
0.0
   0
ARC
   5
364
 100
AcDbEntity
   8
LEVEL002
 370
30
   6
CONTINUOUS
  62
7
 100
AcDbCircle
  10
 968.78324424672
  20
 458.13092958668
  30
0.0
  40
 31.000000000000
 100
AcDbArc
  50
 36.869897645844
  51
 143.13010235416
   0
ARC
   5
365
 100
AcDbEntity
   8
LEVEL002
 370
30
   6
CONTINUOUS
  62
7
 100
AcDbCircle
  10
 988.78324424672
  20
 473.13092958670
  30
0.0
  40
 6.0000000000000
 100
AcDbArc
  50
0.0
  51
 36.869897645718
   0
LINE
   5
366
 100
AcDbEntity
   8
LEVEL002
 370
30
 100
AcDbLine
   6
CONTINUOUS
  62
7
  10
 994.78324424672
  20
 473.13092958668
  30
0.0
  11
 994.78324424672
  21
 443.13092958668
  31
0.0
   0
LINE
   5
367
 100
AcDbEntity
   8
LEVEL002
 370
30
 100
AcDbLine
   6
CONTINUOUS
  62
7
  10
 942.78324424672
  20
 443.13092958668
  30
0.0
  11
 994.78324424672
  21
 443.13092958668
  31
0.0
   0
LINE
   5
368
 100
AcDbEntity
   8
LEVEL002
 370
30
 100
AcDbLine
   6
CONTINUOUS
  62
7
  10
 1004.7832442467
  20
 433.13092958668
  30
0.0
  11
 932.78324424672
  21
 433.13092958668
  31
0.0
   0
ARC
   5
369
 100
AcDbEntity
   8
LEVEL002
 370
30
   6
CONTINUOUS
  62
7
 100
AcDbCircle
  10
 948.78324424673
  20
 473.13092958668
  30
0.0
  40
 16.000000000000
 100
AcDbArc
  50
 143.13010235417
  51
 180.00000000001
   0
LINE
   5
36A
 100
AcDbEntity
   8
LEVEL002
 370
30
 100
AcDbLine
   6
CONTINUOUS
  62
7
  10
 932.78324424672
  20
 433.13092958668
  30
0.0
  11
 932.78324424672
  21
 473.13092958668
  31
0.0
   0
ARC
   5
36B
 100
AcDbEntity
   8
LEVEL002
 370
30
   6
CONTINUOUS
  62
7
 100
AcDbCircle
  10
 948.78324424673
  20
 473.13092958669
  30
0.0
  40
 6.0000000000000
 100
AcDbArc
  50
 143.13010235429
  51
 180.00000000011
   0
LINE
   5
36C
 100
AcDbEntity
   8
LEVEL002
 370
30
 100
AcDbLine
   6
CONTINUOUS
  62
7
  10
 942.78324424672
  20
 443.13092958668
  30
0.0
  11
 942.78324424672
  21
 473.13092958668
  31
0.0
   0
LINE
   5
36D
 100
AcDbEntity
   8
LEVEL002
 370
30
 100
AcDbLine
   6
CONTINUOUS
  62
7
  10
 923.78324424672
  20
 258.13092958668
  30
0.0
  11
 923.78324424672
  21
 253.13092958668
  31
0.0
   0
LINE
   5
36E
 100
AcDbEntity
   8
LEVEL002
 370
30
 100
AcDbLine
   6
CONTINUOUS
  62
7
  10
 923.78324424672
  20
 253.13092958668
  30
0.0
  11
 1013.7832442467
  21
 253.13092958668
  31
0.0
   0
LINE
   5
36F
 100
AcDbEntity
   8
LEVEL002
 370
30
 100
AcDbLine
   6
CONTINUOUS
  62
7
  10
 1013.7832442467
  20
 253.13092958668
  30
0.0
  11
 1013.7832442467
  21
 258.13092958668
  31
0.0
   0
LINE
   5
370
 100
AcDbEntity
   8
LEVEL002
 370
30
 100
AcDbLine
   6
CONTINUOUS
  62
7
  10
 918.78324424672
  20
 473.13092958668
  30
0.0
  11
 918.78324424672
  21
 258.13092958668
  31
0.0
   0
LINE
   5
371
 100
AcDbEntity
   8
LEVEL002
 370
30
 100
AcDbLine
   6
CONTINUOUS
  62
7
  10
 918.78324424672
  20
 258.13092958668
  30
0.0
  11
 923.78324424672
  21
 258.13092958668
  31
0.0
   0
LINE
   5
372
 100
AcDbEntity
   8
LEVEL002
 370
30
 100
AcDbLine
   6
CONTINUOUS
  62
7
  10
 1013.7832442467
  20
 258.13092958668
  30
0.0
  11
 1018.7832442467
  21
 258.13092958668
  31
0.0
   0
LINE
   5
373
 100
AcDbEntity
   8
LEVEL002
 370
30
 100
AcDbLine
   6
CONTINUOUS
  62
7
  10
 792.24788240462
  20
 508.13092958668
  30
0.0
  11
 797.24788240462
  21
 508.13092958668
  31
0.0
   0
LINE
   5
374
 100
AcDbEntity
   8
LEVEL002
 370
30
 100
AcDbLine
   6
CONTINUOUS
  62
7
  10
 797.24788240462
  20
 508.13092958668
  30
0.0
  11
 797.24788240462
  21
 413.13092958668
  31
0.0
   0
LINE
   5
375
 100
AcDbEntity
   8
LEVEL002
 370
30
 100
AcDbLine
   6
CONTINUOUS
  62
7
  10
 797.24788240462
  20
 413.13092958668
  30
0.0
  11
 792.24788240462
  21
 413.13092958668
  31
0.0
   0
ARC
   5
376
 100
AcDbEntity
   8
LEVEL002
 370
30
   6
CONTINUOUS
  62
7
 100
AcDbCircle
  10
 637.24788240462
  20
 413.13092958668
  30
0.0
  40
 100.00000000000
 100
AcDbArc
  50
 90.000000000000
  51
 180.00000000000
   0
LINE
   5
377
 100
AcDbEntity
   8
LEVEL002
 370
30
 100
AcDbLine
   6
CONTINUOUS
  62
7
  10
 542.24788240462
  20
 258.13092958668
  30
0.0
  11
 542.24788240462
  21
 253.13092958668
  31
0.0
   0
LINE
   5
378
 100
AcDbEntity
   8
LEVEL002
 370
30
 100
AcDbLine
   6
CONTINUOUS
  62
7
  10
 542.24788240462
  20
 253.13092958668
  30
0.0
  11
 637.24788240462
  21
 253.13092958668
  31
0.0
   0
LINE
   5
379
 100
AcDbEntity
   8
LEVEL002
 370
30
 100
AcDbLine
   6
CONTINUOUS
  62
7
  10
 637.24788240462
  20
 253.13092958668
  30
0.0
  11
 637.24788240462
  21
 258.13092958668
  31
0.0
   0
LINE
   5
37A
 100
AcDbEntity
   8
LEVEL002
 370
30
 100
AcDbLine
   6
CONTINUOUS
  62
7
  10
 537.24788240462
  20
 413.13092958668
  30
0.0
  11
 537.24788240462
  21
 258.13092958668
  31
0.0
   0
LINE
   5
37B
 100
AcDbEntity
   8
LEVEL002
 370
30
 100
AcDbLine
   6
CONTINUOUS
  62
7
  10
 637.24788240462
  20
 253.13092958668
  30
0.0
  11
 637.24788240462
  21
 413.13092958668
  31
0.0
   0
LINE
   5
37C
 100
AcDbEntity
   8
LEVEL002
 370
30
 100
AcDbLine
   6
CONTINUOUS
  62
7
  10
 637.24788240462
  20
 413.13092958668
  30
0.0
  11
 792.24788240462
  21
 413.13092958668
  31
0.0
   0
LINE
   5
37D
 100
AcDbEntity
   8
LEVEL002
 370
30
 100
AcDbLine
   6
CONTINUOUS
  62
7
  10
 792.24788240462
  20
 413.13092958668
  30
0.0
  11
 792.24788240462
  21
 513.13092958668
  31
0.0
   0
LINE
   5
37E
 100
AcDbEntity
   8
LEVEL002
 370
30
 100
AcDbLine
   6
CONTINUOUS
  62
7
  10
 792.24788240462
  20
 513.13092958668
  30
0.0
  11
 637.24788240462
  21
 513.13092958668
  31
0.0
   0
LINE
   5
37F
 100
AcDbEntity
   8
LEVEL002
 370
30
 100
AcDbLine
   6
CONTINUOUS
  62
7
  10
 537.24788240462
  20
 258.13092958668
  30
0.0
  11
 637.24788240462
  21
 258.13092958668
  31
0.0
   0
LINE
   5
380
 100
AcDbEntity
   8
LEVEL002
 370
30
 100
AcDbLine
   6
CONTINUOUS
  62
7
  10
 923.78324424672
  20
 258.13092958668
  30
0.0
  11
 1013.7832442467
  21
 258.13092958668
  31
0.0
   0
LINE
   5
381
 100
AcDbEntity
   8
LEVEL002
 370
30
 100
AcDbLine
   6
CONTINUOUS
  62
7
  10
 1018.7832442467
  20
 258.13092958668
  30
0.0
  11
 1018.7832442467
  21
 473.13092958668
  31
0.0
   0
ARC
   5
382
 100
AcDbEntity
   8
LEVEL002
 370
30
   6
CONTINUOUS
  62
7
 100
AcDbCircle
  10
 968.78324424672
  20
 313.13092958668
  30
0.0
  40
 10.000000000000
 100
AcDbArc
  50
0.0
  51
 180.00000000000
   0
ARC
   5
383
 100
AcDbEntity
   8
LEVEL002
 370
30
   6
CONTINUOUS
  62
7
 100
AcDbCircle
  10
 968.78324424672
  20
 293.13092958668
  30
0.0
  40
 10.000000000000
 100
AcDbArc
  50
 180.00000000000
  51
0.0
   0
LINE
   5
384
 100
AcDbEntity
   8
LEVEL002
 370
30
 100
AcDbLine
   6
CONTINUOUS
  62
7
  10
 958.78324424672
  20
 313.13092958668
  30
0.0
  11
 958.78324424672
  21
 293.13092958668
  31
0.0
   0
LINE
   5
385
 100
AcDbEntity
   8
LEVEL002
 370
30
 100
AcDbLine
   6
CONTINUOUS
  62
7
  10
 978.78324424672
  20
 293.13092958668
  30
0.0
  11
 978.78324424672
  21
 313.13092958668
  31
0.0
   0
ARC
   5
386
 100
AcDbEntity
   8
LEVEL002
 370
30
   6
CONTINUOUS
  62
7
 100
AcDbCircle
  10
 592.24788240462
  20
 139.16337448559
  30
0.0
  40
 50.000000000000
 100
AcDbArc
  50
 126.86989764584
  51
 233.13010235416
   0
ARC
   5
387
 100
AcDbEntity
   8
LEVEL002
 370
30
   6
CONTINUOUS
  62
7
 100
AcDbCircle
  10
 592.24788240462
  20
 139.16337448559
  30
0.0
  40
 55.000000000000
 100
AcDbArc
  50
 126.86989764584
  51
 233.13010235416
   0
ARC
   5
388
 100
AcDbEntity
   8
LEVEL002
 370
30
   6
CONTINUOUS
  62
7
 100
AcDbCircle
  10
 577.24788240462
  20
 119.16337448559
  30
0.0
  40
 25.000000000000
 100
AcDbArc
  50
 233.13010235415
  51
 270.00000000000
   0
ARC
   5
389
 100
AcDbEntity
   8
LEVEL002
 370
30
   6
CONTINUOUS
  62
7
 100
AcDbCircle
  10
 577.24788240462
  20
 119.16337448559
  30
0.0
  40
 30.000000000000
 100
AcDbArc
  50
 233.13010235416
  51
 270.00000000000
   0
ARC
   5
38A
 100
AcDbEntity
   8
LEVEL002
 370
30
   6
CONTINUOUS
  62
7
 100
AcDbCircle
  10
 577.24788240462
  20
 159.16337448559
  30
0.0
  40
 25.000000000000
 100
AcDbArc
  50
 90.000000000003
  51
 126.86989764585
   0
ARC
   5
38B
 100
AcDbEntity
   8
LEVEL002
 370
30
   6
CONTINUOUS
  62
7
 100
AcDbCircle
  10
 577.24788240462
  20
 159.16337448559
  30
0.0
  40
 30.000000000000
 100
AcDbArc
  50
 90.000000000000
  51
 126.86989764584
   0
LINE
   5
38C
 100
AcDbEntity
   8
LEVEL002
 370
30
 100
AcDbLine
   6
CONTINUOUS
  62
7
  10
 577.24788240462
  20
 94.163374485591
  30
0.0
  11
 637.24788240462
  21
 94.163374485591
  31
0.0
   0
LINE
   5
38D
 100
AcDbEntity
   8
LEVEL002
 370
30
 100
AcDbLine
   6
CONTINUOUS
  62
7
  10
 637.24788240462
  20
 94.163374485591
  30
0.0
  11
 637.24788240462
  21
 184.16337448559
  31
0.0
   0
LINE
   5
38E
 100
AcDbEntity
   8
LEVEL002
 370
30
 100
AcDbLine
   6
CONTINUOUS
  62
7
  10
 637.24788240462
  20
 184.16337448559
  30
0.0
  11
 577.24788240462
  21
 184.16337448559
  31
0.0
   0
ARC
   5
38F
 100
AcDbEntity
   8
LEVEL002
 370
30
   6
CONTINUOUS
  62
7
 100
AcDbCircle
  10
 592.24788240462
  20
 139.16337448559
  30
0.0
  40
 41.000000000000
 100
AcDbArc
  50
 126.86989764584
  51
 233.13010235416
   0
ARC
   5
390
 100
AcDbEntity
   8
LEVEL002
 370
30
   6
CONTINUOUS
  62
7
 100
AcDbCircle
  10
 577.24788240461
  20
 159.16337448559
  30
0.0
  40
 16.000000000000
 100
AcDbArc
  50
 89.999999999986
  51
 126.86989764583
   0
LINE
   5
391
 100
AcDbEntity
   8
LEVEL002
 370
30
 100
AcDbLine
   6
CONTINUOUS
  62
7
  10
 577.24788240462
  20
 175.16337448559
  30
0.0
  11
 617.24788240462
  21
 175.16337448559
  31
0.0
   0
ARC
   5
392
 100
AcDbEntity
   8
LEVEL002
 370
30
   6
CONTINUOUS
  62
7
 100
AcDbCircle
  10
 592.24788240462
  20
 139.16337448559
  30
0.0
  40
 31.000000000000
 100
AcDbArc
  50
 126.86989764584
  51
 233.13010235416
   0
LINE
   5
393
 100
AcDbEntity
   8
LEVEL002
 370
30
 100
AcDbLine
   6
CONTINUOUS
  62
7
  10
 577.24788240462
  20
 165.16337448559
  30
0.0
  11
 607.24788240462
  21
 165.16337448559
  31
0.0
   0
LINE
   5
394
 100
AcDbEntity
   8
LEVEL002
 370
30
 100
AcDbLine
   6
CONTINUOUS
  62
7
  10
 607.24788240462
  20
 113.16337448559
  30
0.0
  11
 607.24788240462
  21
 165.16337448559
  31
0.0
   0
LINE
   5
395
 100
AcDbEntity
   8
LEVEL002
 370
30
 100
AcDbLine
   6
CONTINUOUS
  62
7
  10
 617.24788240462
  20
 175.16337448559
  30
0.0
  11
 617.24788240462
  21
 103.16337448559
  31
0.0
   0
ARC
   5
396
 100
AcDbEntity
   8
LEVEL002
 370
30
   6
CONTINUOUS
  62
7
 100
AcDbCircle
  10
 577.24788240461
  20
 119.16337448559
  30
0.0
  40
 16.000000000000
 100
AcDbArc
  50
 233.13010235417
  51
 270.00000000001
   0
LINE
   5
397
 100
AcDbEntity
   8
LEVEL002
 370
30
 100
AcDbLine
   6
CONTINUOUS
  62
7
  10
 617.24788240462
  20
 103.16337448559
  30
0.0
  11
 577.24788240462
  21
 103.16337448559
  31
0.0
   0
LINE
   5
398
 100
AcDbEntity
   8
LEVEL002
 370
30
 100
AcDbLine
   6
CONTINUOUS
  62
7
  10
 607.24788240462
  20
 113.16337448559
  30
0.0
  11
 577.24788240462
  21
 113.16337448559
  31
0.0
   0
LINE
   5
399
 100
AcDbEntity
   8
LEVEL002
 370
30
 100
AcDbLine
   6
CONTINUOUS
  62
7
  10
 792.24788240462
  20
 94.163374485591
  30
0.0
  11
 797.24788240462
  21
 94.163374485591
  31
0.0
   0
LINE
   5
39A
 100
AcDbEntity
   8
LEVEL002
 370
30
 100
AcDbLine
   6
CONTINUOUS
  62
7
  10
 797.24788240462
  20
 94.163374485591
  30
0.0
  11
 797.24788240462
  21
 184.16337448559
  31
0.0
   0
LINE
   5
39B
 100
AcDbEntity
   8
LEVEL002
 370
30
 100
AcDbLine
   6
CONTINUOUS
  62
7
  10
 797.24788240462
  20
 184.16337448559
  30
0.0
  11
 792.24788240462
  21
 184.16337448559
  31
0.0
   0
LINE
   5
39C
 100
AcDbEntity
   8
LEVEL002
 370
30
 100
AcDbLine
   6
CONTINUOUS
  62
7
  10
 577.24788240462
  20
 89.163374485591
  30
0.0
  11
 792.24788240462
  21
 89.163374485591
  31
0.0
   0
LINE
   5
39D
 100
AcDbEntity
   8
LEVEL002
 370
30
 100
AcDbLine
   6
CONTINUOUS
  62
7
  10
 792.24788240462
  20
 89.163374485591
  30
0.0
  11
 792.24788240462
  21
 94.163374485591
  31
0.0
   0
LINE
   5
39E
 100
AcDbEntity
   8
LEVEL002
 370
30
 100
AcDbLine
   6
CONTINUOUS
  62
7
  10
 792.24788240462
  20
 184.16337448559
  30
0.0
  11
 792.24788240462
  21
 189.16337448559
  31
0.0
   0
LINE
   5
39F
 100
AcDbEntity
   8
LEVEL002
 370
30
 100
AcDbLine
   6
CONTINUOUS
  62
7
  10
 792.24788240462
  20
 94.163374485591
  30
0.0
  11
 792.24788240462
  21
 184.16337448559
  31
0.0
   0
LINE
   5
3A0
 100
AcDbEntity
   8
LEVEL002
 370
30
 100
AcDbLine
   6
CONTINUOUS
  62
7
  10
 792.24788240462
  20
 189.16337448559
  30
0.0
  11
 577.24788240462
  21
 189.16337448559
  31
0.0
   0
ARC
   5
3A1
 100
AcDbEntity
   8
LEVEL002
 370
30
   6
CONTINUOUS
  62
7
 100
AcDbCircle
  10
 737.24788240462
  20
 139.16337448559
  30
0.0
  40
 10.000000000000
 100
AcDbArc
  50
 90.000000000000
  51
 270.00000000000
   0
ARC
   5
3A2
 100
AcDbEntity
   8
LEVEL002
 370
30
   6
CONTINUOUS
  62
7
 100
AcDbCircle
  10
 757.24788240462
  20
 139.16337448559
  30
0.0
  40
 10.000000000000
 100
AcDbArc
  50
 270.00000000000
  51
 90.000000000000
   0
LINE
   5
3A3
 100
AcDbEntity
   8
LEVEL002
 370
30
 100
AcDbLine
   6
CONTINUOUS
  62
7
  10
 737.24788240462
  20
 129.16337448559
  30
0.0
  11
 757.24788240462
  21
 129.16337448559
  31
0.0
   0
LINE
   5
3A4
 100
AcDbEntity
   8
LEVEL002
 370
30
 100
AcDbLine
   6
CONTINUOUS
  62
7
  10
 757.24788240462
  20
 149.16337448559
  30
0.0
  11
 737.24788240462
  21
 149.16337448559
  31
0.0
   0
ARC
   5
3A5
 100
AcDbEntity
   8
LEVEL002
 370
30
   6
CONTINUOUS
  62
7
 100
AcDbCircle
  10
 592.24788240462
  20
 732.92822027316
  30
0.0
  40
 55.000000000000
 100
AcDbArc
  50
 126.86989764584
  51
 233.13010235416
   0
ARC
   5
3A6
 100
AcDbEntity
   8
LEVEL002
 370
30
   6
CONTINUOUS
  62
7
 100
AcDbCircle
  10
 577.24788240462
  20
 712.92822027316
  30
0.0
  40
 30.000000000000
 100
AcDbArc
  50
 233.13010235415
  51
 270.00000000000
   0
ARC
   5
3A7
 100
AcDbEntity
   8
LEVEL002
 370
30
   6
CONTINUOUS
  62
7
 100
AcDbCircle
  10
 577.24788240462
  20
 752.92822027316
  30
0.0
  40
 30.000000000000
 100
AcDbArc
  50
 90.000000000002
  51
 126.86989764585
   0
LINE
   5
3A8
 100
AcDbEntity
   8
LEVEL002
 370
30
 100
AcDbLine
   6
CONTINUOUS
  62
7
  10
 792.24788240462
  20
 687.92822027316
  30
0.0
  11
 797.24788240462
  21
 687.92822027316
  31
0.0
   0
LINE
   5
3A9
 100
AcDbEntity
   8
LEVEL002
 370
30
 100
AcDbLine
   6
CONTINUOUS
  62
7
  10
 797.24788240462
  20
 687.92822027316
  30
0.0
  11
 797.24788240462
  21
 777.92822027316
  31
0.0
   0
LINE
   5
3AA
 100
AcDbEntity
   8
LEVEL002
 370
30
 100
AcDbLine
   6
CONTINUOUS
  62
7
  10
 797.24788240462
  20
 777.92822027316
  30
0.0
  11
 792.24788240462
  21
 777.92822027316
  31
0.0
   0
LINE
   5
3AB
 100
AcDbEntity
   8
LEVEL002
 370
30
 100
AcDbLine
   6
CONTINUOUS
  62
7
  10
 577.24788240462
  20
 682.92822027316
  30
0.0
  11
 792.24788240462
  21
 682.92822027316
  31
0.0
   0
LINE
   5
3AC
 100
AcDbEntity
   8
LEVEL002
 370
30
 100
AcDbLine
   6
CONTINUOUS
  62
7
  10
 792.24788240462
  20
 682.92822027316
  30
0.0
  11
 792.24788240462
  21
 687.92822027316
  31
0.0
   0
LINE
   5
3AD
 100
AcDbEntity
   8
LEVEL002
 370
30
 100
AcDbLine
   6
CONTINUOUS
  62
7
  10
 792.24788240462
  20
 777.92822027316
  30
0.0
  11
 792.24788240462
  21
 782.92822027316
  31
0.0
   0
LINE
   5
3AE
 100
AcDbEntity
   8
LEVEL002
 370
30
 100
AcDbLine
   6
CONTINUOUS
  62
7
  10
 792.24788240462
  20
 687.92822027316
  30
0.0
  11
 792.24788240462
  21
 777.92822027316
  31
0.0
   0
LINE
   5
3AF
 100
AcDbEntity
   8
LEVEL002
 370
30
 100
AcDbLine
   6
CONTINUOUS
  62
7
  10
 792.24788240462
  20
 782.92822027316
  30
0.0
  11
 577.24788240462
  21
 782.92822027316
  31
0.0
   0
CIRCLE
   5
3B0
 100
AcDbEntity
   8
LEVEL002
 370
30
 100
AcDbCircle
   6
CONTINUOUS
  62
7
  10
 737.24788240462
  20
 732.92822027316
  30
0.0
  40
 20.000000000000
   0
ARC
   5
3B1
 100
AcDbEntity
   8
LEVEL002
 370
30
   6
CONTINUOUS
  62
7
 100
AcDbCircle
  10
 307.03212586156
  20
 458.13092958668
  30
0.0
  40
 55.000000000000
 100
AcDbArc
  50
 36.869897645843
  51
 143.13010235416
   0
ARC
   5
3B2
 100
AcDbEntity
   8
LEVEL002
 370
30
   6
CONTINUOUS
  62
7
 100
AcDbCircle
  10
 287.03212586156
  20
 473.13092958668
  30
0.0
  40
 30.000000000000
 100
AcDbArc
  50
 143.13010235415
  51
 180.00000000000
   0
ARC
   5
3B3
 100
AcDbEntity
   8
LEVEL002
 370
30
   6
CONTINUOUS
  62
7
 100
AcDbCircle
  10
 327.03212586156
  20
 473.13092958668
  30
0.0
  40
 30.000000000000
 100
AcDbArc
  50
 0.75994053189102E-12
  51
 36.869897645847
   0
LINE
   5
3B4
 100
AcDbEntity
   8
LEVEL002
 370
30
 100
AcDbLine
   6
CONTINUOUS
  62
7
  10
 262.03212586156
  20
 258.13092958668
  30
0.0
  11
 262.03212586156
  21
 253.13092958668
  31
0.0
   0
LINE
   5
3B5
 100
AcDbEntity
   8
LEVEL002
 370
30
 100
AcDbLine
   6
CONTINUOUS
  62
7
  10
 262.03212586156
  20
 253.13092958668
  30
0.0
  11
 352.03212586156
  21
 253.13092958668
  31
0.0
   0
LINE
   5
3B6
 100
AcDbEntity
   8
LEVEL002
 370
30
 100
AcDbLine
   6
CONTINUOUS
  62
7
  10
 352.03212586156
  20
 253.13092958668
  30
0.0
  11
 352.03212586156
  21
 258.13092958668
  31
0.0
   0
LINE
   5
3B7
 100
AcDbEntity
   8
LEVEL002
 370
30
 100
AcDbLine
   6
CONTINUOUS
  62
7
  10
 257.03212586156
  20
 473.13092958668
  30
0.0
  11
 257.03212586156
  21
 258.13092958668
  31
0.0
   0
LINE
   5
3B8
 100
AcDbEntity
   8
LEVEL002
 370
30
 100
AcDbLine
   6
CONTINUOUS
  62
7
  10
 257.03212586156
  20
 258.13092958668
  30
0.0
  11
 262.03212586156
  21
 258.13092958668
  31
0.0
   0
LINE
   5
3B9
 100
AcDbEntity
   8
LEVEL002
 370
30
 100
AcDbLine
   6
CONTINUOUS
  62
7
  10
 352.03212586156
  20
 258.13092958668
  30
0.0
  11
 357.03212586156
  21
 258.13092958668
  31
0.0
   0
LINE
   5
3BA
 100
AcDbEntity
   8
LEVEL002
 370
30
 100
AcDbLine
   6
CONTINUOUS
  62
7
  10
 262.03212586156
  20
 258.13092958668
  30
0.0
  11
 352.03212586156
  21
 258.13092958668
  31
0.0
   0
LINE
   5
3BB
 100
AcDbEntity
   8
LEVEL002
 370
30
 100
AcDbLine
   6
CONTINUOUS
  62
7
  10
 357.03212586156
  20
 258.13092958668
  30
0.0
  11
 357.03212586156
  21
 473.13092958668
  31
0.0
   0
CIRCLE
   5
3BC
 100
AcDbEntity
   8
LEVEL002
 370
30
 100
AcDbCircle
   6
CONTINUOUS
  62
7
  10
 307.03212586156
  20
 313.13092958668
  30
0.0
  40
 20.000000000000
   0
LINE
   5
3BD
 100
AcDbEntity
   8
LEVEL001
 370
20
 100
AcDbLine
   6
CONTINUOUS
  62
6
  10
 74.222222222221
  20
 814.84444444444
  30
0.0
  11
 233.60000000000
  21
 814.84444444444
  31
0.0
   0
MTEXT
   5
3BF
 100
AcDbEntity
   8
LEVEL001
 370
20
  62
6
 100
AcDbMText
  10
 84.977777777777
  20
 804.08888888889
  30
0.0
  40
 12.000000000000
  41
0.0
  71
4
  72
1
   1
\T1.000000;色：黒
   7
GMM002
  44
 0.79999984000003
   0
MTEXT
   5
3C1
 100
AcDbEntity
   8
LEVEL001
 370
20
  62
6
 100
AcDbMText
  10
 156.85925925926
  20
 824.62222222222
  30
0.0
  40
 12.000000000000
  41
0.0
  71
5
  72
1
   1
\T1.000000;出隅コーナー（ＷＧＣ２Ｂ）
   7
GMM002
  44
 0.79999984000003
   0
DIMENSION
   5
3C2
 100
AcDbEntity
   8
LEVEL001
 370
15
   6
CONTINUOUS
  62
8
 100
AcDbDimension
   2
*D8
  10
 767.24788240462
  20
 222.13513013895
  30
0.0
  11
 747.24788240462
  21
 222.13513013895
  31
0.0
  70
0
   3
GMM001
 100
AcDbAlignedDimension
  13
 727.24788240462
  23
 139.16337448559
  33
0.0
  14
 767.24788240462
  24
 139.16337448559
  34
0.0
 100
AcDbRotatedDimension
   0
DIMENSION
   5
3C3
 100
AcDbEntity
   8
LEVEL001
 370
15
   6
CONTINUOUS
  62
8
 100
AcDbDimension
   2
*D9
  10
 703.76706417006
  20
 149.16337448559
  30
0.0
  11
 703.76706417006
  21
 139.16337448559
  31
0.0
  70
0
   3
GMM001
 100
AcDbAlignedDimension
  13
 732.24788240462
  23
 129.16337448559
  33
0.0
  14
 737.24788240462
  24
 149.16337448559
  34
0.0
  50
 90.000000000000
 100
AcDbRotatedDimension
   0
DIMENSION
   5
3C4
 100
AcDbEntity
   8
LEVEL001
 370
15
   6
CONTINUOUS
  62
8
 100
AcDbDimension
   2
*D10
  10
 978.78324424672
  20
 346.61174782124
  30
0.0
  11
 968.78324424672
  21
 346.61174782124
  31
0.0
  70
0
   3
GMM001
 100
AcDbAlignedDimension
  13
 958.78324424672
  23
 313.13092958668
  33
0.0
  14
 978.78324424672
  24
 313.13092958668
  34
0.0
 100
AcDbRotatedDimension
   0
DIMENSION
   5
3C5
 100
AcDbEntity
   8
LEVEL001
 370
15
   6
CONTINUOUS
  62
8
 100
AcDbDimension
   2
*D11
  10
 1051.7549999001
  20
 323.13092958668
  30
0.0
  11
 1051.7549999001
  21
 303.13092958668
  31
0.0
  70
0
   3
GMM001
 100
AcDbAlignedDimension
  13
 968.78324424672
  23
 283.13092958668
  33
0.0
  14
 968.78324424672
  24
 323.13092958668
  34
0.0
  50
 90.000000000000
 100
AcDbRotatedDimension
   0
DIMENSION
   5
3C6
 100
AcDbEntity
   8
LEVEL001
 370
15
   6
CONTINUOUS
  62
8
 100
AcDbDimension
   2
*D12
  10
 887.24788240462
  20
 303.13092958668
  30
0.0
  11
 887.24788240462
  21
 278.13092958668
  31
0.0
  70
0
   3
GMM001
 100
AcDbAlignedDimension
  13
 923.78324424672
  23
 253.13092958668
  33
0.0
  14
 943.77536723959
  24
 303.13092958668
  34
0.0
  50
 90.000000000000
 100
AcDbRotatedDimension
   0
DIMENSION
   5
3C7
 100
AcDbEntity
   8
LEVEL001
 370
15
   6
CONTINUOUS
  62
8
 100
AcDbDimension
   2
*D13
  10
 887.24788240462
  20
 513.13092958668
  30
0.0
  11
 887.24788240462
  21
 463.13092958668
  31
0.0
  70
0
   3
GMM001
 100
AcDbAlignedDimension
  13
 847.24788240462
  23
 413.13092958668
  33
0.0
  14
 792.24788240462
  24
 513.13092958668
  34
0.0
  50
 90.000000000000
 100
AcDbRotatedDimension
   0
DIMENSION
   5
3C8
 100
AcDbEntity
   8
LEVEL001
 370
15
   6
CONTINUOUS
  62
8
 100
AcDbDimension
   2
*D14
  10
 792.24788240462
  20
 563.13092958668
  30
0.0
  11
 664.74788240462
  21
 563.13092958668
  31
0.0
  70
0
   3
GMM001
 100
AcDbAlignedDimension
  13
 537.24788240462
  23
 413.13092958668
  33
0.0
  14
 792.24788240462
  24
 513.13092958668
  34
0.0
 100
AcDbRotatedDimension
   0
DIMENSION
   5
3C9
 100
AcDbEntity
   8
LEVEL001
 370
15
   6
CONTINUOUS
  62
8
 100
AcDbDimension
   2
*D15
  10
 797.24788240462
  20
 563.13092958668
  30
0.0
  11
 807.38945581301
  21
 563.13092958668
  31
0.0
  70
128
   3
GMM003
 100
AcDbAlignedDimension
  13
 792.24788240462
  23
 513.13092958668
  33
0.0
  14
 797.24788240462
  24
 508.13092958668
  34
0.0
 100
AcDbRotatedDimension
   0
DIMENSION
   5
3CA
 100
AcDbEntity
   8
LEVEL001
 370
15
   6
CONTINUOUS
  62
8
 100
AcDbDimension
   2
*D16
  10
 797.24788240462
  20
 603.13092958668
  30
0.0
  11
 667.24788240462
  21
 603.13092958668
  31
0.0
  70
0
   3
GMM001
 100
AcDbAlignedDimension
  13
 537.24788240462
  23
 563.13092958668
  33
0.0
  14
 797.24788240462
  24
 563.13092958668
  34
0.0
 100
AcDbRotatedDimension
   0
DIMENSION
   5
3CB
 100
AcDbEntity
   8
LEVEL001
 370
15
   6
CONTINUOUS
  62
8
 100
AcDbDimension
   2
*D17
  10
 487.24788240462
  20
 258.13092958668
  30
0.0
  11
 487.24788240462
  21
 242.93251028806
  31
0.0
  70
128
   3
GMM004
 100
AcDbAlignedDimension
  13
 542.24788240462
  23
 253.13092958668
  33
0.0
  14
 537.24788240462
  24
 258.13092958668
  34
0.0
  50
 90.000000000000
 100
AcDbRotatedDimension
   0
DIMENSION
   5
3CC
 100
AcDbEntity
   8
LEVEL001
 370
15
   6
CONTINUOUS
  62
8
 100
AcDbDimension
   2
*D18
  10
 487.24788240462
  20
 513.13092958668
  30
0.0
  11
 487.24788240462
  21
 385.63092958668
  31
0.0
  70
0
   3
GMM001
 100
AcDbAlignedDimension
  13
 537.24788240462
  23
 258.13092958668
  33
0.0
  14
 637.24788240462
  24
 513.13092958668
  34
0.0
  50
 90.000000000000
 100
AcDbRotatedDimension
   0
DIMENSION
   5
3CD
 100
AcDbEntity
   8
LEVEL001
 370
15
   6
CONTINUOUS
  62
8
 100
AcDbDimension
   2
*D19
  10
 447.24788240462
  20
 513.13092958668
  30
0.0
  11
 447.24788240462
  21
 383.13092958668
  31
0.0
  70
0
   3
GMM001
 100
AcDbAlignedDimension
  13
 487.24788240462
  23
 253.13092958668
  33
0.0
  14
 633.24788240462
  24
 513.13092958668
  34
0.0
  50
 90.000000000000
 100
AcDbRotatedDimension
   0
DIMENSION
   5
3CE
 100
AcDbEntity
   8
LEVEL001
 370
15
   6
CONTINUOUS
  62
8
 100
AcDbDimension
   2
*D20
  10
 295.84830886896
  20
 296.55015042899
  30
0.0
  11
 323.83680289626
  21
 338.04502098436
  31
0.0
  70
131
   3
GMM005
 100
AcDbDiametricDimension
  15
 318.21594285416
  25
 329.71170874436
  35
0.0
  40
 10.818417652414
   0
DIMENSION
   5
3CF
 100
AcDbEntity
   8
LEVEL001
 370
15
   6
CONTINUOUS
  62
8
 100
AcDbDimension
   2
*D21
  10
 234.44337556433
  20
 313.13092958668
  30
0.0
  11
 234.44337556433
  21
 283.13092958668
  31
0.0
  70
0
   3
GMM001
 100
AcDbAlignedDimension
  13
 262.03212586156
  23
 253.13092958668
  33
0.0
  14
 271.46343981844
  24
 313.13092958668
  34
0.0
  50
 90.000000000000
 100
AcDbRotatedDimension
   0
DIMENSION
   5
3D0
 100
AcDbEntity
   8
LEVEL001
 370
15
   6
CONTINUOUS
  62
8
 100
AcDbDimension
   2
*D22
  10
 797.24788240462
  20
 645.83772634976
  30
0.0
  11
 767.24788240462
  21
 645.83772634976
  31
0.0
  70
0
   3
GMM001
 100
AcDbAlignedDimension
  13
 737.24788240462
  23
 697.35953423006
  33
0.0
  14
 797.24788240462
  24
 687.92822027316
  34
0.0
 100
AcDbRotatedDimension
   0
DIMENSION
   5
3D1
 100
AcDbEntity
   8
LEVEL001
 370
15
   6
CONTINUOUS
  62
8
 100
AcDbDimension
   2
*D23
  10
 755.07974372593
  20
 723.87147020386
  30
0.0
  11
 710.33595787063
  21
 746.59670781893
  31
0.0
  70
131
   3
GMM005
 100
AcDbDiametricDimension
  15
 719.41602108331
  25
 741.98497034246
  35
0.0
  40
 10.941465646717
   0
DIMENSION
   5
3D2
 100
AcDbEntity
   8
LEVEL001
 370
15
   6
CONTINUOUS
  62
8
 100
AcDbDimension
   2
*D24
  10
 797.24788240462
  20
 67.530041152257
  30
0.0
  11
 772.24788240462
  21
 67.530041152257
  31
0.0
  70
0
   3
GMM001
 100
AcDbAlignedDimension
  13
 747.24788240462
  23
 114.15549747846
  33
0.0
  14
 797.24788240462
  24
 94.163374485591
  34
0.0
 100
AcDbRotatedDimension
   0
MTEXT
   5
3D4
 100
AcDbEntity
   8
LEVEL002
 370
15
  62
8
 100
AcDbMText
  10
 1277.9999999998
  20
 831.66666666680
  30
0.0
  40
 14.000000000000
  41
0.0
  71
1
  72
1
   1
{\T1.000000;・材質：合成ゴム}\P{\T1.000000;・仕上：}\P{\T1.000000;・備考：取寄品}
   7
GMM002
  44
 0.79999984000003
   0
MTEXT
   5
3D6
 100
AcDbEntity
   8
LEVEL001
 370
20
  62
6
 100
AcDbMText
  10
 739.74814814815
  20
 1074.6222222222
  30
0.0
  40
 12.000000000000
  41
0.0
  71
5
  72
1
   1
\W1.000000;\T1.000000;穴キャップ（ＷＧＰ２Ｂ\W0.500000;\T1.000000;･\W1.000000;\T1.000000;Ｙ）
   7
GMM002
  44
 0.79999984000003
   0
LINE
   5
3D7
 100
AcDbEntity
   8
LEVEL001
 370
20
 100
AcDbLine
   6
CONTINUOUS
  62
6
  10
 649.37122051178
  20
 1064.8444444444
  30
0.0
  11
 816.57122051178
  21
 1064.8444444444
  31
0.0
   0
MTEXT
   5
3D9
 100
AcDbEntity
   8
LEVEL001
 370
20
  62
6
 100
AcDbMText
  10
 660.12677606733
  20
 1054.0888888889
  30
0.0
  40
 12.000000000000
  41
0.0
  71
4
  72
1
   1
\T1.000000;色：黒／黄
   7
GMM002
  44
 0.79999984000003
   0
DIMENSION
   5
3DA
 100
AcDbEntity
   8
LEVEL001
 370
15
   6
CONTINUOUS
  62
8
 100
AcDbDimension
   2
*D25
  10
 713.83173362906
  20
 932.38418775614
  30
0.0
  11
 690.83173362906
  21
 932.38418775614
  31
0.0
  70
0
   3
GMM001
 100
AcDbAlignedDimension
  13
 667.83173362906
  23
 982.56443466972
  33
0.0
  14
 713.83173362906
  24
 982.56443466972
  34
0.0
 100
AcDbRotatedDimension
   0
DIMENSION
   5
3DB
 100
AcDbEntity
   8
LEVEL001
 370
15
   6
CONTINUOUS
  62
8
 100
AcDbDimension
   2
*D26
  10
 793.93510940066
  20
 932.38418775614
  30
0.0
  11
 781.18510940066
  21
 932.38418775614
  31
0.0
  70
0
   3
GMM001
 100
AcDbAlignedDimension
  13
 768.43510940066
  23
 981.56443466972
  33
0.0
  14
 793.93510940066
  24
 961.41072587151
  34
0.0
 100
AcDbRotatedDimension
   0
DIMENSION
   5
3DC
 100
AcDbEntity
   8
LEVEL001
 370
15
   6
CONTINUOUS
  62
8
 100
AcDbDimension
   2
*D27
  10
 748.32394113363
  20
 1004.5644346697
  30
0.0
  11
 748.32394113363
  21
 981.56443466972
  31
0.0
  70
0
   3
GMM006
 100
AcDbAlignedDimension
  13
 771.12600126850
  23
 958.56443466972
  33
0.0
  14
 771.12600126850
  24
 1004.5644346697
  34
0.0
  50
 90.000000000000
 100
AcDbRotatedDimension
   0
DIMENSION
   5
3DD
 100
AcDbEntity
   8
LEVEL001
 370
15
   6
CONTINUOUS
  62
8
 100
AcDbDimension
   2
*D28
  10
 815.61102812918
  20
 1004.5644346697
  30
0.0
  11
 815.61102812918
  21
 981.56443466972
  31
0.0
  70
0
   3
GMM006
 100
AcDbAlignedDimension
  13
 793.14761549228
  23
 958.56443466972
  33
0.0
  14
 792.49629970281
  24
 1004.5644346697
  34
0.0
  50
 90.000000000000
 100
AcDbRotatedDimension
   0
CIRCLE
   5
3DE
 100
AcDbEntity
   8
LEVEL002
 370
30
 100
AcDbCircle
   6
CONTINUOUS
  62
7
  10
 690.83173362906
  20
 981.56443466972
  30
0.0
  40
 23.000000000000
   0
ARC
   5
3DF
 100
AcDbEntity
   8
LEVEL002
 370
30
   6
CONTINUOUS
  62
7
 100
AcDbCircle
  10
 512.43510940066
  20
 981.56443466972
  30
0.0
  40
 265.00000000000
 100
AcDbArc
  50
 355.02089415600
  51
 4.9791058439980
   0
LINE
   5
3E0
 100
AcDbEntity
   8
LEVEL002
 370
30
 100
AcDbLine
   6
CONTINUOUS
  62
7
  10
 776.78856596970
  20
 1000.0644346697
  30
0.0
  11
 788.93510940066
  21
 1000.0644346697
  31
0.0
   0
LINE
   5
3E1
 100
AcDbEntity
   8
LEVEL002
 370
30
 100
AcDbLine
   6
CONTINUOUS
  62
7
  10
 785.93510940066
  20
 1000.0644346697
  30
0.0
  11
 785.93510940066
  21
 981.56443466972
  31
0.0
   0
LINE
   5
3E2
 100
AcDbEntity
   8
LEVEL002
 370
30
 100
AcDbLine
   6
CONTINUOUS
  62
7
  10
 785.93510940066
  20
 997.56443466972
  30
0.0
  11
 788.93510940066
  21
 997.56443466972
  31
0.0
   0
LINE
   5
3E3
 100
AcDbEntity
   8
LEVEL002
 370
30
 100
AcDbLine
   6
CONTINUOUS
  62
7
  10
 788.93510940066
  20
 997.56443466972
  30
0.0
  11
 788.93510940066
  21
 1000.0644346697
  31
0.0
   0
LINE
   5
3E4
 100
AcDbEntity
   8
LEVEL002
 370
30
 100
AcDbLine
   6
CONTINUOUS
  62
7
  10
 772.12600126850
  20
 1004.5644346697
  30
0.0
  11
 776.43510940066
  21
 1004.5644346697
  31
0.0
   0
ARC
   5
3E5
 100
AcDbEntity
   8
LEVEL002
 370
30
   6
CONTINUOUS
  62
7
 100
AcDbCircle
  10
 772.12600126850
  20
 1002.5644346697
  30
0.0
  40
 2.0000000000000
 100
AcDbArc
  50
 90.000000000007
  51
 170.79310377866
   0
ARC
   5
3E6
 100
AcDbEntity
   8
LEVEL002
 370
30
   6
CONTINUOUS
  62
7
 100
AcDbCircle
  10
 901.68510940066
  20
 981.56443466972
  30
0.0
  40
 133.25000000000
 100
AcDbArc
  50
 170.79310377865
  51
 189.20689622135
   0
LINE
   5
3E7
 100
AcDbEntity
   8
LEVEL002
 370
30
 100
AcDbLine
   6
CONTINUOUS
  62
7
  10
 776.43510940066
  20
 958.56443466972
  30
0.0
  11
 772.12600126850
  21
 958.56443466972
  31
0.0
   0
ARC
   5
3E8
 100
AcDbEntity
   8
LEVEL002
 370
30
   6
CONTINUOUS
  62
7
 100
AcDbCircle
  10
 772.12600126850
  20
 960.56443466972
  30
0.0
  40
 2.0000000000000
 100
AcDbArc
  50
 189.20689622134
  51
 269.99999999999
   0
LINE
   5
3E9
 100
AcDbEntity
   8
LEVEL002
 370
30
 100
AcDbLine
   6
CONTINUOUS
  62
7
  10
 792.93510940066
  20
 992.56443466972
  30
0.0
  11
 785.93510940066
  21
 992.56443466972
  31
0.0
   0
ARC
   5
3EA
 100
AcDbEntity
   8
LEVEL002
 370
30
   6
CONTINUOUS
  62
7
 100
AcDbCircle
  10
 792.93510940066
  20
 993.56443466972
  30
0.0
  40
 1.0000000000000
 100
AcDbArc
  50
 270.00000000000
  51
0.0
   0
LINE
   5
3EB
 100
AcDbEntity
   8
LEVEL002
 370
30
 100
AcDbLine
   6
CONTINUOUS
  62
7
  10
 793.93510940066
  20
 1001.7181434679
  30
0.0
  11
 793.93510940066
  21
 993.56443466972
  31
0.0
   0
ARC
   5
3EC
 100
AcDbEntity
   8
LEVEL002
 370
30
   6
CONTINUOUS
  62
7
 100
AcDbCircle
  10
 792.68510940066
  20
 1001.7181434679
  30
0.0
  40
 1.2500000000000
 100
AcDbArc
  50
 0.52110207901098E-11
  51
 68.198590513700
   0
LINE
   5
3ED
 100
AcDbEntity
   8
LEVEL002
 370
30
 100
AcDbLine
   6
CONTINUOUS
  62
7
  10
 789.64675829266
  20
 1004.5174299749
  30
0.0
  11
 793.21423163066
  21
 1002.8506317309
  31
0.0
   0
LINE
   5
3EE
 100
AcDbEntity
   8
LEVEL002
 370
30
 100
AcDbLine
   6
CONTINUOUS
  62
7
  10
 788.93510940066
  20
 1000.0644346697
  30
0.0
  11
 788.93510940066
  21
 1004.0644346697
  31
0.0
   0
ARC
   5
3EF
 100
AcDbEntity
   8
LEVEL002
 370
30
   6
CONTINUOUS
  62
7
 100
AcDbCircle
  10
 789.43510940066
  20
 1004.0644346697
  30
0.0
  40
 0.50000000000000
 100
AcDbArc
  50
 64.957033835512
  51
 180.00000000001
   0
LINE
   5
3F0
 100
AcDbEntity
   8
LEVEL002
 370
30
 100
AcDbLine
   6
CONTINUOUS
  62
7
  10
 788.93510940066
  20
 997.56443466972
  30
0.0
  11
 788.93510940066
  21
 992.56443466972
  31
0.0
   0
LINE
   5
3F1
 100
AcDbEntity
   8
LEVEL002
 370
30
 100
AcDbLine
   6
CONTINUOUS
  62
7
  10
 776.78856596970
  20
 963.06443466972
  30
0.0
  11
 788.93510940066
  21
 963.06443466972
  31
0.0
   0
LINE
   5
3F2
 100
AcDbEntity
   8
LEVEL002
 370
30
 100
AcDbLine
   6
CONTINUOUS
  62
7
  10
 785.93510940066
  20
 963.06443466972
  30
0.0
  11
 785.93510940066
  21
 981.56443466972
  31
0.0
   0
LINE
   5
3F3
 100
AcDbEntity
   8
LEVEL002
 370
30
 100
AcDbLine
   6
CONTINUOUS
  62
7
  10
 785.93510940066
  20
 965.56443466972
  30
0.0
  11
 788.93510940066
  21
 965.56443466972
  31
0.0
   0
LINE
   5
3F4
 100
AcDbEntity
   8
LEVEL002
 370
30
 100
AcDbLine
   6
CONTINUOUS
  62
7
  10
 788.93510940066
  20
 965.56443466972
  30
0.0
  11
 788.93510940066
  21
 963.06443466972
  31
0.0
   0
LINE
   5
3F5
 100
AcDbEntity
   8
LEVEL002
 370
30
 100
AcDbLine
   6
CONTINUOUS
  62
7
  10
 792.93510940066
  20
 970.56443466972
  30
0.0
  11
 785.93510940066
  21
 970.56443466972
  31
0.0
   0
ARC
   5
3F6
 100
AcDbEntity
   8
LEVEL002
 370
30
   6
CONTINUOUS
  62
7
 100
AcDbCircle
  10
 792.93510940066
  20
 969.56443466972
  30
0.0
  40
 1.0000000000000
 100
AcDbArc
  50
0.0
  51
 90.000000000000
   0
LINE
   5
3F7
 100
AcDbEntity
   8
LEVEL002
 370
30
 100
AcDbLine
   6
CONTINUOUS
  62
7
  10
 793.93510940066
  20
 961.41072587150
  30
0.0
  11
 793.93510940066
  21
 969.56443466972
  31
0.0
   0
ARC
   5
3F8
 100
AcDbEntity
   8
LEVEL002
 370
30
   6
CONTINUOUS
  62
7
 100
AcDbCircle
  10
 792.68510940066
  20
 961.41072587151
  30
0.0
  40
 1.2500000000000
 100
AcDbArc
  50
 291.80140948630
  51
0.0
   0
LINE
   5
3F9
 100
AcDbEntity
   8
LEVEL002
 370
30
 100
AcDbLine
   6
CONTINUOUS
  62
7
  10
 789.64675829266
  20
 958.61143936454
  30
0.0
  11
 793.21423163066
  21
 960.27823760855
  31
0.0
   0
LINE
   5
3FA
 100
AcDbEntity
   8
LEVEL002
 370
30
 100
AcDbLine
   6
CONTINUOUS
  62
7
  10
 788.93510940066
  20
 963.06443466972
  30
0.0
  11
 788.93510940066
  21
 959.06443466972
  31
0.0
   0
ARC
   5
3FB
 100
AcDbEntity
   8
LEVEL002
 370
30
   6
CONTINUOUS
  62
7
 100
AcDbCircle
  10
 789.43510940066
  20
 959.06443466972
  30
0.0
  40
 0.50000000000000
 100
AcDbArc
  50
 179.99999999986
  51
 295.04296616449
   0
LINE
   5
3FC
 100
AcDbEntity
   8
LEVEL002
 370
30
 100
AcDbLine
   6
CONTINUOUS
  62
7
  10
 788.93510940066
  20
 965.56443466972
  30
0.0
  11
 788.93510940066
  21
 970.56443466972
  31
0.0
   0
DIMENSION
   5
3FD
 100
AcDbEntity
   8
LEVEL001
 370
15
   6
CONTINUOUS
  62
8
 100
AcDbDimension
   2
*D29
  10
 847.24788240462
  20
 508.13092958668
  30
0.0
  11
 847.24788240462
  21
 460.63092958668
  31
0.0
  70
0
   1
\A1;94
   3
GMM001
 100
AcDbAlignedDimension
  13
 797.24788240462
  23
 413.13092958668
  33
0.0
  14
 797.24788240462
  24
 508.13092958668
  34
0.0
  50
 90.000000000000
 100
AcDbRotatedDimension
   0
MTEXT
   5
3FF
 100
AcDbEntity
   8
LEVEL002
 370
20
  62
6
 100
AcDbMText
  10
 1356.8372605802
  20
 755.05596707819
  30
0.0
  40
 10.666666666667
  41
0.0
  71
5
  72
1
   1
\W1.000000;\T1.000000;※全長公差　－０\W0.500000;\T1.000000;.\W1.000000;\T1.000000;５％
   7
GMM002
  44
 0.79999984000003
   0
LINE
   5
400
 100
AcDbEntity
   8
LEVEL002
 370
20
 100
AcDbLine
   6
CONTINUOUS
  62
6
  10
 1292.4950979296
  20
 748.52677995326
  30
0.0
  11
 1413.4770946562
  21
 748.52677995326
  31
0.0
   0
ARC
   5
401
 100
AcDbEntity
   8
LEVEL002
 370
30
   6
CONTINUOUS
  62
7
 100
AcDbCircle
  10
 263.26002962792
  20
 968.86666666667
  30
0.0
  40
 16.000000000000
 100
AcDbArc
  50
 143.13010235416
  51
 180.00000000000
   0
ARC
   5
402
 100
AcDbEntity
   8
LEVEL002
 370
30
   6
CONTINUOUS
  62
7
 100
AcDbCircle
  10
 283.26002962792
  20
 953.86666666667
  30
0.0
  40
 41.000000000000
 100
AcDbArc
  50
 36.869897645844
  51
 143.13010235416
   0
ARC
   5
403
 100
AcDbEntity
   8
LEVEL002
 370
30
   6
CONTINUOUS
  62
7
 100
AcDbCircle
  10
 303.26002962792
  20
 968.86666666667
  30
0.0
  40
 16.000000000000
 100
AcDbArc
  50
0.0
  51
 36.869897645843
   0
LINE
   5
404
 100
AcDbEntity
   8
LEVEL002
 370
30
 100
AcDbLine
   6
CONTINUOUS
  62
7
  10
 319.26002962792
  20
 968.86666666667
  30
0.0
  11
 319.26002962792
  21
 928.86666666667
  31
0.0
   0
LINE
   5
405
 100
AcDbEntity
   8
LEVEL002
 370
30
 100
AcDbLine
   6
CONTINUOUS
  62
7
  10
 247.26002962792
  20
 928.86666666667
  30
0.0
  11
 247.26002962792
  21
 968.86666666667
  31
0.0
   0
ARC
   5
406
 100
AcDbEntity
   8
LEVEL002
 370
30
   6
CONTINUOUS
  62
7
 100
AcDbCircle
  10
 263.26002962792
  20
 968.86666666667
  30
0.0
  40
 6.0000000000000
 100
AcDbArc
  50
 143.13010235417
  51
 180.00000000001
   0
ARC
   5
407
 100
AcDbEntity
   8
LEVEL002
 370
30
   6
CONTINUOUS
  62
7
 100
AcDbCircle
  10
 283.26002962792
  20
 953.86666666667
  30
0.0
  40
 31.000000000000
 100
AcDbArc
  50
 36.869897645844
  51
 143.13010235416
   0
ARC
   5
408
 100
AcDbEntity
   8
LEVEL002
 370
30
   6
CONTINUOUS
  62
7
 100
AcDbCircle
  10
 303.26002962792
  20
 968.86666666667
  30
0.0
  40
 6.0000000000000
 100
AcDbArc
  50
0.0
  51
 36.869897645841
   0
ARC
   5
409
 100
AcDbEntity
   8
LEVEL002
 370
30
   6
CONTINUOUS
  62
7
 100
AcDbCircle
  10
 263.26002962792
  20
 968.86666666667
  30
0.0
  40
 12.000000000000
 100
AcDbArc
  50
 143.13010235417
  51
 180.00000000001
   0
ARC
   5
40A
 100
AcDbEntity
   8
LEVEL002
 370
30
   6
CONTINUOUS
  62
7
 100
AcDbCircle
  10
 283.26002962792
  20
 953.86666666667
  30
0.0
  40
 37.000000000000
 100
AcDbArc
  50
 36.869897645844
  51
 143.13010235416
   0
ARC
   5
40B
 100
AcDbEntity
   8
LEVEL002
 370
30
   6
CONTINUOUS
  62
7
 100
AcDbCircle
  10
 303.26002962792
  20
 968.86666666667
  30
0.0
  40
 12.000000000000
 100
AcDbArc
  50
0.0
  51
 36.869897645841
   0
LINE
   5
40C
 100
AcDbEntity
   8
LEVEL002
 370
30
 100
AcDbLine
   6
CONTINUOUS
  62
7
  10
 233.26002962792
  20
 908.86666666667
  30
0.0
  11
 233.26002962792
  21
 968.86666666667
  31
0.0
   0
ARC
   5
40D
 100
AcDbEntity
   8
LEVEL002
 370
30
   6
CONTINUOUS
  62
7
 100
AcDbCircle
  10
 263.26002962792
  20
 968.86666666667
  30
0.0
  40
 30.000000000000
 100
AcDbArc
  50
 143.13010235416
  51
 180.00000000000
   0
ARC
   5
40E
 100
AcDbEntity
   8
LEVEL002
 370
30
   6
CONTINUOUS
  62
7
 100
AcDbCircle
  10
 283.26002962792
  20
 953.86666666667
  30
0.0
  40
 55.000000000000
 100
AcDbArc
  50
 36.869897645844
  51
 143.13010235416
   0
ARC
   5
40F
 100
AcDbEntity
   8
LEVEL002
 370
30
   6
CONTINUOUS
  62
7
 100
AcDbCircle
  10
 303.26002962792
  20
 968.86666666667
  30
0.0
  40
 30.000000000000
 100
AcDbArc
  50
0.0
  51
 36.869897645844
   0
LINE
   5
410
 100
AcDbEntity
   8
LEVEL002
 370
30
 100
AcDbLine
   6
CONTINUOUS
  62
7
  10
 333.26002962792
  20
 968.86666666667
  30
0.0
  11
 333.26002962792
  21
 908.86666666667
  31
0.0
   0
LINE
   5
411
 100
AcDbEntity
   8
LEVEL002
 370
30
 100
AcDbLine
   6
CONTINUOUS
  62
7
  10
 333.26002962792
  20
 908.86666666667
  30
0.0
  11
 233.26002962792
  21
 908.86666666667
  31
0.0
   0
LINE
   5
412
 100
AcDbEntity
   8
LEVEL002
 370
30
 100
AcDbLine
   6
CONTINUOUS
  62
7
  10
 251.26002962792
  20
 932.86666666667
  30
0.0
  11
 251.26002962792
  21
 968.86666666667
  31
0.0
   0
LINE
   5
413
 100
AcDbEntity
   8
LEVEL002
 370
30
 100
AcDbLine
   6
CONTINUOUS
  62
7
  10
 257.26002962792
  20
 938.86666666667
  30
0.0
  11
 257.26002962792
  21
 968.86666666667
  31
0.0
   0
LINE
   5
414
 100
AcDbEntity
   8
LEVEL002
 370
30
 100
AcDbLine
   6
CONTINUOUS
  62
7
  10
 309.26002962792
  20
 968.86666666667
  30
0.0
  11
 309.26002962792
  21
 938.86666666667
  31
0.0
   0
LINE
   5
415
 100
AcDbEntity
   8
LEVEL002
 370
30
 100
AcDbLine
   6
CONTINUOUS
  62
7
  10
 315.26002962792
  20
 968.86666666667
  30
0.0
  11
 315.26002962792
  21
 932.86666666667
  31
0.0
   0
LINE
   5
416
 100
AcDbEntity
   8
LEVEL002
 370
30
 100
AcDbLine
   6
CONTINUOUS
  62
7
  10
 257.26002962792
  20
 938.86666666667
  30
0.0
  11
 309.26002962792
  21
 938.86666666667
  31
0.0
   0
LINE
   5
417
 100
AcDbEntity
   8
LEVEL002
 370
30
 100
AcDbLine
   6
CONTINUOUS
  62
7
  10
 315.26002962792
  20
 932.86666666667
  30
0.0
  11
 251.26002962792
  21
 932.86666666667
  31
0.0
   0
LINE
   5
418
 100
AcDbEntity
   8
LEVEL002
 370
30
 100
AcDbLine
   6
CONTINUOUS
  62
7
  10
 319.26002962792
  20
 928.86666666667
  30
0.0
  11
 247.26002962792
  21
 928.86666666667
  31
0.0
   0
ARC
   5
419
 100
AcDbEntity
   8
LEVEL002
 370
30
   6
CONTINUOUS
  62
7
 100
AcDbCircle
  10
 283.26002962792
  20
 952.86666666667
  30
0.0
  40
 50.000000000000
 100
AcDbArc
  50
 36.869897645844
  51
 143.13010235416
   0
ARC
   5
41A
 100
AcDbEntity
   8
LEVEL002
 370
30
   6
CONTINUOUS
  62
7
 100
AcDbCircle
  10
 263.26002962792
  20
 967.86666666667
  30
0.0
  40
 25.000000000000
 100
AcDbArc
  50
 143.13010235416
  51
 180.00000000000
   0
ARC
   5
41B
 100
AcDbEntity
   8
LEVEL002
 370
30
   6
CONTINUOUS
  62
7
 100
AcDbCircle
  10
 303.26002962792
  20
 967.86666666667
  30
0.0
  40
 25.000000000000
 100
AcDbArc
  50
0.0
  51
 36.869897645844
   0
LINE
   5
41C
 100
AcDbEntity
   8
LEVEL002
 370
30
 100
AcDbLine
   6
CONTINUOUS
  62
7
  10
 238.26002962792
  20
 908.86666666667
  30
0.0
  11
 238.26002962792
  21
 967.86666666667
  31
0.0
   0
LINE
   5
41D
 100
AcDbEntity
   8
LEVEL002
 370
30
 100
AcDbLine
   6
CONTINUOUS
  62
7
  10
 328.26002962792
  20
 967.86666666667
  30
0.0
  11
 328.26002962792
  21
 908.86666666667
  31
0.0
   0
LINE
   5
41E
 100
AcDbEntity
   8
LEVEL002
 370
15
 100
AcDbLine
   6
DASHDOT
  62
8
  10
 283.26002962792
  20
 1025.0800247577
  30
0.0
  11
 283.26002962792
  21
 900.05025813712
  31
0.0
   0
LINE
   5
41F
 100
AcDbEntity
   8
LEVEL002
 370
30
 100
AcDbLine
   6
CONTINUOUS
  62
7
  10
 114.62602693401
  20
 1003.8666666667
  30
0.0
  11
 114.62602693401
  21
 908.86666666667
  31
0.0
   0
LINE
   5
420
 100
AcDbEntity
   8
LEVEL002
 370
30
 100
AcDbLine
   6
CONTINUOUS
  62
7
  10
 144.62602693401
  20
 990.86666666667
  30
0.0
  11
 140.62602693401
  21
 994.86666666667
  31
0.0
   0
LINE
   5
421
 100
AcDbEntity
   8
LEVEL002
 370
30
 100
AcDbLine
   6
CONTINUOUS
  62
7
  10
 140.62602693401
  20
 994.86666666667
  30
0.0
  11
 140.62602693401
  21
 928.86666666667
  31
0.0
   0
LINE
   5
422
 100
AcDbEntity
   8
LEVEL002
 370
30
 100
AcDbLine
   6
CONTINUOUS
  62
7
  10
 144.62602693401
  20
 932.86666666667
  30
0.0
  11
 144.62602693401
  21
 990.86666666667
  31
0.0
   0
LINE
   5
423
 100
AcDbEntity
   8
LEVEL002
 370
30
 100
AcDbLine
   6
CONTINUOUS
  62
7
  10
 140.62602693401
  20
 928.86666666667
  30
0.0
  11
 144.62602693401
  21
 932.86666666667
  31
0.0
   0
LINE
   5
424
 100
AcDbEntity
   8
LEVEL002
 370
15
 100
AcDbLine
   6
HIDDEN
  62
2
  10
 119.62602693401
  20
 984.86666666667
  30
0.0
  11
 144.62602693401
  21
 984.86666666667
  31
0.0
   0
LINE
   5
425
 100
AcDbEntity
   8
LEVEL002
 370
15
 100
AcDbLine
   6
HIDDEN
  62
2
  10
 144.62602693401
  20
 938.86666666667
  30
0.0
  11
 119.62602693401
  21
 938.86666666667
  31
0.0
   0
LINE
   5
426
 100
AcDbEntity
   8
LEVEL002
 370
30
 100
AcDbLine
   6
CONTINUOUS
  62
7
  10
 140.62602693401
  20
 994.86666666667
  30
0.0
  11
 119.62602693401
  21
 994.86666666667
  31
0.0
   0
LINE
   5
427
 100
AcDbEntity
   8
LEVEL002
 370
30
 100
AcDbLine
   6
CONTINUOUS
  62
7
  10
 119.62602693401
  20
 928.86666666667
  30
0.0
  11
 140.62602693401
  21
 928.86666666667
  31
0.0
   0
LINE
   5
428
 100
AcDbEntity
   8
LEVEL002
 370
30
 100
AcDbLine
   6
CONTINUOUS
  62
7
  10
 119.62602693401
  20
 908.86666666667
  30
0.0
  11
 119.62602693401
  21
 1002.8666666667
  31
0.0
   0
LINE
   5
429
 100
AcDbEntity
   8
LEVEL002
 370
30
 100
AcDbLine
   6
CONTINUOUS
  62
7
  10
 119.62602693401
  20
 1002.8666666667
  30
0.0
  11
 114.62602693401
  21
 1002.8666666667
  31
0.0
   0
LINE
   5
42A
 100
AcDbEntity
   8
LEVEL002
 370
30
 100
AcDbLine
   6
CONTINUOUS
  62
7
  10
 114.62602693401
  20
 1008.8666666667
  30
0.0
  11
 114.62602693401
  21
 1003.8666666667
  31
0.0
   0
LINE
   5
42B
 100
AcDbEntity
   8
LEVEL002
 370
30
 100
AcDbLine
   6
CONTINUOUS
  62
7
  10
 107.62602693401
  20
 908.86666666667
  30
0.0
  11
 107.62602693401
  21
 1008.8666666667
  31
0.0
   0
LINE
   5
42C
 100
AcDbEntity
   8
LEVEL002
 370
30
 100
AcDbLine
   6
CONTINUOUS
  62
7
  10
 107.62602693401
  20
 1008.8666666667
  30
0.0
  11
 114.62602693401
  21
 1008.8666666667
  31
0.0
   0
LINE
   5
42D
 100
AcDbEntity
   8
LEVEL002
 370
30
 100
AcDbLine
   6
CONTINUOUS
  62
7
  10
 119.62602693401
  20
 908.86666666667
  30
0.0
  11
 107.62602693401
  21
 908.86666666667
  31
0.0
   0
LINE
   5
42E
 100
AcDbEntity
   8
LEVEL002
 370
15
 100
AcDbLine
   6
DASHDOT
  62
8
  10
 153.55057594842
  20
 961.86666666667
  30
0.0
  11
 102.22986472331
  21
 961.86666666667
  31
0.0
   0
DIMENSION
   5
42F
 100
AcDbEntity
   8
LEVEL001
 370
15
   6
CONTINUOUS
  62
8
 100
AcDbDimension
   2
*D30
  10
 213.22313332993
  20
 1008.8666666667
  30
0.0
  11
 213.22313332993
  21
 958.86666666667
  31
0.0
  70
0
   3
GMM001
 100
AcDbAlignedDimension
  13
 233.26002962792
  23
 908.86666666667
  33
0.0
  14
 283.26002962792
  24
 1008.8666666667
  34
0.0
  50
 90.000000000000
 100
AcDbRotatedDimension
   0
DIMENSION
   5
430
 100
AcDbEntity
   8
LEVEL001
 370
15
   6
CONTINUOUS
  62
8
 100
AcDbDimension
   2
*D31
  10
 333.26002962792
  20
 1026.9376845684
  30
0.0
  11
 283.26002962792
  21
 1026.9376845684
  31
0.0
  70
0
   3
GMM001
 100
AcDbAlignedDimension
  13
 233.26002962792
  23
 968.86666666667
  33
0.0
  14
 333.26002962792
  24
 968.86666666667
  34
0.0
 100
AcDbRotatedDimension
   0
DIMENSION
   5
431
 100
AcDbEntity
   8
LEVEL001
 370
15
   6
CONTINUOUS
  62
8
 100
AcDbDimension
   2
*D32
  10
 175.74165184845
  20
 1002.8666666667
  30
0.0
  11
 175.74165184845
  21
 955.86666666667
  31
0.0
  70
0
   3
GMM001
 100
AcDbAlignedDimension
  13
 119.62602693401
  23
 908.86666666667
  33
0.0
  14
 119.62602693401
  24
 1002.8666666667
  34
0.0
  50
 90.000000000000
 100
AcDbRotatedDimension
   0
DIMENSION
   5
432
 100
AcDbEntity
   8
LEVEL001
 370
15
   6
CONTINUOUS
  62
8
 100
AcDbDimension
   2
*D33
  10
 84.482392589190
  20
 1008.8666666667
  30
0.0
  11
 84.482392589190
  21
 958.86666666667
  31
0.0
  70
0
   3
GMM001
 100
AcDbAlignedDimension
  13
 107.62602693401
  23
 908.86666666667
  33
0.0
  14
 107.62602693401
  24
 1008.8666666667
  34
0.0
  50
 90.000000000000
 100
AcDbRotatedDimension
   0
DIMENSION
   5
433
 100
AcDbEntity
   8
LEVEL001
 370
15
   6
CONTINUOUS
  62
8
 100
AcDbDimension
   2
*D34
  10
 119.62602693401
  20
 1026.9376845684
  30
0.0
  11
 132.12602693401
  21
 1026.9376845684
  31
0.0
  70
0
   3
GMM001
 100
AcDbAlignedDimension
  13
 144.62602693401
  23
 990.86666666667
  33
0.0
  14
 119.62602693401
  24
 1002.8666666667
  34
0.0
  50
 180.00000000000
 100
AcDbRotatedDimension
   0
DIMENSION
   5
434
 100
AcDbEntity
   8
LEVEL001
 370
15
   6
CONTINUOUS
  62
8
 100
AcDbDimension
   2
*D35
  10
 114.62602693401
  20
 1026.9376845684
  30
0.0
  11
 117.12602693401
  21
 1026.9376845684
  31
0.0
  70
0
   3
GMM002
 100
AcDbAlignedDimension
  13
 119.62602693401
  23
 1002.8666666667
  33
0.0
  14
 114.62602693401
  24
 1008.8666666667
  34
0.0
  50
 180.00000000000
 100
AcDbRotatedDimension
   0
DIMENSION
   5
435
 100
AcDbEntity
   8
LEVEL001
 370
15
   6
CONTINUOUS
  62
8
 100
AcDbDimension
   2
*D36
  10
 107.62602693401
  20
 1026.9376845684
  30
0.0
  11
 99.922816224032
  21
 1026.9376845684
  31
0.0
  70
128
   3
GMM007
 100
AcDbAlignedDimension
  13
 114.62602693401
  23
 1008.8666666667
  33
0.0
  14
 107.62602693401
  24
 1008.8666666667
  34
0.0
  50
 180.00000000000
 100
AcDbRotatedDimension
   0
LINE
   5
436
 100
AcDbEntity
   8
LEVEL002
 370
15
 100
AcDbLine
   6
HIDDEN
  62
2
  10
 394.86510863858
  20
 984.86666666667
  30
0.0
  11
 429.86510863858
  21
 984.86666666667
  31
0.0
   0
LINE
   5
437
 100
AcDbEntity
   8
LEVEL002
 370
15
 100
AcDbLine
   6
HIDDEN
  62
2
  10
 394.86510863858
  20
 968.86666666667
  30
0.0
  11
 429.86510863858
  21
 968.86666666667
  31
0.0
   0
LINE
   5
438
 100
AcDbEntity
   8
LEVEL002
 370
15
 100
AcDbLine
   6
HIDDEN
  62
2
  10
 394.86510863858
  20
 938.86666666667
  30
0.0
  11
 429.86510863858
  21
 938.86666666667
  31
0.0
   0
DIMENSION
   5
439
 100
AcDbEntity
   8
LEVEL001
 370
15
   6
CONTINUOUS
  62
8
 100
AcDbDimension
   2
*D37
  10
 474.61572592253
  20
 1003.8666666667
  30
0.0
  11
 474.61572592253
  21
 956.36666666667
  31
0.0
  70
0
   1
\A1;94
   3
GMM001
 100
AcDbAlignedDimension
  13
 414.86510863858
  23
 908.86666666667
  33
0.0
  14
 414.86510863858
  24
 1003.8666666667
  34
0.0
  50
 90.000000000000
 100
AcDbRotatedDimension
   0
DIMENSION
   5
43A
 100
AcDbEntity
   8
LEVEL001
 370
15
   6
CONTINUOUS
  62
8
 100
AcDbDimension
   2
*D38
  10
 409.86510863858
  20
 1026.9376845684
  30
0.0
  11
 388.08574573658
  21
 1026.9376845684
  31
0.0
  70
128
   3
GMM008
 100
AcDbAlignedDimension
  13
 394.86510863858
  23
 990.86666666667
  33
0.0
  14
 409.86510863858
  24
 1003.8666666667
  34
0.0
 100
AcDbRotatedDimension
   0
DIMENSION
   5
43B
 100
AcDbEntity
   8
LEVEL001
 370
15
   6
CONTINUOUS
  62
8
 100
AcDbDimension
   2
*D39
  10
 414.86510863858
  20
 1026.9376845684
  30
0.0
  11
 412.36510863858
  21
 1026.9376845684
  31
0.0
  70
0
   3
GMM009
 100
AcDbAlignedDimension
  13
 409.86510863858
  23
 1003.8666666667
  33
0.0
  14
 414.86510863858
  24
 1003.8666666667
  34
0.0
 100
AcDbRotatedDimension
   0
DIMENSION
   5
43C
 100
AcDbEntity
   8
LEVEL001
 370
15
   6
CONTINUOUS
  62
8
 100
AcDbDimension
   2
*D40
  10
 429.86510863858
  20
 1026.9376845684
  30
0.0
  11
 436.75735067485
  21
 1026.9376845684
  31
0.0
  70
128
   3
GMM010
 100
AcDbAlignedDimension
  13
 414.86510863858
  23
 1003.8666666667
  33
0.0
  14
 429.86510863858
  24
 990.86666666667
  34
0.0
 100
AcDbRotatedDimension
   0
LINE
   5
43D
 100
AcDbEntity
   8
LEVEL002
 370
30
 100
AcDbLine
   6
CONTINUOUS
  62
7
  10
 414.86510863858
  20
 908.86666666667
  30
0.0
  11
 414.86510863858
  21
 1003.8666666667
  31
0.0
   0
LINE
   5
43E
 100
AcDbEntity
   8
LEVEL002
 370
30
 100
AcDbLine
   6
CONTINUOUS
  62
7
  10
 414.86510863858
  20
 1003.8666666667
  30
0.0
  11
 409.86510863858
  21
 1003.8666666667
  31
0.0
   0
LINE
   5
43F
 100
AcDbEntity
   8
LEVEL002
 370
30
 100
AcDbLine
   6
CONTINUOUS
  62
7
  10
 414.86510863858
  20
 994.86666666667
  30
0.0
  11
 398.86510863858
  21
 994.86666666667
  31
0.0
   0
LINE
   5
440
 100
AcDbEntity
   8
LEVEL002
 370
30
 100
AcDbLine
   6
CONTINUOUS
  62
7
  10
 398.86510863858
  20
 994.86666666667
  30
0.0
  11
 394.86510863858
  21
 990.86666666667
  31
0.0
   0
LINE
   5
441
 100
AcDbEntity
   8
LEVEL002
 370
30
 100
AcDbLine
   6
CONTINUOUS
  62
7
  10
 398.86510863858
  20
 994.86666666667
  30
0.0
  11
 398.86510863858
  21
 928.86666666667
  31
0.0
   0
LINE
   5
442
 100
AcDbEntity
   8
LEVEL002
 370
30
 100
AcDbLine
   6
CONTINUOUS
  62
7
  10
 398.86510863858
  20
 928.86666666667
  30
0.0
  11
 414.86510863858
  21
 928.86666666667
  31
0.0
   0
LINE
   5
443
 100
AcDbEntity
   8
LEVEL002
 370
30
 100
AcDbLine
   6
CONTINUOUS
  62
7
  10
 394.86510863858
  20
 932.86666666667
  30
0.0
  11
 398.86510863858
  21
 928.86666666667
  31
0.0
   0
LINE
   5
444
 100
AcDbEntity
   8
LEVEL002
 370
30
 100
AcDbLine
   6
CONTINUOUS
  62
7
  10
 394.86510863858
  20
 990.86666666667
  30
0.0
  11
 394.86510863858
  21
 932.86666666667
  31
0.0
   0
LINE
   5
445
 100
AcDbEntity
   8
LEVEL002
 370
30
 100
AcDbLine
   6
CONTINUOUS
  62
7
  10
 429.86510863858
  20
 990.86666666667
  30
0.0
  11
 425.86510863858
  21
 994.86666666667
  31
0.0
   0
LINE
   5
446
 100
AcDbEntity
   8
LEVEL002
 370
30
 100
AcDbLine
   6
CONTINUOUS
  62
7
  10
 425.86510863858
  20
 994.86666666667
  30
0.0
  11
 425.86510863858
  21
 928.86666666667
  31
0.0
   0
LINE
   5
447
 100
AcDbEntity
   8
LEVEL002
 370
30
 100
AcDbLine
   6
CONTINUOUS
  62
7
  10
 429.86510863858
  20
 932.86666666667
  30
0.0
  11
 429.86510863858
  21
 990.86666666667
  31
0.0
   0
LINE
   5
448
 100
AcDbEntity
   8
LEVEL002
 370
30
 100
AcDbLine
   6
CONTINUOUS
  62
7
  10
 425.86510863858
  20
 928.86666666667
  30
0.0
  11
 429.86510863858
  21
 932.86666666667
  31
0.0
   0
LINE
   5
449
 100
AcDbEntity
   8
LEVEL002
 370
30
 100
AcDbLine
   6
CONTINUOUS
  62
7
  10
 425.86510863858
  20
 994.86666666667
  30
0.0
  11
 409.86510863858
  21
 994.86666666667
  31
0.0
   0
LINE
   5
44A
 100
AcDbEntity
   8
LEVEL002
 370
30
 100
AcDbLine
   6
CONTINUOUS
  62
7
  10
 409.86510863858
  20
 928.86666666667
  30
0.0
  11
 425.86510863858
  21
 928.86666666667
  31
0.0
   0
LINE
   5
44B
 100
AcDbEntity
   8
LEVEL002
 370
30
 100
AcDbLine
   6
CONTINUOUS
  62
7
  10
 414.86510863858
  20
 908.86666666667
  30
0.0
  11
 409.86510863858
  21
 908.86666666667
  31
0.0
   0
LINE
   5
44C
 100
AcDbEntity
   8
LEVEL002
 370
30
 100
AcDbLine
   6
CONTINUOUS
  62
7
  10
 409.86510863858
  20
 1003.8666666667
  30
0.0
  11
 409.86510863858
  21
 908.86666666667
  31
0.0
   0
MTEXT
   5
44E
 100
AcDbEntity
   8
LEVEL001
 370
20
  62
6
 100
AcDbMText
  10
 450.22676666411
  20
 1074.6222222222
  30
0.0
  40
 12.000000000000
  41
0.0
  71
5
  72
1
   1
\T1.000000;直線ジョイント（ＷＧＪ１Ｂ）
   7
GMM002
  44
 0.79999984000003
   0
LINE
   5
44F
 100
AcDbEntity
   8
LEVEL001
 370
20
 100
AcDbLine
   6
CONTINUOUS
  62
6
  10
 357.93424444105
  20
 1064.8444444444
  30
0.0
  11
 531.32683703364
  21
 1064.8444444444
  31
0.0
   0
MTEXT
   5
451
 100
AcDbEntity
   8
LEVEL001
 370
20
  62
6
 100
AcDbMText
  10
 365.88437983284
  20
 1054.0888888889
  30
0.0
  40
 12.000000000000
  41
0.0
  71
4
  72
1
   1
\T1.000000;色：黒
   7
GMM002
  44
 0.79999984000003
   0
DIMENSION
   5
452
 100
AcDbEntity
   8
LEVEL001
 370
15
   6
CONTINUOUS
  62
8
 100
AcDbDimension
   2
*D41
  10
 616.03477354158
  20
 1026.9376845684
  30
0.0
  11
 571.03477354158
  21
 1026.9376845684
  31
0.0
  70
0
   3
GMM001
 100
AcDbAlignedDimension
  13
 526.03477354158
  23
 968.86666666667
  33
0.0
  14
 616.03477354158
  24
 968.86666666667
  34
0.0
 100
AcDbRotatedDimension
   0
DIMENSION
   5
453
 100
AcDbEntity
   8
LEVEL001
 370
15
   6
CONTINUOUS
  62
8
 100
AcDbDimension
   2
*D42
  10
 506.03477354158
  20
 1003.8666666667
  30
0.0
  11
 506.03477354158
  21
 956.36666666667
  31
0.0
  70
0
   1
\A1;94
   3
GMM001
 100
AcDbAlignedDimension
  13
 526.03477354158
  23
 908.86666666667
  33
0.0
  14
 569.03477354158
  24
 1003.8666666667
  34
0.0
  50
 90.000000000000
 100
AcDbRotatedDimension
   0
LINE
   5
454
 100
AcDbEntity
   8
LEVEL002
 370
15
 100
AcDbLine
   6
DASHDOT
  62
8
  10
 571.03477354158
  20
 1011.1942386831
  30
0.0
  11
 571.03477354158
  21
 900.05025813711
  31
0.0
   0
LINE
   5
455
 100
AcDbEntity
   8
LEVEL002
 370
15
 100
AcDbLine
   6
DASHDOT
  62
8
  10
 762.50525569941
  20
 981.56443466972
  30
0.0
  11
 795.23520659958
  21
 981.56443466972
  31
0.0
   0
LINE
   5
456
 100
AcDbEntity
   8
LEVEL002
 370
15
 100
AcDbLine
   6
DASHDOT
  62
8
  10
 690.83173362906
  20
 953.43075256883
  30
0.0
  11
 690.83173362906
  21
 1009.6981167706
  31
0.0
   0
LINE
   5
457
 100
AcDbEntity
   8
LEVEL002
 370
15
 100
AcDbLine
   6
DASHDOT
  62
8
  10
 661.14647127397
  20
 981.56443466972
  30
0.0
  11
 720.51699598415
  21
 981.56443466972
  31
0.0
   0
ARC
   5
458
 100
AcDbEntity
   8
LEVEL002
 370
30
   6
CONTINUOUS
  62
7
 100
AcDbCircle
  10
 591.03477354158
  20
 968.86666666667
  30
0.0
  40
 25.000000000000
 100
AcDbArc
  50
0.0
  51
 36.869897645844
   0
ARC
   5
459
 100
AcDbEntity
   8
LEVEL002
 370
30
   6
CONTINUOUS
  62
7
 100
AcDbCircle
  10
 571.03477354158
  20
 953.86666666667
  30
0.0
  40
 50.000000000000
 100
AcDbArc
  50
 36.869897645844
  51
 143.13010235416
   0
ARC
   5
45A
 100
AcDbEntity
   8
LEVEL002
 370
30
   6
CONTINUOUS
  62
7
 100
AcDbCircle
  10
 551.03477354158
  20
 968.86666666667
  30
0.0
  40
 25.000000000000
 100
AcDbArc
  50
 143.13010235416
  51
 180.00000000000
   0
ARC
   5
45B
 100
AcDbEntity
   8
LEVEL002
 370
30
   6
CONTINUOUS
  62
7
 100
AcDbCircle
  10
 591.03477354158
  20
 968.86666666667
  30
0.0
  40
 16.000000000000
 100
AcDbArc
  50
0.0
  51
 36.869897645844
   0
ARC
   5
45C
 100
AcDbEntity
   8
LEVEL002
 370
30
   6
CONTINUOUS
  62
7
 100
AcDbCircle
  10
 571.03477354158
  20
 953.86666666667
  30
0.0
  40
 41.000000000000
 100
AcDbArc
  50
 36.869897645844
  51
 143.13010235416
   0
ARC
   5
45D
 100
AcDbEntity
   8
LEVEL002
 370
30
   6
CONTINUOUS
  62
7
 100
AcDbCircle
  10
 551.03477354158
  20
 968.86666666667
  30
0.0
  40
 16.000000000000
 100
AcDbArc
  50
 143.13010235416
  51
 180.00000000000
   0
LINE
   5
45E
 100
AcDbEntity
   8
LEVEL002
 370
30
 100
AcDbLine
   6
CONTINUOUS
  62
7
  10
 535.03477354158
  20
 968.86666666667
  30
0.0
  11
 535.03477354158
  21
 928.86666666667
  31
0.0
   0
LINE
   5
45F
 100
AcDbEntity
   8
LEVEL002
 370
30
 100
AcDbLine
   6
CONTINUOUS
  62
7
  10
 607.03477354158
  20
 928.86666666667
  30
0.0
  11
 607.03477354158
  21
 968.86666666667
  31
0.0
   0
LINE
   5
460
 100
AcDbEntity
   8
LEVEL002
 370
30
 100
AcDbLine
   6
CONTINUOUS
  62
7
  10
 526.03477354158
  20
 968.86666666667
  30
0.0
  11
 526.03477354158
  21
 908.86666666667
  31
0.0
   0
LINE
   5
461
 100
AcDbEntity
   8
LEVEL002
 370
30
 100
AcDbLine
   6
CONTINUOUS
  62
7
  10
 616.03477354158
  20
 908.86666666667
  30
0.0
  11
 616.03477354158
  21
 968.86666666667
  31
0.0
   0
ARC
   5
462
 100
AcDbEntity
   8
LEVEL002
 370
30
   6
CONTINUOUS
  62
7
 100
AcDbCircle
  10
 591.03477354158
  20
 968.86666666667
  30
0.0
  40
 6.0000000000000
 100
AcDbArc
  50
0.0
  51
 36.869897645824
   0
ARC
   5
463
 100
AcDbEntity
   8
LEVEL002
 370
30
   6
CONTINUOUS
  62
7
 100
AcDbCircle
  10
 571.03477354158
  20
 953.86666666667
  30
0.0
  40
 31.000000000000
 100
AcDbArc
  50
 36.869897645844
  51
 143.13010235416
   0
ARC
   5
464
 100
AcDbEntity
   8
LEVEL002
 370
30
   6
CONTINUOUS
  62
7
 100
AcDbCircle
  10
 551.03477354158
  20
 968.86666666667
  30
0.0
  40
 6.0000000000000
 100
AcDbArc
  50
 143.13010235416
  51
 180.00000000000
   0
ARC
   5
465
 100
AcDbEntity
   8
LEVEL002
 370
30
   6
CONTINUOUS
  62
7
 100
AcDbCircle
  10
 591.03477354158
  20
 968.86666666667
  30
0.0
  40
 12.000000000000
 100
AcDbArc
  50
0.0
  51
 36.869897645842
   0
ARC
   5
466
 100
AcDbEntity
   8
LEVEL002
 370
30
   6
CONTINUOUS
  62
7
 100
AcDbCircle
  10
 571.03477354158
  20
 953.86666666667
  30
0.0
  40
 37.000000000000
 100
AcDbArc
  50
 36.869897645844
  51
 143.13010235416
   0
ARC
   5
467
 100
AcDbEntity
   8
LEVEL002
 370
30
   6
CONTINUOUS
  62
7
 100
AcDbCircle
  10
 551.03477354158
  20
 968.86666666667
  30
0.0
  40
 12.000000000000
 100
AcDbArc
  50
 143.13010235416
  51
 180.00000000000
   0
LINE
   5
468
 100
AcDbEntity
   8
LEVEL002
 370
30
 100
AcDbLine
   6
CONTINUOUS
  62
7
  10
 526.03477354158
  20
 908.86666666667
  30
0.0
  11
 616.03477354158
  21
 908.86666666667
  31
0.0
   0
LINE
   5
469
 100
AcDbEntity
   8
LEVEL002
 370
30
 100
AcDbLine
   6
CONTINUOUS
  62
7
  10
 535.03477354158
  20
 928.86666666667
  30
0.0
  11
 545.03477354158
  21
 928.86666666667
  31
0.0
   0
LINE
   5
46A
 100
AcDbEntity
   8
LEVEL002
 370
30
 100
AcDbLine
   6
CONTINUOUS
  62
7
  10
 597.03477354158
  20
 928.86666666667
  30
0.0
  11
 607.03477354158
  21
 928.86666666667
  31
0.0
   0
LINE
   5
46B
 100
AcDbEntity
   8
LEVEL002
 370
30
 100
AcDbLine
   6
CONTINUOUS
  62
7
  10
 545.03477354158
  20
 968.86666666667
  30
0.0
  11
 545.03477354158
  21
 938.86666666667
  31
0.0
   0
LINE
   5
46C
 100
AcDbEntity
   8
LEVEL002
 370
30
 100
AcDbLine
   6
CONTINUOUS
  62
7
  10
 597.03477354158
  20
 938.86666666667
  30
0.0
  11
 597.03477354158
  21
 968.86666666667
  31
0.0
   0
LINE
   5
46D
 100
AcDbEntity
   8
LEVEL002
 370
30
 100
AcDbLine
   6
CONTINUOUS
  62
7
  10
 603.03477354158
  20
 932.86666666667
  30
0.0
  11
 603.03477354158
  21
 968.86666666667
  31
0.0
   0
LINE
   5
46E
 100
AcDbEntity
   8
LEVEL002
 370
30
 100
AcDbLine
   6
CONTINUOUS
  62
7
  10
 539.03477354158
  20
 968.86666666667
  30
0.0
  11
 539.03477354158
  21
 932.86666666667
  31
0.0
   0
LINE
   5
46F
 100
AcDbEntity
   8
LEVEL002
 370
30
 100
AcDbLine
   6
CONTINUOUS
  62
7
  10
 545.03477354158
  20
 938.86666666667
  30
0.0
  11
 597.03477354158
  21
 938.86666666667
  31
0.0
   0
LINE
   5
470
 100
AcDbEntity
   8
LEVEL002
 370
30
 100
AcDbLine
   6
CONTINUOUS
  62
7
  10
 545.03477354158
  20
 928.86666666667
  30
0.0
  11
 597.03477354158
  21
 928.86666666667
  31
0.0
   0
LINE
   5
471
 100
AcDbEntity
   8
LEVEL002
 370
30
 100
AcDbLine
   6
CONTINUOUS
  62
7
  10
 539.03477354158
  20
 932.86666666667
  30
0.0
  11
 603.03477354158
  21
 932.86666666667
  31
0.0
   0
LINE
   5
472
 100
AcDbEntity
   8
LEVEL001
 370
40
 100
AcDbLine
   6
CONTINUOUS
  62
3
  10
 350.99999999980
  20
 1100.0000000000
  30
0.0
  11
 350.99999999980
  21
 850.00000000000
  31
0.0
   0
LINE
   5
473
 100
AcDbEntity
   8
LEVEL001
 370
40
 100
AcDbLine
   6
CONTINUOUS
  62
3
  10
 639.99999999980
  20
 1100.0000000000
  30
0.0
  11
 639.99999999980
  21
 850.00000000000
  31
0.0
   0
ENDSEC
  0
SECTION
  2
OBJECTS
  0
DICTIONARY
  5
C
100
AcDbDictionary
  3
ACAD_GROUP
350
D
  3
ACAD_MLINESTYLE
350
1B
  3
DWGPROPS
350
1C
  0
DICTIONARY
  5
D
102
{ACAD_REACTORS
330
C
102
}
100
AcDbDictionary
  0
DICTIONARY
  5
1B
102
{ACAD_REACTORS
330
C
102
}
100
AcDbDictionary
  3
STANDARD
350
1D
  0
MLINESTYLE
  5
1D
102
{ACAD_REACTORS
330
1B
102
}
100
AcDbMlineStyle
  2
STANDARD
 70
     0
  3

 62
   256
 51
90.0
 52
90.0
 71
     2
 49
0.5
 62
   256
  6
BYLAYER
 49
-0.5
 62
   256
  6
BYLAYER
   0
XRECORD
   5
1C
 102
{ACAD_REACTORS
 330
C
 102
}
 330
C
 100
AcDbXrecord
 280
1
   1
DWGPROPS COOKIE
   2
 
   3
 
   4
ﾊﾙﾅ
   6
 
   7
7-WG100M/M用部材各種
   8
ﾊﾙﾅ
   9

 300
 = 
 301
 = 
 302
 = 
 303
 = 
 304
 = 
 305
 = 
 306
 = 
 307
 = 
 308
 = 
 309
 = 
  40
0.0
  41
 2460423.5000000
  42
 2460424.5000000
   1

  90
10
   0
ENDSEC
   0
EOF
