   0
SECTION
   2
HEADER
   9
$ACADVER
   1
AC1015
   9
$DWGCODEPAGE
   3
ANSI_932
   9
$LIMMIN
  10
0.0
  20
0.0
   9
$LIMMAX
  10
 1680.0000000000
  20
 1188.0000000000
   9
$EXTMIN
  10
0.0
  20
0.0
  30
0.0
   9
$EXTMAX
  10
 1680.0000000000
  20
 1188.0000000000
  30
0.0
   9
$LTSCALE
  40
 33.600000000000
   9
$HANDSEED
   5
663
   0
ENDSEC
   0
SECTION
   2
TABLES
  0
TABLE
  2
VPORT
  5
8
100
AcDbSymbolTable
 70
     1
  0
VPORT
  5
662
100
AcDbSymbolTableRecord
100
AcDbViewportTableRecord
  2
*ACTIVE
 70
     0
 10
0.0
 20
0.0
 11
1.0
 21
1.0
  12
 840.00000000000
  22
 594.00000000000
 13
0.0
 23
0.0
 14
1.0
 24
1.0
 15
0.0
 25
0.0
 16
0.0
 26
0.0
 36
1.0
 17
0.0
 27
0.0
 37
0.0
  40
 1680.0000000000
  41
 1.4787878787879
 42
50.0
 43
0.0
 44
0.0
 50
0.0
 51
0.0
 71
     0
 72
   100
 73
     1
 74
     1
 75
     0
 76
     0
 77
     0
 78
     0
  0
ENDTAB
  0
TABLE
  2
LTYPE
  5
5
100
AcDbSymbolTable
 70
    25
  0
LTYPE
  5
12
100
AcDbSymbolTableRecord
100
AcDbLinetypeTableRecord
  2
BYBLOCK
 70
     0
  3

 72
    65
 73
     0
 40
0.0
  0
LTYPE
  5
13
100
AcDbSymbolTableRecord
100
AcDbLinetypeTableRecord
  2
BYLAYER
 70
     0
  3

 72
    65
 73
     0
 40
0.0
  0
LTYPE
  5
14
100
AcDbSymbolTableRecord
100
AcDbLinetypeTableRecord
  2
CONTINUOUS
 70
     0
  3
Solid line
 72
    65
 73
     0
 40
0.0
  0
LTYPE
  5
20
100
AcDbSymbolTableRecord
100
AcDbLinetypeTableRecord
  2
BORDER
 70
     0
  3
__ __ . __ __ . __ __ . __ __ . __ __ . __ __ .
 72
    65
 73
     6
 40
1.75
 49
0.5
 74
     0
 49
-0.25
 74
     0
 49
0.5
 74
     0
 49
-0.25
 74
     0
 49
0.0
 74
     0
 49
-0.25
 74
     0
  0
LTYPE
  5
21
100
AcDbSymbolTableRecord
100
AcDbLinetypeTableRecord
  2
BORDER2
 70
     0
  3
__.__.__.__.__.__.__.__.__.__.__.__.__.__.__.__
 72
    65
 73
     6
 40
0.875
 49
0.25
 74
     0
 49
-0.125
 74
     0
 49
0.25
 74
     0
 49
-0.125
 74
     0
 49
0.0
 74
     0
 49
-0.125
 74
     0
  0
LTYPE
  5
22
100
AcDbSymbolTableRecord
100
AcDbLinetypeTableRecord
  2
BORDERX2
 70
     0
  3
____  ____  .  ____  ____  .  ____  ____  .  __
 72
    65
 73
     6
 40
3.5
 49
1.0
 74
     0
 49
-0.5
 74
     0
 49
1.0
 74
     0
 49
-0.5
 74
     0
 49
0.0
 74
     0
 49
-0.5
 74
     0
  0
LTYPE
  5
23
100
AcDbSymbolTableRecord
100
AcDbLinetypeTableRecord
  2
CENTER
 70
     0
  3
____ _ ____ _ ____ _ ____ _ ____ _ ____ _ ____ 
 72
    65
 73
     4
 40
2.0
 49
1.25
 74
     0
 49
-0.25
 74
     0
 49
0.25
 74
     0
 49
-0.25
 74
     0
  0
LTYPE
  5
24
100
AcDbSymbolTableRecord
100
AcDbLinetypeTableRecord
  2
CENTER2
 70
     0
  3
___ _ ___ _ ___ _ ___ _ ___ _ ___ _ ___ _ ___ _
 72
    65
 73
     4
 40
1.125
 49
0.75
 74
     0
 49
-0.125
 74
     0
 49
0.125
 74
     0
 49
-0.125
 74
     0
  0
LTYPE
  5
25
100
AcDbSymbolTableRecord
100
AcDbLinetypeTableRecord
  2
CENTERX2
 70
     0
  3
________  __  ________  __  ________  __  _____
 72
    65
 73
     4
 40
4.0
 49
2.5
 74
     0
 49
-0.5
 74
     0
 49
0.5
 74
     0
 49
-0.5
 74
     0
  0
LTYPE
  5
26
100
AcDbSymbolTableRecord
100
AcDbLinetypeTableRecord
  2
DASHDOT
 70
     0
  3
__ . __ . __ . __ . __ . __ . __ . __ . __ . __
 72
    65
 73
     4
 40
1.0
 49
0.5
 74
     0
 49
-0.25
 74
     0
 49
0.0
 74
     0
 49
-0.25
 74
     0
  0
LTYPE
  5
27
100
AcDbSymbolTableRecord
100
AcDbLinetypeTableRecord
  2
DASHDOT2
 70
     0
  3
_._._._._._._._._._._._._._._._._._._._._._._._
 72
    65
 73
     4
 40
0.5
 49
0.25
 74
     0
 49
-0.125
 74
     0
 49
0.0
 74
     0
 49
-0.125
 74
     0
  0
LTYPE
  5
28
100
AcDbSymbolTableRecord
100
AcDbLinetypeTableRecord
  2
DASHDOTX2
 70
     0
  3
____  .  ____  .  ____  .  ____  .  ____  .  __
 72
    65
 73
     4
 40
2.0
 49
1.0
 74
     0
 49
-0.5
 74
     0
 49
0.0
 74
     0
 49
-0.5
 74
     0
  0
LTYPE
  5
29
100
AcDbSymbolTableRecord
100
AcDbLinetypeTableRecord
  2
DASHED
 70
     0
  3
__ __ __ __ __ __ __ __ __ __ __ __ __ __ __ __
 72
    65
 73
     2
 40
0.75
 49
0.5
 74
     0
 49
-0.25
 74
     0
  0
LTYPE
  5
2A
100
AcDbSymbolTableRecord
100
AcDbLinetypeTableRecord
  2
DASHED2
 70
     0
  3
_ _ _ _ _ _ _ _ _ _ _ _ _ _ _ _ _ _ _ _ _ _ _ _
 72
    65
 73
     2
 40
0.375
 49
0.25
 74
     0
 49
-0.125
 74
     0
  0
LTYPE
  5
2B
100
AcDbSymbolTableRecord
100
AcDbLinetypeTableRecord
  2
DASHEDX2
 70
     0
  3
____  ____  ____  ____  ____  ____  ____  ____ 
 72
    65
 73
     2
 40
1.5
 49
1.0
 74
     0
 49
-0.5
 74
     0
  0
LTYPE
  5
2C
100
AcDbSymbolTableRecord
100
AcDbLinetypeTableRecord
  2
DIVIDE
 70
     0
  3
____ . . ____ . . ____ . . ____ . . ____ . . __
 72
    65
 73
     6
 40
1.25
 49
0.5
 74
     0
 49
-0.25
 74
     0
 49
0.0
 74
     0
 49
-0.25
 74
     0
 49
0.0
 74
     0
 49
-0.25
 74
     0
  0
LTYPE
  5
2D
100
AcDbSymbolTableRecord
100
AcDbLinetypeTableRecord
  2
DIVIDE2
 70
     0
  3
__..__..__..__..__..__..__..__..__..__..__..__.
 72
    65
 73
     6
 40
0.625
 49
0.25
 74
     0
 49
-0.125
 74
     0
 49
0.0
 74
     0
 49
-0.125
 74
     0
 49
0.0
 74
     0
 49
-0.125
 74
     0
  0
LTYPE
  5
2E
100
AcDbSymbolTableRecord
100
AcDbLinetypeTableRecord
  2
DIVIDEX2
 70
     0
  3
________  .  .  ________  .  .  ________  .  . 
 72
    65
 73
     6
 40
2.5
 49
1.0
 74
     0
 49
-0.5
 74
     0
 49
0.0
 74
     0
 49
-0.5
 74
     0
 49
0.0
 74
     0
 49
-0.5
 74
     0
  0
LTYPE
  5
2F
100
AcDbSymbolTableRecord
100
AcDbLinetypeTableRecord
  2
DOT
 70
     0
  3
. . . . . . . . . . . . . . . . . . . . . . . .
 72
    65
 73
     2
 40
0.25
 49
0.0
 74
     0
 49
-0.25
 74
     0
  0
LTYPE
  5
30
100
AcDbSymbolTableRecord
100
AcDbLinetypeTableRecord
  2
DOT2
 70
     0
  3
...............................................
 72
    65
 73
     2
 40
0.125
 49
0.0
 74
     0
 49
-0.125
 74
     0
  0
LTYPE
  5
31
100
AcDbSymbolTableRecord
100
AcDbLinetypeTableRecord
  2
DOTX2
 70
     0
  3
.  .  .  .  .  .  .  .  .  .  .  .  .  .  .  . 
 72
    65
 73
     2
 40
0.5
 49
0.0
 74
     0
 49
-0.5
 74
     0
  0
LTYPE
  5
32
100
AcDbSymbolTableRecord
100
AcDbLinetypeTableRecord
  2
HIDDEN
 70
     0
  3
__ __ __ __ __ __ __ __ __ __ __ __ __ __ __ __
 72
    65
 73
     2
 40
0.375
 49
0.25
 74
     0
 49
-0.125
 74
     0
  0
LTYPE
  5
33
100
AcDbSymbolTableRecord
100
AcDbLinetypeTableRecord
  2
HIDDEN2
 70
     0
  3
_ _ _ _ _ _ _ _ _ _ _ _ _ _ _ _ _ _ _ _ _ _ _ _
 72
    65
 73
     2
 40
0.1875
 49
0.125
 74
     0
 49
-0.0625
 74
     0
  0
LTYPE
  5
34
100
AcDbSymbolTableRecord
100
AcDbLinetypeTableRecord
  2
HIDDENX2
 70
     0
  3
____ ____ ____ ____ ____ ____ ____ ____ ____ __
 72
    65
 73
     2
 40
0.75
 49
0.5
 74
     0
 49
-0.25
 74
     0
  0
LTYPE
  5
35
100
AcDbSymbolTableRecord
100
AcDbLinetypeTableRecord
  2
PHANTOM
 70
     0
  3
______  __  __  ______  __  __  ______  __  __ 
 72
    65
 73
     6
 40
2.5
 49
1.25
 74
     0
 49
-0.25
 74
     0
 49
0.25
 74
     0
 49
-0.25
 74
     0
 49
0.25
 74
     0
 49
-0.25
 74
     0
  0
LTYPE
  5
36
100
AcDbSymbolTableRecord
100
AcDbLinetypeTableRecord
  2
PHANTOM2
 70
     0
  3
___ _ _ ___ _ _ ___ _ _ ___ _ _ ___ _ _ ___ _ _
 72
    65
 73
     6
 40
1.25
 49
0.625
 74
     0
 49
-0.125
 74
     0
 49
0.125
 74
     0
 49
-0.125
 74
     0
 49
0.125
 74
     0
 49
-0.125
 74
     0
  0
LTYPE
  5
37
100
AcDbSymbolTableRecord
100
AcDbLinetypeTableRecord
  2
PHANTOMX2
 70
     0
  3
____________    ____    ____    ____________   
 72
    65
 73
     6
 40
5.0
 49
2.5
 74
     0
 49
-0.5
 74
     0
 49
0.5
 74
     0
 49
-0.5
 74
     0
 49
0.5
 74
     0
 49
-0.5
 74
     0
  0
ENDTAB
   0
TABLE
   2
LAYER
   5
2
 100
AcDbSymbolTable
  70
6
   0
LAYER
   5
E
 100
AcDbSymbolTableRecord
 100
AcDbLayerTableRecord
   2
0
  70
0
  62
7
   6
CONTINUOUS
 390
30
   0
LAYER
   5
39
 100
AcDbSymbolTableRecord
 100
AcDbLayerTableRecord
   2
LEVEL001
  70
0
  62
7
   6
CONTINUOUS
 390
30
   0
LAYER
   5
3A
 100
AcDbSymbolTableRecord
 100
AcDbLayerTableRecord
   2
LEVEL002
  70
0
  62
7
   6
CONTINUOUS
 390
30
   0
LAYER
   5
3B
 100
AcDbSymbolTableRecord
 100
AcDbLayerTableRecord
   2
LEVEL004
  70
0
  62
7
   6
CONTINUOUS
 390
30
   0
LAYER
   5
3C
 100
AcDbSymbolTableRecord
 100
AcDbLayerTableRecord
   2
LEVEL006
  70
0
  62
7
   6
CONTINUOUS
 390
30
   0
LAYER
   5
3D
 100
AcDbSymbolTableRecord
 100
AcDbLayerTableRecord
   2
LEVEL007
  70
0
  62
7
   6
CONTINUOUS
 390
30
   0
ENDTAB
  0
TABLE
  2
STYLE
  5
3
100
AcDbSymbolTable
  70
4
  0
STYLE
  5
F
100
AcDbSymbolTableRecord
100
AcDbTextStyleTableRecord
  2
STANDARD
 70
     0
 40
0.0
 41
1.0
 50
0.0
 71
     0
 42
0.2
  3
TXT
  4
BIGFONT
  0
STYLE
  5
38
100
AcDbSymbolTableRecord
100
AcDbTextStyleTableRecord
  2
STANDARD1
 70
     4
 40
0.0
 41
1.0
 50
0.0
 71
     0
 42
0.2
  3
TXT
  4
BIGFONT
   0
STYLE
   5
3E
 100
AcDbSymbolTableRecord
 100
AcDbTextStyleTableRecord
   2
GMM001
  70
0
  40
0.0
  41
 1.0000000000000
  50
0.0
  71
     0
  42
1.0
   3
txt.shx
   4
bigfont.shx
   0
STYLE
   5
3F
 100
AcDbSymbolTableRecord
 100
AcDbTextStyleTableRecord
   2
GMM002
  70
0
  40
0.0
  41
 0.80000000000000
  50
0.0
  71
     0
  42
1.0
   3
txt.shx
   4
bigfont.shx
   0
ENDTAB
  0
TABLE
  2
VIEW
  5
6
100
AcDbSymbolTable
 70
     0
  0
ENDTAB
  0
TABLE
  2
UCS
  5
7
100
AcDbSymbolTable
 70
     0
  0
ENDTAB
  0
TABLE
  2
APPID
  5
9
100
AcDbSymbolTable
 70
     1
  0
APPID
  5
10
100
AcDbSymbolTableRecord
100
AcDbRegAppTableRecord
  2
ACAD
 70
     0
  0
ENDTAB
   0
TABLE
   2
DIMSTYLE
   5
A
 100
AcDbSymbolTable
  70
10
 100
AcDbDimStyleTable
  0
DIMSTYLE
105
1D
100
AcDbSymbolTableRecord
100
AcDbDimStyleTableRecord
  2
STANDARD
 70
     0
  3

  4

  5

  6

  7

 40
1.0
 41
0.18
 42
0.0625
 43
0.38
 44
0.18
 45
0.0
 46
0.0
 47
0.0
 48
0.0
140
0.18
141
0.09
142
0.0
143
25.4
144
1.0
145
0.0
146
1.0
147
0.09
 71
     0
 72
     0
 73
     1
 74
     1
 75
     0
 76
     0
 77
     0
 78
     0
170
     0
171
     2
172
     0
173
     0
174
     0
175
     0
176
     0
177
     0
178
     0
270
     2
271
     4
272
     4
273
     2
274
     2
340
F
275
     0
280
     0
281
     0
282
     0
283
     1
284
     0
285
     0
286
     0
287
     3
288
     0
   0
DIMSTYLE
 105
40
 100
AcDbSymbolTableRecord
 100
AcDbDimStyleTableRecord
   2
GMM001
  70
0
   3

   4

   5

   6

   7

  40
 1.0000000000000
  41
 8.0000000000000
  42
 4.0000000000000
  43
 32.000000000000
  44
 4.0000000000000
  45
0.0
  46
0.0
  47
0.0
  48
0.0
 140
 10.000000000000
 141
 4.0000000000000
 142
0.0
 143
 0.39400000000000E-1
 144
 1.0000000000000
 145
0.0
 146
 1.0000000000000
 147
 4.0000000000000
  71
0
  72
0
  73
0
  74
0
  75
0
  76
0
  77
3
  78
8
 170
0
 171
2
 172
1
 173
1
 174
0
 175
0
 176
8
 177
8
 178
8
 270
2
 271
6
 272
0
 273
2
 274
2
 340
3E
 275
1
 280
0
 281
0
 282
0
 283
1
 284
0
 285
0
 286
0
 287
3
 288
0
   0
DIMSTYLE
 105
41
 100
AcDbSymbolTableRecord
 100
AcDbDimStyleTableRecord
   2
GMM002
  70
0
   3

   4

   5

   6

   7
_NONE
  40
 1.0000000000000
  41
 8.0000000000000
  42
 4.0000000000000
  43
 32.000000000000
  44
 4.0000000000000
  45
0.0
  46
0.0
  47
0.0
  48
0.0
 140
 10.000000000000
 141
 4.0000000000000
 142
0.0
 143
 0.39400000000000E-1
 144
 1.0000000000000
 145
0.0
 146
 1.0000000000000
 147
 4.0000000000000
  71
0
  72
0
  73
0
  74
0
  75
0
  76
0
  77
3
  78
8
 170
0
 171
2
 172
1
 173
1
 174
0
 175
0
 176
8
 177
8
 178
8
 270
2
 271
6
 272
0
 273
2
 274
2
 340
3E
 275
1
 280
0
 281
0
 282
0
 283
1
 284
0
 285
0
 286
0
 287
3
 288
1
   0
DIMSTYLE
 105
42
 100
AcDbSymbolTableRecord
 100
AcDbDimStyleTableRecord
   2
GMM003
  70
0
   3

   4

   5

   6

   7

  40
 1.0000000000000
  41
 8.0000000000000
  42
 4.0000000000000
  43
 32.000000000000
  44
 4.0000000000000
  45
0.0
  46
0.0
  47
0.0
  48
0.0
 140
 10.000000000000
 141
 4.0000000000000
 142
0.0
 143
 0.39400000000000E-1
 144
 1.0000000000000
 145
0.0
 146
 1.0000000000000
 147
 4.0000000000000
  71
0
  72
0
  73
0
  74
0
  75
0
  76
0
  77
3
  78
8
 170
0
 171
2
 172
1
 173
1
 174
0
 175
0
 176
8
 177
8
 178
8
 270
2
 271
6
 272
0
 273
2
 274
2
 340
3E
 275
1
 280
0
 281
0
 282
0
 283
1
 284
0
 285
0
 286
0
 287
3
 288
0
   0
DIMSTYLE
 105
43
 100
AcDbSymbolTableRecord
 100
AcDbDimStyleTableRecord
   2
GMM004
  70
0
   3

   4

   5

   6

   7

  40
 1.0000000000000
  41
 8.0000000000000
  42
 4.0000000000000
  43
 32.000000000000
  44
 4.0000000000000
  45
0.0
  46
0.0
  47
0.0
  48
0.0
 140
 10.000000000000
 141
 4.0000000000000
 142
0.0
 143
 0.39400000000000E-1
 144
 1.0000000000000
 145
0.0
 146
 1.0000000000000
 147
 3.3266499582188
  71
0
  72
0
  73
0
  74
0
  75
0
  76
0
  77
3
  78
8
 170
0
 171
2
 172
1
 173
1
 174
0
 175
0
 176
8
 177
8
 178
8
 270
2
 271
6
 272
0
 273
2
 274
2
 340
3E
 275
1
 280
0
 281
0
 282
0
 283
1
 284
0
 285
0
 286
0
 287
3
 288
1
   0
DIMSTYLE
 105
44
 100
AcDbSymbolTableRecord
 100
AcDbDimStyleTableRecord
   2
GMM005
  70
0
   3

   4

   5

   6

   7

  40
 1.0000000000000
  41
 8.0000000000000
  42
 4.0000000000000
  43
 32.000000000000
  44
 4.0000000000000
  45
0.0
  46
0.0
  47
0.0
  48
0.0
 140
 10.000000000000
 141
 4.0000000000000
 142
0.0
 143
 0.39400000000000E-1
 144
 1.0000000000000
 145
0.0
 146
 1.0000000000000
 147
 2.5485937064894
  71
0
  72
0
  73
0
  74
0
  75
0
  76
0
  77
3
  78
8
 170
0
 171
2
 172
1
 173
1
 174
0
 175
0
 176
8
 177
8
 178
8
 270
2
 271
6
 272
0
 273
2
 274
2
 340
3E
 275
1
 280
0
 281
0
 282
0
 283
1
 284
0
 285
0
 286
0
 287
3
 288
1
   0
DIMSTYLE
 105
45
 100
AcDbSymbolTableRecord
 100
AcDbDimStyleTableRecord
   2
GMM006
  70
0
   3

   4

   5

   6

   7
_NONE
  40
 1.0000000000000
  41
 8.0000000000000
  42
 4.0000000000000
  43
 32.000000000000
  44
 4.0000000000000
  45
0.0
  46
0.0
  47
0.0
  48
0.0
 140
 10.000000000000
 141
 4.0000000000000
 142
0.0
 143
 0.39400000000000E-1
 144
 1.0000000000000
 145
0.0
 146
 1.0000000000000
 147
 3.2674278288326
  71
0
  72
0
  73
0
  74
0
  75
0
  76
0
  77
3
  78
8
 170
0
 171
2
 172
1
 173
1
 174
0
 175
0
 176
8
 177
8
 178
8
 270
2
 271
6
 272
0
 273
2
 274
2
 340
3E
 275
1
 280
0
 281
0
 282
0
 283
1
 284
0
 285
0
 286
0
 287
3
 288
1
   0
DIMSTYLE
 105
46
 100
AcDbSymbolTableRecord
 100
AcDbDimStyleTableRecord
   2
GMM007
  70
0
   3

   4

   5

   6

   7

  40
 1.0000000000000
  41
 8.0000000000000
  42
 4.0000000000000
  43
 32.000000000000
  44
 4.0000000000000
  45
0.0
  46
0.0
  47
0.0
  48
0.0
 140
 10.000000000000
 141
 4.0000000000000
 142
0.0
 143
 0.39400000000000E-1
 144
 1.0000000000000
 145
0.0
 146
 1.0000000000000
 147
 4.4110275689600
  71
0
  72
0
  73
0
  74
0
  75
0
  76
0
  77
3
  78
8
 170
0
 171
2
 172
1
 173
1
 174
0
 175
0
 176
8
 177
8
 178
8
 270
2
 271
6
 272
0
 273
2
 274
2
 340
3E
 275
1
 280
0
 281
0
 282
0
 283
1
 284
0
 285
0
 286
0
 287
3
 288
1
   0
DIMSTYLE
 105
47
 100
AcDbSymbolTableRecord
 100
AcDbDimStyleTableRecord
   2
GMM008
  70
0
   3

   4

   5

   6

   7

  40
 1.0000000000000
  41
 8.0000000000000
  42
 4.0000000000000
  43
 32.000000000000
  44
 4.0000000000000
  45
0.0
  46
0.0
  47
0.0
  48
0.0
 140
 10.000000000000
 141
 4.0000000000000
 142
0.0
 143
 0.39400000000000E-1
 144
 1.0000000000000
 145
0.0
 146
 1.0000000000000
 147
0.0
  71
0
  72
0
  73
0
  74
0
  75
0
  76
0
  77
1
  78
8
 170
0
 171
2
 172
1
 173
1
 174
0
 175
0
 176
8
 177
8
 178
8
 270
2
 271
6
 272
0
 273
2
 274
2
 340
3E
 275
1
 280
0
 281
0
 282
0
 283
1
 284
0
 285
0
 286
0
 287
3
 288
0
   0
ENDTAB
  0
TABLE
  2
BLOCK_RECORD
  5
1
100
AcDbSymbolTable
 70
     0
  0
BLOCK_RECORD
  5
18
100
AcDbSymbolTableRecord
100
AcDbBlockTableRecord
  2
*MODEL_SPACE
  0
BLOCK_RECORD
  5
15
100
AcDbSymbolTableRecord
100
AcDbBlockTableRecord
  2
*PAPER_SPACE
   0
BLOCK_RECORD
   5
48
 100
AcDbSymbolTableRecord
 100
AcDbBlockTableRecord
   2
*D1
   0
BLOCK_RECORD
   5
49
 100
AcDbSymbolTableRecord
 100
AcDbBlockTableRecord
   2
*D2
   0
BLOCK_RECORD
   5
4A
 100
AcDbSymbolTableRecord
 100
AcDbBlockTableRecord
   2
*D3
   0
BLOCK_RECORD
   5
4B
 100
AcDbSymbolTableRecord
 100
AcDbBlockTableRecord
   2
*D4
   0
BLOCK_RECORD
   5
4C
 100
AcDbSymbolTableRecord
 100
AcDbBlockTableRecord
   2
*D5
   0
BLOCK_RECORD
   5
4D
 100
AcDbSymbolTableRecord
 100
AcDbBlockTableRecord
   2
*D6
   0
BLOCK_RECORD
   5
4E
 100
AcDbSymbolTableRecord
 100
AcDbBlockTableRecord
   2
*D7
   0
BLOCK_RECORD
   5
4F
 100
AcDbSymbolTableRecord
 100
AcDbBlockTableRecord
   2
*D8
   0
BLOCK_RECORD
   5
50
 100
AcDbSymbolTableRecord
 100
AcDbBlockTableRecord
   2
*D9
   0
BLOCK_RECORD
   5
51
 100
AcDbSymbolTableRecord
 100
AcDbBlockTableRecord
   2
*D10
   0
BLOCK_RECORD
   5
52
 100
AcDbSymbolTableRecord
 100
AcDbBlockTableRecord
   2
*D11
   0
BLOCK_RECORD
   5
53
 100
AcDbSymbolTableRecord
 100
AcDbBlockTableRecord
   2
*D12
   0
BLOCK_RECORD
   5
54
 100
AcDbSymbolTableRecord
 100
AcDbBlockTableRecord
   2
*D13
   0
BLOCK_RECORD
   5
55
 100
AcDbSymbolTableRecord
 100
AcDbBlockTableRecord
   2
*D14
   0
BLOCK_RECORD
   5
56
 100
AcDbSymbolTableRecord
 100
AcDbBlockTableRecord
   2
*D15
   0
BLOCK_RECORD
   5
57
 100
AcDbSymbolTableRecord
 100
AcDbBlockTableRecord
   2
*D16
   0
BLOCK_RECORD
   5
58
 100
AcDbSymbolTableRecord
 100
AcDbBlockTableRecord
   2
*D17
   0
BLOCK_RECORD
   5
59
 100
AcDbSymbolTableRecord
 100
AcDbBlockTableRecord
   2
*D18
   0
BLOCK_RECORD
   5
5A
 100
AcDbSymbolTableRecord
 100
AcDbBlockTableRecord
   2
*D19
   0
BLOCK_RECORD
   5
5B
 100
AcDbSymbolTableRecord
 100
AcDbBlockTableRecord
   2
*D20
   0
BLOCK_RECORD
   5
5C
 100
AcDbSymbolTableRecord
 100
AcDbBlockTableRecord
   2
*D21
   0
BLOCK_RECORD
   5
5D
 100
AcDbSymbolTableRecord
 100
AcDbBlockTableRecord
   2
*D22
   0
BLOCK_RECORD
   5
5E
 100
AcDbSymbolTableRecord
 100
AcDbBlockTableRecord
   2
*D23
   0
BLOCK_RECORD
   5
5F
 100
AcDbSymbolTableRecord
 100
AcDbBlockTableRecord
   2
*D24
   0
BLOCK_RECORD
   5
60
 100
AcDbSymbolTableRecord
 100
AcDbBlockTableRecord
   2
*D25
   0
BLOCK_RECORD
   5
61
 100
AcDbSymbolTableRecord
 100
AcDbBlockTableRecord
   2
*D26
   0
BLOCK_RECORD
   5
62
 100
AcDbSymbolTableRecord
 100
AcDbBlockTableRecord
   2
*D27
   0
BLOCK_RECORD
   5
63
 100
AcDbSymbolTableRecord
 100
AcDbBlockTableRecord
   2
*D28
   0
BLOCK_RECORD
   5
64
 100
AcDbSymbolTableRecord
 100
AcDbBlockTableRecord
   2
*D29
   0
BLOCK_RECORD
   5
65
 100
AcDbSymbolTableRecord
 100
AcDbBlockTableRecord
   2
*D30
   0
BLOCK_RECORD
   5
66
 100
AcDbSymbolTableRecord
 100
AcDbBlockTableRecord
   2
*D31
   0
BLOCK_RECORD
   5
67
 100
AcDbSymbolTableRecord
 100
AcDbBlockTableRecord
   2
*D32
   0
BLOCK_RECORD
   5
68
 100
AcDbSymbolTableRecord
 100
AcDbBlockTableRecord
   2
*D33
   0
BLOCK_RECORD
   5
69
 100
AcDbSymbolTableRecord
 100
AcDbBlockTableRecord
   2
*D34
   0
BLOCK_RECORD
   5
6A
 100
AcDbSymbolTableRecord
 100
AcDbBlockTableRecord
   2
*D35
   0
BLOCK_RECORD
   5
6B
 100
AcDbSymbolTableRecord
 100
AcDbBlockTableRecord
   2
*D36
   0
BLOCK_RECORD
   5
6C
 100
AcDbSymbolTableRecord
 100
AcDbBlockTableRecord
   2
*D37
   0
BLOCK_RECORD
   5
6D
 100
AcDbSymbolTableRecord
 100
AcDbBlockTableRecord
   2
*D38
   0
BLOCK_RECORD
   5
6E
 100
AcDbSymbolTableRecord
 100
AcDbBlockTableRecord
   2
*D39
   0
BLOCK_RECORD
   5
6F
 100
AcDbSymbolTableRecord
 100
AcDbBlockTableRecord
   2
*D40
   0
BLOCK_RECORD
   5
70
 100
AcDbSymbolTableRecord
 100
AcDbBlockTableRecord
   2
*D41
   0
BLOCK_RECORD
   5
71
 100
AcDbSymbolTableRecord
 100
AcDbBlockTableRecord
   2
*D42
   0
BLOCK_RECORD
   5
72
 100
AcDbSymbolTableRecord
 100
AcDbBlockTableRecord
   2
*D43
   0
BLOCK_RECORD
   5
73
 100
AcDbSymbolTableRecord
 100
AcDbBlockTableRecord
   2
*D44
   0
BLOCK_RECORD
   5
74
 100
AcDbSymbolTableRecord
 100
AcDbBlockTableRecord
   2
*D45
   0
BLOCK_RECORD
   5
75
 100
AcDbSymbolTableRecord
 100
AcDbBlockTableRecord
   2
*D46
   0
BLOCK_RECORD
   5
76
 100
AcDbSymbolTableRecord
 100
AcDbBlockTableRecord
   2
*D47
   0
BLOCK_RECORD
   5
77
 100
AcDbSymbolTableRecord
 100
AcDbBlockTableRecord
   2
*D48
   0
BLOCK_RECORD
   5
78
 100
AcDbSymbolTableRecord
 100
AcDbBlockTableRecord
   2
_ARCHTICK
   0
BLOCK_RECORD
   5
79
 100
AcDbSymbolTableRecord
 100
AcDbBlockTableRecord
   2
_BOXBLANK
   0
BLOCK_RECORD
   5
7A
 100
AcDbSymbolTableRecord
 100
AcDbBlockTableRecord
   2
_BOXFILLED
   0
BLOCK_RECORD
   5
7B
 100
AcDbSymbolTableRecord
 100
AcDbBlockTableRecord
   2
_CLOSED
   0
BLOCK_RECORD
   5
7C
 100
AcDbSymbolTableRecord
 100
AcDbBlockTableRecord
   2
_CLOSEDBLANK
   0
BLOCK_RECORD
   5
7D
 100
AcDbSymbolTableRecord
 100
AcDbBlockTableRecord
   2
_DATUMBLANK
   0
BLOCK_RECORD
   5
7E
 100
AcDbSymbolTableRecord
 100
AcDbBlockTableRecord
   2
_DATUMFILLED
   0
BLOCK_RECORD
   5
7F
 100
AcDbSymbolTableRecord
 100
AcDbBlockTableRecord
   2
_DOT
   0
BLOCK_RECORD
   5
80
 100
AcDbSymbolTableRecord
 100
AcDbBlockTableRecord
   2
_DOTBLANK
   0
BLOCK_RECORD
   5
81
 100
AcDbSymbolTableRecord
 100
AcDbBlockTableRecord
   2
_DOTSMALL
   0
BLOCK_RECORD
   5
82
 100
AcDbSymbolTableRecord
 100
AcDbBlockTableRecord
   2
_INTEGRAL
   0
BLOCK_RECORD
   5
83
 100
AcDbSymbolTableRecord
 100
AcDbBlockTableRecord
   2
_NONE
   0
BLOCK_RECORD
   5
84
 100
AcDbSymbolTableRecord
 100
AcDbBlockTableRecord
   2
_OBLIQUE
   0
BLOCK_RECORD
   5
85
 100
AcDbSymbolTableRecord
 100
AcDbBlockTableRecord
   2
_OPEN
   0
BLOCK_RECORD
   5
86
 100
AcDbSymbolTableRecord
 100
AcDbBlockTableRecord
   2
_OPEN30
   0
BLOCK_RECORD
   5
87
 100
AcDbSymbolTableRecord
 100
AcDbBlockTableRecord
   2
_OPEN90
   0
BLOCK_RECORD
   5
88
 100
AcDbSymbolTableRecord
 100
AcDbBlockTableRecord
   2
_ORIGIN
   0
ENDTAB
   0
ENDSEC
  0
SECTION
  2
BLOCKS
  0
BLOCK
  5
19
100
AcDbEntity
  8
0
100
AcDbBlockBegin
  2
*MODEL_SPACE
 70
     0
 10
0.0
 20
0.0
 30
0.0
  3
*MODEL_SPACE
  1

  0
ENDBLK
  5
1A
100
AcDbEntity
  8
0
100
AcDbBlockEnd
  0
BLOCK
  5
16
100
AcDbEntity
 67
     1
  8
0
100
AcDbBlockBegin
  2
*PAPER_SPACE
 70
     0
 10
0.0
 20
0.0
 30
0.0
  3
*PAPER_SPACE
  1

  0
ENDBLK
  5
17
100
AcDbEntity
 67
     1
  8
0
100
AcDbBlockEnd
   0
BLOCK
   5
89
 100
AcDbEntity
   8
0
 100
AcDbBlockBegin
   2
_ARCHTICK
  70
0
  10
0.0
  20
0.0
  30
0.0
   3
_ARCHTICK
   0
POLYLINE
   5
8A
 100
AcDbEntity
   8
0
 370
-2
   6
BYBLOCK
  62
0
 100
AcDb2dPolyline
  66
1
  10
0.0
  20
0.0
  30
0.0
  70
1
  40
 0.15000000000000
  41
 0.15000000000000
   0
VERTEX
   5
8B
 100
AcDbEntity
   8
0
   6
BYBLOCK
  62
0
 100
AcDbVertex
 100
AcDb2dVertex
  10
-0.50000000000000
  20
-0.50000000000000
  30
0.0
  40
 0.15000000000000
  41
 0.15000000000000
   0
VERTEX
   5
8C
 100
AcDbEntity
   8
0
   6
BYBLOCK
  62
0
 100
AcDbVertex
 100
AcDb2dVertex
  10
 0.50000000000000
  20
 0.50000000000000
  30
0.0
  40
 0.15000000000000
  41
 0.15000000000000
   0
SEQEND
   5
8D
 100
AcDbEntity
   8
0
   6
BYBLOCK
  62
0
   0
ENDBLK
   5
8E
 100
AcDbEntity
   8
0
 100
AcDbBlockEnd
   0
BLOCK
   5
8F
 100
AcDbEntity
   8
0
 100
AcDbBlockBegin
   2
_OBLIQUE
  70
0
  10
0.0
  20
0.0
  30
0.0
   3
_OBLIQUE
   0
LINE
   5
90
 100
AcDbEntity
   8
0
 370
-2
 100
AcDbLine
   6
BYBLOCK
  62
0
  10
-0.50000000000000
  20
-0.50000000000000
  30
0.0
  11
 0.50000000000000
  21
 0.50000000000000
  31
0.0
   0
ENDBLK
   5
91
 100
AcDbEntity
   8
0
 100
AcDbBlockEnd
   0
BLOCK
   5
92
 100
AcDbEntity
   8
0
 100
AcDbBlockBegin
   2
_BOXBLANK
  70
0
  10
0.0
  20
0.0
  30
0.0
   3
_BOXBLANK
   0
LINE
   5
93
 100
AcDbEntity
   8
0
 370
-2
 100
AcDbLine
   6
BYBLOCK
  62
0
  10
-0.50000000000000
  20
-0.50000000000000
  30
0.0
  11
 0.50000000000000
  21
-0.50000000000000
  31
0.0
   0
LINE
   5
94
 100
AcDbEntity
   8
0
 370
-2
 100
AcDbLine
   6
BYBLOCK
  62
0
  10
 0.50000000000000
  20
-0.50000000000000
  30
0.0
  11
 0.50000000000000
  21
 0.50000000000000
  31
0.0
   0
LINE
   5
95
 100
AcDbEntity
   8
0
 370
-2
 100
AcDbLine
   6
BYBLOCK
  62
0
  10
 0.50000000000000
  20
 0.50000000000000
  30
0.0
  11
-0.50000000000000
  21
 0.50000000000000
  31
0.0
   0
LINE
   5
96
 100
AcDbEntity
   8
0
 370
-2
 100
AcDbLine
   6
BYBLOCK
  62
0
  10
-0.50000000000000
  20
 0.50000000000000
  30
0.0
  11
-0.50000000000000
  21
-0.50000000000000
  31
0.0
   0
LINE
   5
97
 100
AcDbEntity
   8
0
 370
-2
 100
AcDbLine
   6
BYBLOCK
  62
0
  10
-0.50000000000000
  20
0.0
  30
0.0
  11
-1.0000000000000
  21
0.0
  31
0.0
   0
ENDBLK
   5
98
 100
AcDbEntity
   8
0
 100
AcDbBlockEnd
   0
BLOCK
   5
99
 100
AcDbEntity
   8
0
 100
AcDbBlockBegin
   2
_BOXFILLED
  70
0
  10
0.0
  20
0.0
  30
0.0
   3
_BOXFILLED
   0
SOLID
   5
9A
 100
AcDbEntity
   8
0
 100
AcDbTrace
   6
BYBLOCK
  62
0
  10
-0.50000000000000
  20
 0.50000000000000
  30
0.0
  11
 0.50000000000000
  21
 0.50000000000000
  31
0.0
  12
-0.50000000000000
  22
-0.50000000000000
  32
0.0
  13
 0.50000000000000
  23
-0.50000000000000
  33
0.0
   0
LINE
   5
9B
 100
AcDbEntity
   8
0
 370
-2
 100
AcDbLine
   6
BYBLOCK
  62
0
  10
-0.50000000000000
  20
0.0
  30
0.0
  11
-1.0000000000000
  21
0.0
  31
0.0
   0
ENDBLK
   5
9C
 100
AcDbEntity
   8
0
 100
AcDbBlockEnd
   0
BLOCK
   5
9D
 100
AcDbEntity
   8
0
 100
AcDbBlockBegin
   2
_CLOSED
  70
0
  10
0.0
  20
0.0
  30
0.0
   3
_CLOSED
   0
LINE
   5
9E
 100
AcDbEntity
   8
0
 370
-2
 100
AcDbLine
   6
BYBLOCK
  62
0
  10
-1.0000000000000
  20
 0.16666666666667
  30
0.0
  11
0.0
  21
0.0
  31
0.0
   0
LINE
   5
9F
 100
AcDbEntity
   8
0
 370
-2
 100
AcDbLine
   6
BYBLOCK
  62
0
  10
0.0
  20
0.0
  30
0.0
  11
-1.0000000000000
  21
-0.16666666666667
  31
0.0
   0
LINE
   5
A0
 100
AcDbEntity
   8
0
 370
-2
 100
AcDbLine
   6
BYBLOCK
  62
0
  10
-1.0000000000000
  20
 0.16666666666667
  30
0.0
  11
-1.0000000000000
  21
-0.16666666666667
  31
0.0
   0
LINE
   5
A1
 100
AcDbEntity
   8
0
 370
-2
 100
AcDbLine
   6
BYBLOCK
  62
0
  10
0.0
  20
0.0
  30
0.0
  11
-1.0000000000000
  21
0.0
  31
0.0
   0
ENDBLK
   5
A2
 100
AcDbEntity
   8
0
 100
AcDbBlockEnd
   0
BLOCK
   5
A3
 100
AcDbEntity
   8
0
 100
AcDbBlockBegin
   2
_OPEN
  70
0
  10
0.0
  20
0.0
  30
0.0
   3
_OPEN
   0
LINE
   5
A4
 100
AcDbEntity
   8
0
 370
-2
 100
AcDbLine
   6
BYBLOCK
  62
0
  10
-1.0000000000000
  20
 0.16666666666667
  30
0.0
  11
0.0
  21
0.0
  31
0.0
   0
LINE
   5
A5
 100
AcDbEntity
   8
0
 370
-2
 100
AcDbLine
   6
BYBLOCK
  62
0
  10
0.0
  20
0.0
  30
0.0
  11
-1.0000000000000
  21
-0.16666666666667
  31
0.0
   0
LINE
   5
A6
 100
AcDbEntity
   8
0
 370
-2
 100
AcDbLine
   6
BYBLOCK
  62
0
  10
0.0
  20
0.0
  30
0.0
  11
-1.0000000000000
  21
0.0
  31
0.0
   0
ENDBLK
   5
A7
 100
AcDbEntity
   8
0
 100
AcDbBlockEnd
   0
BLOCK
   5
A8
 100
AcDbEntity
   8
0
 100
AcDbBlockBegin
   2
_OPEN30
  70
0
  10
0.0
  20
0.0
  30
0.0
   3
_OPEN30
   0
LINE
   5
A9
 100
AcDbEntity
   8
0
 370
-2
 100
AcDbLine
   6
BYBLOCK
  62
0
  10
-1.0000000000000
  20
 0.26794919243110
  30
0.0
  11
0.0
  21
0.0
  31
0.0
   0
LINE
   5
AA
 100
AcDbEntity
   8
0
 370
-2
 100
AcDbLine
   6
BYBLOCK
  62
0
  10
0.0
  20
0.0
  30
0.0
  11
-1.0000000000000
  21
-0.26794919243110
  31
0.0
   0
LINE
   5
AB
 100
AcDbEntity
   8
0
 370
-2
 100
AcDbLine
   6
BYBLOCK
  62
0
  10
0.0
  20
0.0
  30
0.0
  11
-1.0000000000000
  21
0.0
  31
0.0
   0
ENDBLK
   5
AC
 100
AcDbEntity
   8
0
 100
AcDbBlockEnd
   0
BLOCK
   5
AD
 100
AcDbEntity
   8
0
 100
AcDbBlockBegin
   2
_OPEN90
  70
0
  10
0.0
  20
0.0
  30
0.0
   3
_OPEN90
   0
LINE
   5
AE
 100
AcDbEntity
   8
0
 370
-2
 100
AcDbLine
   6
BYBLOCK
  62
0
  10
-0.50000000000000
  20
 0.50000000000000
  30
0.0
  11
0.0
  21
0.0
  31
0.0
   0
LINE
   5
AF
 100
AcDbEntity
   8
0
 370
-2
 100
AcDbLine
   6
BYBLOCK
  62
0
  10
0.0
  20
0.0
  30
0.0
  11
-0.50000000000000
  21
-0.50000000000000
  31
0.0
   0
LINE
   5
B0
 100
AcDbEntity
   8
0
 370
-2
 100
AcDbLine
   6
BYBLOCK
  62
0
  10
0.0
  20
0.0
  30
0.0
  11
-1.0000000000000
  21
0.0
  31
0.0
   0
ENDBLK
   5
B1
 100
AcDbEntity
   8
0
 100
AcDbBlockEnd
   0
BLOCK
   5
B2
 100
AcDbEntity
   8
0
 100
AcDbBlockBegin
   2
_CLOSEDBLANK
  70
0
  10
0.0
  20
0.0
  30
0.0
   3
_CLOSEDBLANK
   0
LINE
   5
B3
 100
AcDbEntity
   8
0
 370
-2
 100
AcDbLine
   6
BYBLOCK
  62
0
  10
-1.0000000000000
  20
 0.16666666666667
  30
0.0
  11
0.0
  21
0.0
  31
0.0
   0
LINE
   5
B4
 100
AcDbEntity
   8
0
 370
-2
 100
AcDbLine
   6
BYBLOCK
  62
0
  10
0.0
  20
0.0
  30
0.0
  11
-1.0000000000000
  21
-0.16666666666667
  31
0.0
   0
LINE
   5
B5
 100
AcDbEntity
   8
0
 370
-2
 100
AcDbLine
   6
BYBLOCK
  62
0
  10
-1.0000000000000
  20
 0.16666666666667
  30
0.0
  11
-1.0000000000000
  21
-0.16666666666667
  31
0.0
   0
ENDBLK
   5
B6
 100
AcDbEntity
   8
0
 100
AcDbBlockEnd
   0
BLOCK
   5
B7
 100
AcDbEntity
   8
0
 100
AcDbBlockBegin
   2
_DOT
  70
0
  10
0.0
  20
0.0
  30
0.0
   3
_DOT
   0
POLYLINE
   5
B8
 100
AcDbEntity
   8
0
 370
-2
   6
BYBLOCK
  62
0
 100
AcDb2dPolyline
  66
1
  10
0.0
  20
0.0
  30
0.0
  70
1
  40
 0.50000000000000
  41
 0.50000000000000
   0
VERTEX
   5
B9
 100
AcDbEntity
   8
0
   6
BYBLOCK
  62
0
 100
AcDbVertex
 100
AcDb2dVertex
  10
-0.25000000000000
  20
0.0
  30
0.0
  42
 1.0000000000000
  40
 0.50000000000000
  41
 0.50000000000000
   0
VERTEX
   5
BA
 100
AcDbEntity
   8
0
   6
BYBLOCK
  62
0
 100
AcDbVertex
 100
AcDb2dVertex
  10
 0.25000000000000
  20
0.0
  30
0.0
  42
 1.0000000000000
  40
 0.50000000000000
  41
 0.50000000000000
   0
SEQEND
   5
BB
 100
AcDbEntity
   8
0
   6
BYBLOCK
  62
0
   0
LINE
   5
BC
 100
AcDbEntity
   8
0
 370
-2
 100
AcDbLine
   6
BYBLOCK
  62
0
  10
-0.50000000000000
  20
0.0
  30
0.0
  11
-1.0000000000000
  21
0.0
  31
0.0
   0
ENDBLK
   5
BD
 100
AcDbEntity
   8
0
 100
AcDbBlockEnd
   0
BLOCK
   5
BE
 100
AcDbEntity
   8
0
 100
AcDbBlockBegin
   2
_DOTSMALL
  70
0
  10
0.0
  20
0.0
  30
0.0
   3
_DOTSMALL
   0
POLYLINE
   5
BF
 100
AcDbEntity
   8
0
 370
-2
   6
BYBLOCK
  62
0
 100
AcDb2dPolyline
  66
1
  10
0.0
  20
0.0
  30
0.0
  70
1
  40
 0.50000000000000
  41
 0.50000000000000
   0
VERTEX
   5
C0
 100
AcDbEntity
   8
0
   6
BYBLOCK
  62
0
 100
AcDbVertex
 100
AcDb2dVertex
  10
-0.62500000000000E-1
  20
0.0
  30
0.0
  42
 1.0000000000000
  40
 0.50000000000000
  41
 0.50000000000000
   0
VERTEX
   5
C1
 100
AcDbEntity
   8
0
   6
BYBLOCK
  62
0
 100
AcDbVertex
 100
AcDb2dVertex
  10
 0.62500000000000E-1
  20
0.0
  30
0.0
  42
 1.0000000000000
  40
 0.50000000000000
  41
 0.50000000000000
   0
SEQEND
   5
C2
 100
AcDbEntity
   8
0
   6
BYBLOCK
  62
0
   0
ENDBLK
   5
C3
 100
AcDbEntity
   8
0
 100
AcDbBlockEnd
   0
BLOCK
   5
C4
 100
AcDbEntity
   8
0
 100
AcDbBlockBegin
   2
_DATUMBLANK
  70
0
  10
0.0
  20
0.0
  30
0.0
   3
_DATUMBLANK
   0
LINE
   5
C5
 100
AcDbEntity
   8
0
 370
-2
 100
AcDbLine
   6
BYBLOCK
  62
0
  10
0.0
  20
 0.57735027000000
  30
0.0
  11
-1.0000000000000
  21
0.0
  31
0.0
   0
LINE
   5
C6
 100
AcDbEntity
   8
0
 370
-2
 100
AcDbLine
   6
BYBLOCK
  62
0
  10
-1.0000000000000
  20
0.0
  30
0.0
  11
0.0
  21
-0.57735027000000
  31
0.0
   0
LINE
   5
C7
 100
AcDbEntity
   8
0
 370
-2
 100
AcDbLine
   6
BYBLOCK
  62
0
  10
0.0
  20
-0.57735027000000
  30
0.0
  11
0.0
  21
 0.57735027000000
  31
0.0
   0
ENDBLK
   5
C8
 100
AcDbEntity
   8
0
 100
AcDbBlockEnd
   0
BLOCK
   5
C9
 100
AcDbEntity
   8
0
 100
AcDbBlockBegin
   2
_DATUMFILLED
  70
0
  10
0.0
  20
0.0
  30
0.0
   3
_DATUMFILLED
   0
SOLID
   5
CA
 100
AcDbEntity
   8
0
 100
AcDbTrace
   6
BYBLOCK
  62
0
  10
0.0
  20
 0.57735027000000
  30
0.0
  11
-1.0000000000000
  21
0.0
  31
0.0
  12
0.0
  22
-0.57735027000000
  32
0.0
  13
0.0
  23
-0.57735027000000
  33
0.0
   0
ENDBLK
   5
CB
 100
AcDbEntity
   8
0
 100
AcDbBlockEnd
   0
BLOCK
   5
CC
 100
AcDbEntity
   8
0
 100
AcDbBlockBegin
   2
_ORIGIN
  70
0
  10
0.0
  20
0.0
  30
0.0
   3
_ORIGIN
   0
CIRCLE
   5
CD
 100
AcDbEntity
   8
0
 370
-2
 100
AcDbCircle
   6
BYBLOCK
  62
0
  10
0.0
  20
0.0
  30
0.0
  40
 0.50000000000000
   0
LINE
   5
CE
 100
AcDbEntity
   8
0
 370
-2
 100
AcDbLine
   6
BYBLOCK
  62
0
  10
0.0
  20
0.0
  30
0.0
  11
-1.0000000000000
  21
0.0
  31
0.0
   0
ENDBLK
   5
CF
 100
AcDbEntity
   8
0
 100
AcDbBlockEnd
   0
BLOCK
   5
D0
 100
AcDbEntity
   8
0
 100
AcDbBlockBegin
   2
_NONE
  70
0
  10
0.0
  20
0.0
  30
0.0
   3
_NONE
   0
CIRCLE
   5
D1
 100
AcDbEntity
   8
0
 370
-2
 100
AcDbCircle
   6
BYBLOCK
  62
0
  10
0.0
  20
0.0
  30
0.0
  40
 0.25000000000000
   0
ENDBLK
   5
D2
 100
AcDbEntity
   8
0
 100
AcDbBlockEnd
   0
BLOCK
   5
D3
 100
AcDbEntity
   8
0
 100
AcDbBlockBegin
   2
_DOTBLANK
  70
0
  10
0.0
  20
0.0
  30
0.0
   3
_DOTBLANK
   0
CIRCLE
   5
D4
 100
AcDbEntity
   8
0
 370
-2
 100
AcDbCircle
   6
BYBLOCK
  62
0
  10
0.0
  20
0.0
  30
0.0
  40
 0.50000000000000
   0
LINE
   5
D5
 100
AcDbEntity
   8
0
 370
-2
 100
AcDbLine
   6
BYBLOCK
  62
0
  10
-0.50000000000000
  20
0.0
  30
0.0
  11
-1.0000000000000
  21
0.0
  31
0.0
   0
ENDBLK
   5
D6
 100
AcDbEntity
   8
0
 100
AcDbBlockEnd
   0
BLOCK
   5
D7
 100
AcDbEntity
   8
0
 100
AcDbBlockBegin
   2
_INTEGRAL
  70
0
  10
0.0
  20
0.0
  30
0.0
   3
_INTEGRAL
   0
ARC
   5
D8
 100
AcDbEntity
   8
0
 370
-2
   6
BYBLOCK
  62
0
 100
AcDbCircle
  10
 0.44488800000000
  20
-0.91335000000000E-1
  30
0.0
  40
 0.45416700000000
 100
AcDbArc
  50
 102.00000000000
  51
 168.00000000000
   0
ARC
   5
D9
 100
AcDbEntity
   8
0
 370
-2
   6
BYBLOCK
  62
0
 100
AcDbCircle
  10
-0.44488800000000
  20
 0.91335000000000E-1
  30
0.0
  40
 0.45416700000000
 100
AcDbArc
  50
 282.00000000000
  51
 348.00000000000
   0
ENDBLK
   5
DA
 100
AcDbEntity
   8
0
 100
AcDbBlockEnd
   0
BLOCK
   5
DB
 100
AcDbEntity
   8
0
 100
AcDbBlockBegin
   2
*D1
  70
65
  10
0.0
  20
0.0
  30
0.0
   3
*D1
   0
LINE
   5
DC
 100
AcDbEntity
   8
0
 370
15
 100
AcDbLine
   6
CONTINUOUS
  62
8
  10
 295.84605233308
  20
 790.65120790659
  30
0.0
  11
 348.49009215664
  21
 790.65120790659
  31
0.0
   0
LINE
   5
DD
 100
AcDbEntity
   8
0
 370
15
 100
AcDbLine
   6
CONTINUOUS
  62
8
  10
 319.84605233309
  20
 835.65120790659
  30
0.0
  11
 348.49009215664
  21
 835.65120790659
  31
0.0
   0
LINE
   5
DE
 100
AcDbEntity
   8
0
 370
15
 100
AcDbLine
   6
CONTINUOUS
  62
8
  10
 344.49009215664
  20
 790.65120790659
  30
0.0
  11
 344.49009215664
  21
 813.15120790659
  31
0.0
   0
LINE
   5
DF
 100
AcDbEntity
   8
0
 370
15
 100
AcDbLine
   6
CONTINUOUS
  62
8
  10
 344.49009215664
  20
 835.65120790659
  30
0.0
  11
 344.49009215664
  21
 813.15120790659
  31
0.0
   0
SOLID
   5
E0
 100
AcDbEntity
   8
0
 100
AcDbTrace
   6
CONTINUOUS
  62
8
  10
 344.49009215664
  20
 790.65120790659
  30
0.0
  11
 345.90070800231
  21
 798.65120790659
  31
0.0
  12
 343.07947631097
  22
 798.65120790659
  32
0.0
  13
 343.07947631097
  23
 798.65120790659
  33
0.0
   0
SOLID
   5
E1
 100
AcDbEntity
   8
0
 100
AcDbTrace
   6
CONTINUOUS
  62
8
  10
 344.49009215664
  20
 835.65120790659
  30
0.0
  11
 343.07947631097
  21
 827.65120790659
  31
0.0
  12
 345.90070800231
  22
 827.65120790659
  32
0.0
  13
 345.90070800231
  23
 827.65120790659
  33
0.0
   0
MTEXT
   5
E2
 100
AcDbEntity
   8
0
 370
15
  62
8
 100
AcDbMText
  10
 340.49009215664
  20
 813.15120790659
  30
0.0
  40
 10.000000000000
  41
0.0
  71
8
  72
1
   1
\A1;45
   7
GMM001
  11
0.0
  21
 1.0000000000000
  31
0.0
   0
ENDBLK
   5
E3
 100
AcDbEntity
   8
0
 100
AcDbBlockEnd
   0
BLOCK
   5
E4
 100
AcDbEntity
   8
0
 100
AcDbBlockBegin
   2
*D2
  70
65
  10
0.0
  20
0.0
  30
0.0
   3
*D2
   0
LINE
   5
E5
 100
AcDbEntity
   8
0
 370
15
 100
AcDbLine
   6
CONTINUOUS
  62
8
  10
 234.34605233309
  20
 759.15120790659
  30
0.0
  11
 234.34605233309
  21
 729.15120790659
  31
0.0
   0
LINE
   5
E6
 100
AcDbEntity
   8
0
 370
15
 100
AcDbLine
   6
CONTINUOUS
  62
8
  10
 200.94706072777
  20
 733.15120790659
  30
0.0
  11
 236.09605233309
  21
 733.15120790659
  31
0.0
   0
LINE
   5
E7
 100
AcDbEntity
   8
0
 370
15
 100
AcDbLine
   6
CONTINUOUS
  62
8
  10
 237.84605233309
  20
 733.15120790659
  30
0.0
  11
 236.09605233309
  21
 733.15120790659
  31
0.0
   0
SOLID
   5
E8
 100
AcDbEntity
   8
0
 100
AcDbTrace
   6
CONTINUOUS
  62
8
  10
 234.34605233309
  20
 733.15120790659
  30
0.0
  11
 226.34605233309
  21
 734.56182375225
  31
0.0
  12
 226.34605233309
  22
 731.74059206092
  32
0.0
  13
 226.34605233309
  23
 731.74059206092
  33
0.0
   0
MTEXT
   5
E9
 100
AcDbEntity
   8
0
 370
15
  62
8
 100
AcDbMText
  10
 211.94706072777
  20
 737.15120790659
  30
0.0
  40
 10.000000000000
  41
0.0
  71
8
  72
1
   1
\A1;3.5
   7
GMM001
   0
ENDBLK
   5
EA
 100
AcDbEntity
   8
0
 100
AcDbBlockEnd
   0
BLOCK
   5
EB
 100
AcDbEntity
   8
0
 100
AcDbBlockBegin
   2
*D3
  70
65
  10
0.0
  20
0.0
  30
0.0
   3
*D3
   0
LINE
   5
EC
 100
AcDbEntity
   8
0
 370
15
 100
AcDbLine
   6
CONTINUOUS
  62
8
  10
 237.84605233309
  20
 760.65120790659
  30
0.0
  11
 237.84605233309
  21
 729.15120790659
  31
0.0
   0
LINE
   5
ED
 100
AcDbEntity
   8
0
 370
15
 100
AcDbLine
   6
CONTINUOUS
  62
8
  10
 307.84605233308
  20
 802.65120790659
  30
0.0
  11
 307.84605233308
  21
 729.15120790659
  31
0.0
   0
LINE
   5
EE
 100
AcDbEntity
   8
0
 370
15
 100
AcDbLine
   6
CONTINUOUS
  62
8
  10
 237.84605233309
  20
 733.15120790659
  30
0.0
  11
 272.84605233308
  21
 733.15120790659
  31
0.0
   0
LINE
   5
EF
 100
AcDbEntity
   8
0
 370
15
 100
AcDbLine
   6
CONTINUOUS
  62
8
  10
 307.84605233308
  20
 733.15120790659
  30
0.0
  11
 272.84605233308
  21
 733.15120790659
  31
0.0
   0
SOLID
   5
F0
 100
AcDbEntity
   8
0
 100
AcDbTrace
   6
CONTINUOUS
  62
8
  10
 237.84605233309
  20
 733.15120790659
  30
0.0
  11
 245.84605233309
  21
 731.74059206092
  31
0.0
  12
 245.84605233309
  22
 734.56182375225
  32
0.0
  13
 245.84605233309
  23
 734.56182375225
  33
0.0
   0
SOLID
   5
F1
 100
AcDbEntity
   8
0
 100
AcDbTrace
   6
CONTINUOUS
  62
8
  10
 307.84605233308
  20
 733.15120790659
  30
0.0
  11
 299.84605233308
  21
 734.56182375225
  31
0.0
  12
 299.84605233308
  22
 731.74059206092
  32
0.0
  13
 299.84605233308
  23
 731.74059206092
  33
0.0
   0
MTEXT
   5
F2
 100
AcDbEntity
   8
0
 370
15
  62
8
 100
AcDbMText
  10
 272.84605233308
  20
 737.15120790659
  30
0.0
  40
 10.000000000000
  41
0.0
  71
8
  72
1
   1
\A1;L
   7
GMM001
   0
ENDBLK
   5
F3
 100
AcDbEntity
   8
0
 100
AcDbBlockEnd
   0
BLOCK
   5
F4
 100
AcDbEntity
   8
0
 100
AcDbBlockBegin
   2
*D4
  70
65
  10
0.0
  20
0.0
  30
0.0
   3
*D4
   0
LINE
   5
F5
 100
AcDbEntity
   8
0
 370
15
 100
AcDbLine
   6
CONTINUOUS
  62
8
  10
 399.29665718043
  20
 786.65120790659
  30
0.0
  11
 399.29665718043
  21
 729.15120790659
  31
0.0
   0
LINE
   5
F6
 100
AcDbEntity
   8
0
 370
15
 100
AcDbLine
   6
CONTINUOUS
  62
8
  10
 415.29665718043
  20
 786.65120790659
  30
0.0
  11
 415.29665718043
  21
 729.15120790659
  31
0.0
   0
LINE
   5
F7
 100
AcDbEntity
   8
0
 370
15
 100
AcDbLine
   6
CONTINUOUS
  62
8
  10
 389.29665718043
  20
 733.15120790659
  30
0.0
  11
 407.29665718043
  21
 733.15120790659
  31
0.0
   0
LINE
   5
F8
 100
AcDbEntity
   8
0
 370
15
 100
AcDbLine
   6
CONTINUOUS
  62
8
  10
 468.54477748108
  20
 733.15120790659
  30
0.0
  11
 407.29665718043
  21
 733.15120790659
  31
0.0
   0
SOLID
   5
F9
 100
AcDbEntity
   8
0
 100
AcDbTrace
   6
CONTINUOUS
  62
8
  10
 399.29665718043
  20
 733.15120790659
  30
0.0
  11
 391.29665718043
  21
 734.56182375225
  31
0.0
  12
 391.29665718043
  22
 731.74059206092
  32
0.0
  13
 391.29665718043
  23
 731.74059206092
  33
0.0
   0
SOLID
   5
FA
 100
AcDbEntity
   8
0
 100
AcDbTrace
   6
CONTINUOUS
  62
8
  10
 415.29665718043
  20
 733.15120790659
  30
0.0
  11
 423.29665718043
  21
 731.74059206092
  31
0.0
  12
 423.29665718043
  22
 734.56182375225
  32
0.0
  13
 423.29665718043
  23
 734.56182375225
  33
0.0
   0
MTEXT
   5
FB
 100
AcDbEntity
   8
0
 370
15
  62
8
 100
AcDbMText
  10
 459.54477748108
  20
 736.47785786481
  30
0.0
  40
 10.000000000000
  41
0.0
  71
8
  72
1
   1
\A1;16
   7
GMM001
   0
ENDBLK
   5
FC
 100
AcDbEntity
   8
0
 100
AcDbBlockEnd
   0
BLOCK
   5
FD
 100
AcDbEntity
   8
0
 100
AcDbBlockBegin
   2
*D5
  70
65
  10
0.0
  20
0.0
  30
0.0
   3
*D5
   0
LINE
   5
FE
 100
AcDbEntity
   8
0
 370
15
 100
AcDbLine
   6
CONTINUOUS
  62
8
  10
 379.79665718043
  20
 786.65120790659
  30
0.0
  11
 379.79665718043
  21
 699.15120790659
  31
0.0
   0
LINE
   5
FF
 100
AcDbEntity
   8
0
 370
15
 100
AcDbLine
   6
CONTINUOUS
  62
8
  10
 434.79665718043
  20
 786.65120790659
  30
0.0
  11
 434.79665718043
  21
 699.15120790659
  31
0.0
   0
LINE
   5
100
 100
AcDbEntity
   8
0
 370
15
 100
AcDbLine
   6
CONTINUOUS
  62
8
  10
 379.79665718043
  20
 703.15120790659
  30
0.0
  11
 407.29665718043
  21
 703.15120790659
  31
0.0
   0
LINE
   5
101
 100
AcDbEntity
   8
0
 370
15
 100
AcDbLine
   6
CONTINUOUS
  62
8
  10
 434.79665718043
  20
 703.15120790659
  30
0.0
  11
 407.29665718043
  21
 703.15120790659
  31
0.0
   0
SOLID
   5
102
 100
AcDbEntity
   8
0
 100
AcDbTrace
   6
CONTINUOUS
  62
8
  10
 379.79665718043
  20
 703.15120790659
  30
0.0
  11
 387.79665718043
  21
 701.74059206092
  31
0.0
  12
 387.79665718043
  22
 704.56182375225
  32
0.0
  13
 387.79665718043
  23
 704.56182375225
  33
0.0
   0
SOLID
   5
103
 100
AcDbEntity
   8
0
 100
AcDbTrace
   6
CONTINUOUS
  62
8
  10
 434.79665718043
  20
 703.15120790659
  30
0.0
  11
 426.79665718043
  21
 704.56182375225
  31
0.0
  12
 426.79665718043
  22
 701.74059206092
  32
0.0
  13
 426.79665718043
  23
 701.74059206092
  33
0.0
   0
MTEXT
   5
104
 100
AcDbEntity
   8
0
 370
15
  62
8
 100
AcDbMText
  10
 407.29665718043
  20
 707.15120790659
  30
0.0
  40
 10.000000000000
  41
0.0
  71
8
  72
1
   1
\A1;55
   7
GMM001
   0
ENDBLK
   5
105
 100
AcDbEntity
   8
0
 100
AcDbBlockEnd
   0
BLOCK
   5
106
 100
AcDbEntity
   8
0
 100
AcDbBlockBegin
   2
*D6
  70
65
  10
0.0
  20
0.0
  30
0.0
   3
*D6
   0
LINE
   5
107
 100
AcDbEntity
   8
0
 370
15
 100
AcDbLine
   6
CONTINUOUS
  62
8
  10
 230.34605233309
  20
 818.15120790659
  30
0.0
  11
 216.18221882868
  21
 818.15120790659
  31
0.0
   0
LINE
   5
108
 100
AcDbEntity
   8
0
 370
15
 100
AcDbLine
   6
CONTINUOUS
  62
8
  10
 230.34605233309
  20
 763.15120790659
  30
0.0
  11
 216.18221882868
  21
 763.15120790659
  31
0.0
   0
LINE
   5
109
 100
AcDbEntity
   8
0
 370
15
 100
AcDbLine
   6
CONTINUOUS
  62
8
  10
 220.18221882868
  20
 818.15120790659
  30
0.0
  11
 220.18221882868
  21
 790.65120790659
  31
0.0
   0
LINE
   5
10A
 100
AcDbEntity
   8
0
 370
15
 100
AcDbLine
   6
CONTINUOUS
  62
8
  10
 220.18221882868
  20
 763.15120790659
  30
0.0
  11
 220.18221882868
  21
 790.65120790659
  31
0.0
   0
SOLID
   5
10B
 100
AcDbEntity
   8
0
 100
AcDbTrace
   6
CONTINUOUS
  62
8
  10
 220.18221882868
  20
 818.15120790659
  30
0.0
  11
 218.77160298301
  21
 810.15120790659
  31
0.0
  12
 221.59283467435
  22
 810.15120790659
  32
0.0
  13
 221.59283467435
  23
 810.15120790659
  33
0.0
   0
SOLID
   5
10C
 100
AcDbEntity
   8
0
 100
AcDbTrace
   6
CONTINUOUS
  62
8
  10
 220.18221882868
  20
 763.15120790659
  30
0.0
  11
 221.59283467435
  21
 771.15120790659
  31
0.0
  12
 218.77160298301
  22
 771.15120790659
  32
0.0
  13
 218.77160298301
  23
 771.15120790659
  33
0.0
   0
MTEXT
   5
10D
 100
AcDbEntity
   8
0
 370
15
  62
8
 100
AcDbMText
  10
 216.18221882868
  20
 790.65120790659
  30
0.0
  40
 10.000000000000
  41
0.0
  71
8
  72
1
   1
\A1;55
   7
GMM001
  11
0.0
  21
 1.0000000000000
  31
0.0
   0
ENDBLK
   5
10E
 100
AcDbEntity
   8
0
 100
AcDbBlockEnd
   0
BLOCK
   5
10F
 100
AcDbEntity
   8
0
 100
AcDbBlockBegin
   2
*D7
  70
65
  10
0.0
  20
0.0
  30
0.0
   3
*D7
   0
LINE
   5
110
 100
AcDbEntity
   8
0
 370
15
 100
AcDbLine
   6
CONTINUOUS
  62
8
  10
 898.84605233308
  20
 790.65120790638
  30
0.0
  11
 951.49009215664
  21
 790.65120790638
  31
0.0
   0
LINE
   5
111
 100
AcDbEntity
   8
0
 370
15
 100
AcDbLine
   6
CONTINUOUS
  62
8
  10
 922.84605233309
  20
 835.65120790638
  30
0.0
  11
 951.49009215664
  21
 835.65120790638
  31
0.0
   0
LINE
   5
112
 100
AcDbEntity
   8
0
 370
15
 100
AcDbLine
   6
CONTINUOUS
  62
8
  10
 947.49009215664
  20
 790.65120790638
  30
0.0
  11
 947.49009215664
  21
 813.15120790638
  31
0.0
   0
LINE
   5
113
 100
AcDbEntity
   8
0
 370
15
 100
AcDbLine
   6
CONTINUOUS
  62
8
  10
 947.49009215664
  20
 835.65120790638
  30
0.0
  11
 947.49009215664
  21
 813.15120790638
  31
0.0
   0
SOLID
   5
114
 100
AcDbEntity
   8
0
 100
AcDbTrace
   6
CONTINUOUS
  62
8
  10
 947.49009215664
  20
 790.65120790638
  30
0.0
  11
 948.90070800231
  21
 798.65120790638
  31
0.0
  12
 946.07947631097
  22
 798.65120790638
  32
0.0
  13
 946.07947631097
  23
 798.65120790638
  33
0.0
   0
SOLID
   5
115
 100
AcDbEntity
   8
0
 100
AcDbTrace
   6
CONTINUOUS
  62
8
  10
 947.49009215664
  20
 835.65120790638
  30
0.0
  11
 946.07947631097
  21
 827.65120790638
  31
0.0
  12
 948.90070800231
  22
 827.65120790638
  32
0.0
  13
 948.90070800231
  23
 827.65120790638
  33
0.0
   0
MTEXT
   5
116
 100
AcDbEntity
   8
0
 370
15
  62
8
 100
AcDbMText
  10
 943.49009215664
  20
 813.15120790638
  30
0.0
  40
 10.000000000000
  41
0.0
  71
8
  72
1
   1
\A1;45
   7
GMM001
  11
0.0
  21
 1.0000000000000
  31
0.0
   0
ENDBLK
   5
117
 100
AcDbEntity
   8
0
 100
AcDbBlockEnd
   0
BLOCK
   5
118
 100
AcDbEntity
   8
0
 100
AcDbBlockBegin
   2
*D8
  70
65
  10
0.0
  20
0.0
  30
0.0
   3
*D8
   0
LINE
   5
119
 100
AcDbEntity
   8
0
 370
15
 100
AcDbLine
   6
CONTINUOUS
  62
8
  10
 837.34605233309
  20
 759.15120790638
  30
0.0
  11
 837.34605233309
  21
 729.15120790638
  31
0.0
   0
LINE
   5
11A
 100
AcDbEntity
   8
0
 370
15
 100
AcDbLine
   6
CONTINUOUS
  62
8
  10
 803.94706072777
  20
 733.15120790638
  30
0.0
  11
 839.09605233309
  21
 733.15120790638
  31
0.0
   0
LINE
   5
11B
 100
AcDbEntity
   8
0
 370
15
 100
AcDbLine
   6
CONTINUOUS
  62
8
  10
 840.84605233309
  20
 733.15120790638
  30
0.0
  11
 839.09605233309
  21
 733.15120790638
  31
0.0
   0
SOLID
   5
11C
 100
AcDbEntity
   8
0
 100
AcDbTrace
   6
CONTINUOUS
  62
8
  10
 837.34605233309
  20
 733.15120790638
  30
0.0
  11
 829.34605233309
  21
 734.56182375205
  31
0.0
  12
 829.34605233309
  22
 731.74059206071
  32
0.0
  13
 829.34605233309
  23
 731.74059206071
  33
0.0
   0
MTEXT
   5
11D
 100
AcDbEntity
   8
0
 370
15
  62
8
 100
AcDbMText
  10
 814.94706072777
  20
 737.15120790638
  30
0.0
  40
 10.000000000000
  41
0.0
  71
8
  72
1
   1
\A1;3.5
   7
GMM001
   0
ENDBLK
   5
11E
 100
AcDbEntity
   8
0
 100
AcDbBlockEnd
   0
BLOCK
   5
11F
 100
AcDbEntity
   8
0
 100
AcDbBlockBegin
   2
*D9
  70
65
  10
0.0
  20
0.0
  30
0.0
   3
*D9
   0
LINE
   5
120
 100
AcDbEntity
   8
0
 370
15
 100
AcDbLine
   6
CONTINUOUS
  62
8
  10
 840.84605233309
  20
 760.65120790638
  30
0.0
  11
 840.84605233309
  21
 729.15120790638
  31
0.0
   0
LINE
   5
121
 100
AcDbEntity
   8
0
 370
15
 100
AcDbLine
   6
CONTINUOUS
  62
8
  10
 910.84605233308
  20
 802.65120790638
  30
0.0
  11
 910.84605233308
  21
 729.15120790638
  31
0.0
   0
LINE
   5
122
 100
AcDbEntity
   8
0
 370
15
 100
AcDbLine
   6
CONTINUOUS
  62
8
  10
 840.84605233309
  20
 733.15120790638
  30
0.0
  11
 875.84605233308
  21
 733.15120790638
  31
0.0
   0
LINE
   5
123
 100
AcDbEntity
   8
0
 370
15
 100
AcDbLine
   6
CONTINUOUS
  62
8
  10
 910.84605233308
  20
 733.15120790638
  30
0.0
  11
 875.84605233308
  21
 733.15120790638
  31
0.0
   0
SOLID
   5
124
 100
AcDbEntity
   8
0
 100
AcDbTrace
   6
CONTINUOUS
  62
8
  10
 840.84605233309
  20
 733.15120790638
  30
0.0
  11
 848.84605233309
  21
 731.74059206071
  31
0.0
  12
 848.84605233309
  22
 734.56182375205
  32
0.0
  13
 848.84605233309
  23
 734.56182375205
  33
0.0
   0
SOLID
   5
125
 100
AcDbEntity
   8
0
 100
AcDbTrace
   6
CONTINUOUS
  62
8
  10
 910.84605233308
  20
 733.15120790638
  30
0.0
  11
 902.84605233308
  21
 734.56182375205
  31
0.0
  12
 902.84605233308
  22
 731.74059206071
  32
0.0
  13
 902.84605233308
  23
 731.74059206071
  33
0.0
   0
MTEXT
   5
126
 100
AcDbEntity
   8
0
 370
15
  62
8
 100
AcDbMText
  10
 875.84605233308
  20
 737.15120790638
  30
0.0
  40
 10.000000000000
  41
0.0
  71
8
  72
1
   1
\A1;L
   7
GMM001
   0
ENDBLK
   5
127
 100
AcDbEntity
   8
0
 100
AcDbBlockEnd
   0
BLOCK
   5
128
 100
AcDbEntity
   8
0
 100
AcDbBlockBegin
   2
*D10
  70
65
  10
0.0
  20
0.0
  30
0.0
   3
*D10
   0
LINE
   5
129
 100
AcDbEntity
   8
0
 370
15
 100
AcDbLine
   6
CONTINUOUS
  62
8
  10
 1002.2966571804
  20
 786.65120790638
  30
0.0
  11
 1002.2966571804
  21
 729.15120790638
  31
0.0
   0
LINE
   5
12A
 100
AcDbEntity
   8
0
 370
15
 100
AcDbLine
   6
CONTINUOUS
  62
8
  10
 1018.2966571804
  20
 786.65120790638
  30
0.0
  11
 1018.2966571804
  21
 729.15120790638
  31
0.0
   0
LINE
   5
12B
 100
AcDbEntity
   8
0
 370
15
 100
AcDbLine
   6
CONTINUOUS
  62
8
  10
 992.29665718043
  20
 733.15120790638
  30
0.0
  11
 1010.2966571804
  21
 733.15120790638
  31
0.0
   0
LINE
   5
12C
 100
AcDbEntity
   8
0
 370
15
 100
AcDbLine
   6
CONTINUOUS
  62
8
  10
 1071.5447774811
  20
 733.15120790638
  30
0.0
  11
 1010.2966571804
  21
 733.15120790638
  31
0.0
   0
SOLID
   5
12D
 100
AcDbEntity
   8
0
 100
AcDbTrace
   6
CONTINUOUS
  62
8
  10
 1002.2966571804
  20
 733.15120790638
  30
0.0
  11
 994.29665718043
  21
 734.56182375205
  31
0.0
  12
 994.29665718043
  22
 731.74059206071
  32
0.0
  13
 994.29665718043
  23
 731.74059206071
  33
0.0
   0
SOLID
   5
12E
 100
AcDbEntity
   8
0
 100
AcDbTrace
   6
CONTINUOUS
  62
8
  10
 1018.2966571804
  20
 733.15120790638
  30
0.0
  11
 1026.2966571804
  21
 731.74059206071
  31
0.0
  12
 1026.2966571804
  22
 734.56182375205
  32
0.0
  13
 1026.2966571804
  23
 734.56182375205
  33
0.0
   0
MTEXT
   5
12F
 100
AcDbEntity
   8
0
 370
15
  62
8
 100
AcDbMText
  10
 1062.5447774811
  20
 736.47785786460
  30
0.0
  40
 10.000000000000
  41
0.0
  71
8
  72
1
   1
\A1;16
   7
GMM001
   0
ENDBLK
   5
130
 100
AcDbEntity
   8
0
 100
AcDbBlockEnd
   0
BLOCK
   5
131
 100
AcDbEntity
   8
0
 100
AcDbBlockBegin
   2
*D11
  70
65
  10
0.0
  20
0.0
  30
0.0
   3
*D11
   0
LINE
   5
132
 100
AcDbEntity
   8
0
 370
15
 100
AcDbLine
   6
CONTINUOUS
  62
8
  10
 982.79665718043
  20
 786.65120790638
  30
0.0
  11
 982.79665718043
  21
 699.15120790638
  31
0.0
   0
LINE
   5
133
 100
AcDbEntity
   8
0
 370
15
 100
AcDbLine
   6
CONTINUOUS
  62
8
  10
 1037.7966571804
  20
 786.65120790638
  30
0.0
  11
 1037.7966571804
  21
 699.15120790638
  31
0.0
   0
LINE
   5
134
 100
AcDbEntity
   8
0
 370
15
 100
AcDbLine
   6
CONTINUOUS
  62
8
  10
 982.79665718043
  20
 703.15120790638
  30
0.0
  11
 1010.2966571804
  21
 703.15120790638
  31
0.0
   0
LINE
   5
135
 100
AcDbEntity
   8
0
 370
15
 100
AcDbLine
   6
CONTINUOUS
  62
8
  10
 1037.7966571804
  20
 703.15120790638
  30
0.0
  11
 1010.2966571804
  21
 703.15120790638
  31
0.0
   0
SOLID
   5
136
 100
AcDbEntity
   8
0
 100
AcDbTrace
   6
CONTINUOUS
  62
8
  10
 982.79665718043
  20
 703.15120790638
  30
0.0
  11
 990.79665718043
  21
 701.74059206071
  31
0.0
  12
 990.79665718043
  22
 704.56182375205
  32
0.0
  13
 990.79665718043
  23
 704.56182375205
  33
0.0
   0
SOLID
   5
137
 100
AcDbEntity
   8
0
 100
AcDbTrace
   6
CONTINUOUS
  62
8
  10
 1037.7966571804
  20
 703.15120790638
  30
0.0
  11
 1029.7966571804
  21
 704.56182375205
  31
0.0
  12
 1029.7966571804
  22
 701.74059206071
  32
0.0
  13
 1029.7966571804
  23
 701.74059206071
  33
0.0
   0
MTEXT
   5
138
 100
AcDbEntity
   8
0
 370
15
  62
8
 100
AcDbMText
  10
 1010.2966571804
  20
 707.15120790638
  30
0.0
  40
 10.000000000000
  41
0.0
  71
8
  72
1
   1
\A1;55
   7
GMM001
   0
ENDBLK
   5
139
 100
AcDbEntity
   8
0
 100
AcDbBlockEnd
   0
BLOCK
   5
13A
 100
AcDbEntity
   8
0
 100
AcDbBlockBegin
   2
*D12
  70
65
  10
0.0
  20
0.0
  30
0.0
   3
*D12
   0
LINE
   5
13B
 100
AcDbEntity
   8
0
 370
15
 100
AcDbLine
   6
CONTINUOUS
  62
8
  10
 833.34605233309
  20
 818.15120790638
  30
0.0
  11
 819.18221882868
  21
 818.15120790638
  31
0.0
   0
LINE
   5
13C
 100
AcDbEntity
   8
0
 370
15
 100
AcDbLine
   6
CONTINUOUS
  62
8
  10
 833.34605233309
  20
 763.15120790638
  30
0.0
  11
 819.18221882868
  21
 763.15120790638
  31
0.0
   0
LINE
   5
13D
 100
AcDbEntity
   8
0
 370
15
 100
AcDbLine
   6
CONTINUOUS
  62
8
  10
 823.18221882868
  20
 818.15120790638
  30
0.0
  11
 823.18221882868
  21
 790.65120790638
  31
0.0
   0
LINE
   5
13E
 100
AcDbEntity
   8
0
 370
15
 100
AcDbLine
   6
CONTINUOUS
  62
8
  10
 823.18221882868
  20
 763.15120790638
  30
0.0
  11
 823.18221882868
  21
 790.65120790638
  31
0.0
   0
SOLID
   5
13F
 100
AcDbEntity
   8
0
 100
AcDbTrace
   6
CONTINUOUS
  62
8
  10
 823.18221882868
  20
 818.15120790638
  30
0.0
  11
 821.77160298301
  21
 810.15120790638
  31
0.0
  12
 824.59283467435
  22
 810.15120790638
  32
0.0
  13
 824.59283467435
  23
 810.15120790638
  33
0.0
   0
SOLID
   5
140
 100
AcDbEntity
   8
0
 100
AcDbTrace
   6
CONTINUOUS
  62
8
  10
 823.18221882868
  20
 763.15120790638
  30
0.0
  11
 824.59283467435
  21
 771.15120790638
  31
0.0
  12
 821.77160298301
  22
 771.15120790638
  32
0.0
  13
 821.77160298301
  23
 771.15120790638
  33
0.0
   0
MTEXT
   5
141
 100
AcDbEntity
   8
0
 370
15
  62
8
 100
AcDbMText
  10
 819.18221882868
  20
 790.65120790638
  30
0.0
  40
 10.000000000000
  41
0.0
  71
8
  72
1
   1
\A1;55
   7
GMM001
  11
0.0
  21
 1.0000000000000
  31
0.0
   0
ENDBLK
   5
142
 100
AcDbEntity
   8
0
 100
AcDbBlockEnd
   0
BLOCK
   5
143
 100
AcDbEntity
   8
0
 100
AcDbBlockBegin
   2
*D13
  70
65
  10
0.0
  20
0.0
  30
0.0
   3
*D13
   0
LINE
   5
144
 100
AcDbEntity
   8
0
 370
15
 100
AcDbLine
   6
CONTINUOUS
  62
8
  10
 383.25032870007
  20
 241.90984551920
  30
0.0
  11
 383.25032870007
  21
 170.60686412885
  31
0.0
   0
LINE
   5
145
 100
AcDbEntity
   8
0
 370
15
 100
AcDbLine
   6
CONTINUOUS
  62
8
  10
 428.25032870007
  20
 241.90984551920
  30
0.0
  11
 428.25032870007
  21
 170.60686412885
  31
0.0
   0
LINE
   5
146
 100
AcDbEntity
   8
0
 370
15
 100
AcDbLine
   6
CONTINUOUS
  62
8
  10
 383.25032870007
  20
 174.60686412885
  30
0.0
  11
 405.75032870007
  21
 174.60686412885
  31
0.0
   0
LINE
   5
147
 100
AcDbEntity
   8
0
 370
15
 100
AcDbLine
   6
CONTINUOUS
  62
8
  10
 428.25032870007
  20
 174.60686412885
  30
0.0
  11
 405.75032870007
  21
 174.60686412885
  31
0.0
   0
SOLID
   5
148
 100
AcDbEntity
   8
0
 100
AcDbTrace
   6
CONTINUOUS
  62
8
  10
 383.25032870007
  20
 174.60686412885
  30
0.0
  11
 391.25032870007
  21
 173.19624828318
  31
0.0
  12
 391.25032870007
  22
 176.01747997452
  32
0.0
  13
 391.25032870007
  23
 176.01747997452
  33
0.0
   0
SOLID
   5
149
 100
AcDbEntity
   8
0
 100
AcDbTrace
   6
CONTINUOUS
  62
8
  10
 428.25032870007
  20
 174.60686412885
  30
0.0
  11
 420.25032870007
  21
 176.01747997452
  31
0.0
  12
 420.25032870007
  22
 173.19624828318
  32
0.0
  13
 420.25032870007
  23
 173.19624828318
  33
0.0
   0
MTEXT
   5
14A
 100
AcDbEntity
   8
0
 370
15
  62
8
 100
AcDbMText
  10
 405.75032870007
  20
 178.60686412885
  30
0.0
  40
 10.000000000000
  41
0.0
  71
8
  72
1
   1
\A1;45
   7
GMM001
   0
ENDBLK
   5
14B
 100
AcDbEntity
   8
0
 100
AcDbBlockEnd
   0
BLOCK
   5
14C
 100
AcDbEntity
   8
0
 100
AcDbBlockBegin
   2
*D14
  70
65
  10
0.0
  20
0.0
  30
0.0
   3
*D14
   0
LINE
   5
14D
 100
AcDbEntity
   8
0
 370
15
 100
AcDbLine
   6
CONTINUOUS
  62
8
  10
 399.25032870007
  20
 241.90984551920
  30
0.0
  11
 399.25032870007
  21
 195.21059567996
  31
0.0
   0
LINE
   5
14E
 100
AcDbEntity
   8
0
 370
15
 100
AcDbLine
   6
CONTINUOUS
  62
8
  10
 412.25032870007
  20
 241.90984551920
  30
0.0
  11
 412.25032870007
  21
 195.21059567996
  31
0.0
   0
LINE
   5
14F
 100
AcDbEntity
   8
0
 370
15
 100
AcDbLine
   6
CONTINUOUS
  62
8
  10
 389.25032870007
  20
 199.21059567996
  30
0.0
  11
 405.75032870007
  21
 199.21059567996
  31
0.0
   0
LINE
   5
150
 100
AcDbEntity
   8
0
 370
15
 100
AcDbLine
   6
CONTINUOUS
  62
8
  10
 446.75747020907
  20
 199.21059567996
  30
0.0
  11
 405.75032870007
  21
 199.21059567996
  31
0.0
   0
SOLID
   5
151
 100
AcDbEntity
   8
0
 100
AcDbTrace
   6
CONTINUOUS
  62
8
  10
 399.25032870007
  20
 199.21059567996
  30
0.0
  11
 391.25032870007
  21
 200.62121152563
  31
0.0
  12
 391.25032870007
  22
 197.79997983429
  32
0.0
  13
 391.25032870007
  23
 197.79997983429
  33
0.0
   0
SOLID
   5
152
 100
AcDbEntity
   8
0
 100
AcDbTrace
   6
CONTINUOUS
  62
8
  10
 412.25032870007
  20
 199.21059567996
  30
0.0
  11
 420.25032870007
  21
 197.79997983429
  31
0.0
  12
 420.25032870007
  22
 200.62121152563
  32
0.0
  13
 420.25032870007
  23
 200.62121152563
  33
0.0
   0
MTEXT
   5
153
 100
AcDbEntity
   8
0
 370
15
  62
8
 100
AcDbMText
  10
 428.75747020907
  20
 201.75918938645
  30
0.0
  40
 10.000000000000
  41
0.0
  71
7
  72
1
   1
\A1;13
   7
GMM001
   0
ENDBLK
   5
154
 100
AcDbEntity
   8
0
 100
AcDbBlockEnd
   0
BLOCK
   5
155
 100
AcDbEntity
   8
0
 100
AcDbBlockBegin
   2
*D15
  70
65
  10
0.0
  20
0.0
  30
0.0
   3
*D15
   0
LINE
   5
156
 100
AcDbEntity
   8
0
 370
15
 100
AcDbLine
   6
CONTINUOUS
  62
8
  10
 294.29972385272
  20
 245.90984551920
  30
0.0
  11
 346.94376367628
  21
 245.90984551920
  31
0.0
   0
LINE
   5
157
 100
AcDbEntity
   8
0
 370
15
 100
AcDbLine
   6
CONTINUOUS
  62
8
  10
 318.29972385273
  20
 280.90984551920
  30
0.0
  11
 346.94376367628
  21
 280.90984551920
  31
0.0
   0
LINE
   5
158
 100
AcDbEntity
   8
0
 370
15
 100
AcDbLine
   6
CONTINUOUS
  62
8
  10
 342.94376367628
  20
 245.90984551920
  30
0.0
  11
 342.94376367628
  21
 263.40984551920
  31
0.0
   0
LINE
   5
159
 100
AcDbEntity
   8
0
 370
15
 100
AcDbLine
   6
CONTINUOUS
  62
8
  10
 342.94376367628
  20
 280.90984551920
  30
0.0
  11
 342.94376367628
  21
 263.40984551920
  31
0.0
   0
SOLID
   5
15A
 100
AcDbEntity
   8
0
 100
AcDbTrace
   6
CONTINUOUS
  62
8
  10
 342.94376367628
  20
 245.90984551920
  30
0.0
  11
 344.35437952195
  21
 253.90984551920
  31
0.0
  12
 341.53314783061
  22
 253.90984551920
  32
0.0
  13
 341.53314783061
  23
 253.90984551920
  33
0.0
   0
SOLID
   5
15B
 100
AcDbEntity
   8
0
 100
AcDbTrace
   6
CONTINUOUS
  62
8
  10
 342.94376367628
  20
 280.90984551920
  30
0.0
  11
 341.53314783061
  21
 272.90984551920
  31
0.0
  12
 344.35437952195
  22
 272.90984551920
  32
0.0
  13
 344.35437952195
  23
 272.90984551920
  33
0.0
   0
MTEXT
   5
15C
 100
AcDbEntity
   8
0
 370
15
  62
8
 100
AcDbMText
  10
 338.94376367628
  20
 263.40984551920
  30
0.0
  40
 10.000000000000
  41
0.0
  71
8
  72
1
   1
\A1;35
   7
GMM001
  11
0.0
  21
 1.0000000000000
  31
0.0
   0
ENDBLK
   5
15D
 100
AcDbEntity
   8
0
 100
AcDbBlockEnd
   0
BLOCK
   5
15E
 100
AcDbEntity
   8
0
 100
AcDbBlockBegin
   2
*D16
  70
65
  10
0.0
  20
0.0
  30
0.0
   3
*D16
   0
LINE
   5
15F
 100
AcDbEntity
   8
0
 370
15
 100
AcDbLine
   6
CONTINUOUS
  62
8
  10
 247.29972385273
  20
 219.40984551920
  30
0.0
  11
 247.29972385273
  21
 195.21059567996
  31
0.0
   0
LINE
   5
160
 100
AcDbEntity
   8
0
 370
15
 100
AcDbLine
   6
CONTINUOUS
  62
8
  10
 220.31803829589
  20
 199.21059567996
  30
0.0
  11
 249.29972385273
  21
 199.21059567996
  31
0.0
   0
LINE
   5
161
 100
AcDbEntity
   8
0
 370
15
 100
AcDbLine
   6
CONTINUOUS
  62
8
  10
 251.29972385273
  20
 199.21059567996
  30
0.0
  11
 249.29972385273
  21
 199.21059567996
  31
0.0
   0
SOLID
   5
162
 100
AcDbEntity
   8
0
 100
AcDbTrace
   6
CONTINUOUS
  62
8
  10
 247.29972385273
  20
 199.21059567996
  30
0.0
  11
 239.29972385273
  21
 200.62121152563
  31
0.0
  12
 239.29972385273
  22
 197.79997983429
  32
0.0
  13
 239.29972385273
  23
 197.79997983429
  33
0.0
   0
MTEXT
   5
163
 100
AcDbEntity
   8
0
 370
15
  62
8
 100
AcDbMText
  10
 242.31803829589
  20
 202.47802350879
  30
0.0
  40
 10.000000000000
  41
0.0
  71
9
  72
1
   1
\A1;3.5
   7
GMM001
   0
ENDBLK
   5
164
 100
AcDbEntity
   8
0
 100
AcDbBlockEnd
   0
BLOCK
   5
165
 100
AcDbEntity
   8
0
 100
AcDbBlockBegin
   2
*D17
  70
65
  10
0.0
  20
0.0
  30
0.0
   3
*D17
   0
LINE
   5
166
 100
AcDbEntity
   8
0
 370
15
 100
AcDbLine
   6
CONTINUOUS
  62
8
  10
 251.29972385273
  20
 220.90984551920
  30
0.0
  11
 251.29972385273
  21
 195.21059567996
  31
0.0
   0
LINE
   5
167
 100
AcDbEntity
   8
0
 370
15
 100
AcDbLine
   6
CONTINUOUS
  62
8
  10
 306.29972385273
  20
 256.40984551920
  30
0.0
  11
 306.29972385273
  21
 195.21059567996
  31
0.0
   0
LINE
   5
168
 100
AcDbEntity
   8
0
 370
15
 100
AcDbLine
   6
CONTINUOUS
  62
8
  10
 251.29972385273
  20
 199.21059567996
  30
0.0
  11
 278.79972385273
  21
 199.21059567996
  31
0.0
   0
LINE
   5
169
 100
AcDbEntity
   8
0
 370
15
 100
AcDbLine
   6
CONTINUOUS
  62
8
  10
 306.29972385273
  20
 199.21059567996
  30
0.0
  11
 278.79972385273
  21
 199.21059567996
  31
0.0
   0
SOLID
   5
16A
 100
AcDbEntity
   8
0
 100
AcDbTrace
   6
CONTINUOUS
  62
8
  10
 251.29972385273
  20
 199.21059567996
  30
0.0
  11
 259.29972385273
  21
 197.79997983429
  31
0.0
  12
 259.29972385273
  22
 200.62121152563
  32
0.0
  13
 259.29972385273
  23
 200.62121152563
  33
0.0
   0
SOLID
   5
16B
 100
AcDbEntity
   8
0
 100
AcDbTrace
   6
CONTINUOUS
  62
8
  10
 306.29972385273
  20
 199.21059567996
  30
0.0
  11
 298.29972385273
  21
 200.62121152563
  31
0.0
  12
 298.29972385273
  22
 197.79997983429
  32
0.0
  13
 298.29972385273
  23
 197.79997983429
  33
0.0
   0
MTEXT
   5
16C
 100
AcDbEntity
   8
0
 370
15
  62
8
 100
AcDbMText
  10
 278.79972385273
  20
 203.21059567996
  30
0.0
  40
 10.000000000000
  41
0.0
  71
8
  72
1
   1
\A1;L
   7
GMM001
   0
ENDBLK
   5
16D
 100
AcDbEntity
   8
0
 100
AcDbBlockEnd
   0
BLOCK
   5
16E
 100
AcDbEntity
   8
0
 100
AcDbBlockBegin
   2
*D18
  70
65
  10
0.0
  20
0.0
  30
0.0
   3
*D18
   0
LINE
   5
16F
 100
AcDbEntity
   8
0
 370
15
 100
AcDbLine
   6
CONTINUOUS
  62
8
  10
 243.29972385273
  20
 223.40984551920
  30
0.0
  11
 224.79088708451
  21
 223.40984551920
  31
0.0
   0
LINE
   5
170
 100
AcDbEntity
   8
0
 370
15
 100
AcDbLine
   6
CONTINUOUS
  62
8
  10
 243.29972385273
  20
 268.40984551920
  30
0.0
  11
 224.79088708451
  21
 268.40984551920
  31
0.0
   0
LINE
   5
171
 100
AcDbEntity
   8
0
 370
15
 100
AcDbLine
   6
CONTINUOUS
  62
8
  10
 228.79088708451
  20
 223.40984551920
  30
0.0
  11
 228.79088708451
  21
 245.90984551920
  31
0.0
   0
LINE
   5
172
 100
AcDbEntity
   8
0
 370
15
 100
AcDbLine
   6
CONTINUOUS
  62
8
  10
 228.79088708451
  20
 268.40984551920
  30
0.0
  11
 228.79088708451
  21
 245.90984551920
  31
0.0
   0
SOLID
   5
173
 100
AcDbEntity
   8
0
 100
AcDbTrace
   6
CONTINUOUS
  62
8
  10
 228.79088708451
  20
 223.40984551920
  30
0.0
  11
 230.20150293018
  21
 231.40984551920
  31
0.0
  12
 227.38027123884
  22
 231.40984551920
  32
0.0
  13
 227.38027123884
  23
 231.40984551920
  33
0.0
   0
SOLID
   5
174
 100
AcDbEntity
   8
0
 100
AcDbTrace
   6
CONTINUOUS
  62
8
  10
 228.79088708451
  20
 268.40984551920
  30
0.0
  11
 227.38027123884
  21
 260.40984551920
  31
0.0
  12
 230.20150293018
  22
 260.40984551920
  32
0.0
  13
 230.20150293018
  23
 260.40984551920
  33
0.0
   0
MTEXT
   5
175
 100
AcDbEntity
   8
0
 370
15
  62
8
 100
AcDbMText
  10
 224.79088708451
  20
 245.90984551920
  30
0.0
  40
 10.000000000000
  41
0.0
  71
8
  72
1
   1
\A1;45
   7
GMM001
  11
0.0
  21
 1.0000000000000
  31
0.0
   0
ENDBLK
   5
176
 100
AcDbEntity
   8
0
 100
AcDbBlockEnd
   0
BLOCK
   5
177
 100
AcDbEntity
   8
0
 100
AcDbBlockBegin
   2
*D19
  70
65
  10
0.0
  20
0.0
  30
0.0
   3
*D19
   0
LINE
   5
178
 100
AcDbEntity
   8
0
 370
15
 100
AcDbLine
   6
CONTINUOUS
  62
8
  10
 986.25032869988
  20
 240.78446174601
  30
0.0
  11
 986.25032869988
  21
 169.48148035566
  31
0.0
   0
LINE
   5
179
 100
AcDbEntity
   8
0
 370
15
 100
AcDbLine
   6
CONTINUOUS
  62
8
  10
 1031.2503286999
  20
 240.78446174601
  30
0.0
  11
 1031.2503286999
  21
 169.48148035566
  31
0.0
   0
LINE
   5
17A
 100
AcDbEntity
   8
0
 370
15
 100
AcDbLine
   6
CONTINUOUS
  62
8
  10
 986.25032869988
  20
 173.48148035566
  30
0.0
  11
 1008.7503286999
  21
 173.48148035566
  31
0.0
   0
LINE
   5
17B
 100
AcDbEntity
   8
0
 370
15
 100
AcDbLine
   6
CONTINUOUS
  62
8
  10
 1031.2503286999
  20
 173.48148035566
  30
0.0
  11
 1008.7503286999
  21
 173.48148035566
  31
0.0
   0
SOLID
   5
17C
 100
AcDbEntity
   8
0
 100
AcDbTrace
   6
CONTINUOUS
  62
8
  10
 986.25032869988
  20
 173.48148035566
  30
0.0
  11
 994.25032869988
  21
 172.07086450999
  31
0.0
  12
 994.25032869988
  22
 174.89209620133
  32
0.0
  13
 994.25032869988
  23
 174.89209620133
  33
0.0
   0
SOLID
   5
17D
 100
AcDbEntity
   8
0
 100
AcDbTrace
   6
CONTINUOUS
  62
8
  10
 1031.2503286999
  20
 173.48148035566
  30
0.0
  11
 1023.2503286999
  21
 174.89209620133
  31
0.0
  12
 1023.2503286999
  22
 172.07086450999
  32
0.0
  13
 1023.2503286999
  23
 172.07086450999
  33
0.0
   0
MTEXT
   5
17E
 100
AcDbEntity
   8
0
 370
15
  62
8
 100
AcDbMText
  10
 1008.7503286999
  20
 177.48148035566
  30
0.0
  40
 10.000000000000
  41
0.0
  71
8
  72
1
   1
\A1;45
   7
GMM001
   0
ENDBLK
   5
17F
 100
AcDbEntity
   8
0
 100
AcDbBlockEnd
   0
BLOCK
   5
180
 100
AcDbEntity
   8
0
 100
AcDbBlockBegin
   2
*D20
  70
65
  10
0.0
  20
0.0
  30
0.0
   3
*D20
   0
LINE
   5
181
 100
AcDbEntity
   8
0
 370
15
 100
AcDbLine
   6
CONTINUOUS
  62
8
  10
 1002.2503286999
  20
 240.78446174601
  30
0.0
  11
 1002.2503286999
  21
 194.08521190677
  31
0.0
   0
LINE
   5
182
 100
AcDbEntity
   8
0
 370
15
 100
AcDbLine
   6
CONTINUOUS
  62
8
  10
 1015.2503286999
  20
 240.78446174601
  30
0.0
  11
 1015.2503286999
  21
 194.08521190677
  31
0.0
   0
LINE
   5
183
 100
AcDbEntity
   8
0
 370
15
 100
AcDbLine
   6
CONTINUOUS
  62
8
  10
 992.25032869988
  20
 198.08521190677
  30
0.0
  11
 1008.7503286999
  21
 198.08521190677
  31
0.0
   0
LINE
   5
184
 100
AcDbEntity
   8
0
 370
15
 100
AcDbLine
   6
CONTINUOUS
  62
8
  10
 1049.7574702089
  20
 198.08521190677
  30
0.0
  11
 1008.7503286999
  21
 198.08521190677
  31
0.0
   0
SOLID
   5
185
 100
AcDbEntity
   8
0
 100
AcDbTrace
   6
CONTINUOUS
  62
8
  10
 1002.2503286999
  20
 198.08521190677
  30
0.0
  11
 994.25032869988
  21
 199.49582775244
  31
0.0
  12
 994.25032869988
  22
 196.67459606110
  32
0.0
  13
 994.25032869988
  23
 196.67459606110
  33
0.0
   0
SOLID
   5
186
 100
AcDbEntity
   8
0
 100
AcDbTrace
   6
CONTINUOUS
  62
8
  10
 1015.2503286999
  20
 198.08521190677
  30
0.0
  11
 1023.2503286999
  21
 196.67459606110
  31
0.0
  12
 1023.2503286999
  22
 199.49582775244
  32
0.0
  13
 1023.2503286999
  23
 199.49582775244
  33
0.0
   0
MTEXT
   5
187
 100
AcDbEntity
   8
0
 370
15
  62
8
 100
AcDbMText
  10
 1031.7574702089
  20
 200.63380561326
  30
0.0
  40
 10.000000000000
  41
0.0
  71
7
  72
1
   1
\A1;13
   7
GMM001
   0
ENDBLK
   5
188
 100
AcDbEntity
   8
0
 100
AcDbBlockEnd
   0
BLOCK
   5
189
 100
AcDbEntity
   8
0
 100
AcDbBlockBegin
   2
*D21
  70
65
  10
0.0
  20
0.0
  30
0.0
   3
*D21
   0
LINE
   5
18A
 100
AcDbEntity
   8
0
 370
15
 100
AcDbLine
   6
CONTINUOUS
  62
8
  10
 897.29972385253
  20
 244.78446174601
  30
0.0
  11
 949.94376367609
  21
 244.78446174601
  31
0.0
   0
LINE
   5
18B
 100
AcDbEntity
   8
0
 370
15
 100
AcDbLine
   6
CONTINUOUS
  62
8
  10
 921.29972385254
  20
 279.78446174601
  30
0.0
  11
 949.94376367609
  21
 279.78446174601
  31
0.0
   0
LINE
   5
18C
 100
AcDbEntity
   8
0
 370
15
 100
AcDbLine
   6
CONTINUOUS
  62
8
  10
 945.94376367609
  20
 244.78446174601
  30
0.0
  11
 945.94376367609
  21
 262.28446174601
  31
0.0
   0
LINE
   5
18D
 100
AcDbEntity
   8
0
 370
15
 100
AcDbLine
   6
CONTINUOUS
  62
8
  10
 945.94376367609
  20
 279.78446174601
  30
0.0
  11
 945.94376367609
  21
 262.28446174601
  31
0.0
   0
SOLID
   5
18E
 100
AcDbEntity
   8
0
 100
AcDbTrace
   6
CONTINUOUS
  62
8
  10
 945.94376367609
  20
 244.78446174601
  30
0.0
  11
 947.35437952176
  21
 252.78446174601
  31
0.0
  12
 944.53314783042
  22
 252.78446174601
  32
0.0
  13
 944.53314783042
  23
 252.78446174601
  33
0.0
   0
SOLID
   5
18F
 100
AcDbEntity
   8
0
 100
AcDbTrace
   6
CONTINUOUS
  62
8
  10
 945.94376367609
  20
 279.78446174601
  30
0.0
  11
 944.53314783042
  21
 271.78446174601
  31
0.0
  12
 947.35437952176
  22
 271.78446174601
  32
0.0
  13
 947.35437952176
  23
 271.78446174601
  33
0.0
   0
MTEXT
   5
190
 100
AcDbEntity
   8
0
 370
15
  62
8
 100
AcDbMText
  10
 941.94376367609
  20
 262.28446174601
  30
0.0
  40
 10.000000000000
  41
0.0
  71
8
  72
1
   1
\A1;35
   7
GMM001
  11
0.0
  21
 1.0000000000000
  31
0.0
   0
ENDBLK
   5
191
 100
AcDbEntity
   8
0
 100
AcDbBlockEnd
   0
BLOCK
   5
192
 100
AcDbEntity
   8
0
 100
AcDbBlockBegin
   2
*D22
  70
65
  10
0.0
  20
0.0
  30
0.0
   3
*D22
   0
LINE
   5
193
 100
AcDbEntity
   8
0
 370
15
 100
AcDbLine
   6
CONTINUOUS
  62
8
  10
 850.29972385254
  20
 218.28446174601
  30
0.0
  11
 850.29972385254
  21
 194.08521190677
  31
0.0
   0
LINE
   5
194
 100
AcDbEntity
   8
0
 370
15
 100
AcDbLine
   6
CONTINUOUS
  62
8
  10
 823.31803829570
  20
 198.08521190677
  30
0.0
  11
 852.29972385254
  21
 198.08521190677
  31
0.0
   0
LINE
   5
195
 100
AcDbEntity
   8
0
 370
15
 100
AcDbLine
   6
CONTINUOUS
  62
8
  10
 854.29972385254
  20
 198.08521190677
  30
0.0
  11
 852.29972385254
  21
 198.08521190677
  31
0.0
   0
SOLID
   5
196
 100
AcDbEntity
   8
0
 100
AcDbTrace
   6
CONTINUOUS
  62
8
  10
 850.29972385254
  20
 198.08521190677
  30
0.0
  11
 842.29972385254
  21
 199.49582775244
  31
0.0
  12
 842.29972385254
  22
 196.67459606110
  32
0.0
  13
 842.29972385254
  23
 196.67459606110
  33
0.0
   0
MTEXT
   5
197
 100
AcDbEntity
   8
0
 370
15
  62
8
 100
AcDbMText
  10
 845.31803829570
  20
 201.35263973560
  30
0.0
  40
 10.000000000000
  41
0.0
  71
9
  72
1
   1
\A1;3.5
   7
GMM001
   0
ENDBLK
   5
198
 100
AcDbEntity
   8
0
 100
AcDbBlockEnd
   0
BLOCK
   5
199
 100
AcDbEntity
   8
0
 100
AcDbBlockBegin
   2
*D23
  70
65
  10
0.0
  20
0.0
  30
0.0
   3
*D23
   0
LINE
   5
19A
 100
AcDbEntity
   8
0
 370
15
 100
AcDbLine
   6
CONTINUOUS
  62
8
  10
 854.29972385254
  20
 219.78446174601
  30
0.0
  11
 854.29972385254
  21
 194.08521190677
  31
0.0
   0
LINE
   5
19B
 100
AcDbEntity
   8
0
 370
15
 100
AcDbLine
   6
CONTINUOUS
  62
8
  10
 909.29972385254
  20
 255.28446174601
  30
0.0
  11
 909.29972385254
  21
 194.08521190677
  31
0.0
   0
LINE
   5
19C
 100
AcDbEntity
   8
0
 370
15
 100
AcDbLine
   6
CONTINUOUS
  62
8
  10
 854.29972385254
  20
 198.08521190677
  30
0.0
  11
 881.79972385254
  21
 198.08521190677
  31
0.0
   0
LINE
   5
19D
 100
AcDbEntity
   8
0
 370
15
 100
AcDbLine
   6
CONTINUOUS
  62
8
  10
 909.29972385254
  20
 198.08521190677
  30
0.0
  11
 881.79972385254
  21
 198.08521190677
  31
0.0
   0
SOLID
   5
19E
 100
AcDbEntity
   8
0
 100
AcDbTrace
   6
CONTINUOUS
  62
8
  10
 854.29972385254
  20
 198.08521190677
  30
0.0
  11
 862.29972385254
  21
 196.67459606110
  31
0.0
  12
 862.29972385254
  22
 199.49582775244
  32
0.0
  13
 862.29972385254
  23
 199.49582775244
  33
0.0
   0
SOLID
   5
19F
 100
AcDbEntity
   8
0
 100
AcDbTrace
   6
CONTINUOUS
  62
8
  10
 909.29972385254
  20
 198.08521190677
  30
0.0
  11
 901.29972385254
  21
 199.49582775244
  31
0.0
  12
 901.29972385254
  22
 196.67459606110
  32
0.0
  13
 901.29972385254
  23
 196.67459606110
  33
0.0
   0
MTEXT
   5
1A0
 100
AcDbEntity
   8
0
 370
15
  62
8
 100
AcDbMText
  10
 881.79972385254
  20
 202.08521190677
  30
0.0
  40
 10.000000000000
  41
0.0
  71
8
  72
1
   1
\A1;L
   7
GMM001
   0
ENDBLK
   5
1A1
 100
AcDbEntity
   8
0
 100
AcDbBlockEnd
   0
BLOCK
   5
1A2
 100
AcDbEntity
   8
0
 100
AcDbBlockBegin
   2
*D24
  70
65
  10
0.0
  20
0.0
  30
0.0
   3
*D24
   0
LINE
   5
1A3
 100
AcDbEntity
   8
0
 370
15
 100
AcDbLine
   6
CONTINUOUS
  62
8
  10
 846.29972385254
  20
 222.28446174601
  30
0.0
  11
 827.79088708432
  21
 222.28446174601
  31
0.0
   0
LINE
   5
1A4
 100
AcDbEntity
   8
0
 370
15
 100
AcDbLine
   6
CONTINUOUS
  62
8
  10
 846.29972385254
  20
 267.28446174601
  30
0.0
  11
 827.79088708432
  21
 267.28446174601
  31
0.0
   0
LINE
   5
1A5
 100
AcDbEntity
   8
0
 370
15
 100
AcDbLine
   6
CONTINUOUS
  62
8
  10
 831.79088708432
  20
 222.28446174601
  30
0.0
  11
 831.79088708432
  21
 244.78446174601
  31
0.0
   0
LINE
   5
1A6
 100
AcDbEntity
   8
0
 370
15
 100
AcDbLine
   6
CONTINUOUS
  62
8
  10
 831.79088708432
  20
 267.28446174601
  30
0.0
  11
 831.79088708432
  21
 244.78446174601
  31
0.0
   0
SOLID
   5
1A7
 100
AcDbEntity
   8
0
 100
AcDbTrace
   6
CONTINUOUS
  62
8
  10
 831.79088708432
  20
 222.28446174601
  30
0.0
  11
 833.20150292999
  21
 230.28446174601
  31
0.0
  12
 830.38027123865
  22
 230.28446174601
  32
0.0
  13
 830.38027123865
  23
 230.28446174601
  33
0.0
   0
SOLID
   5
1A8
 100
AcDbEntity
   8
0
 100
AcDbTrace
   6
CONTINUOUS
  62
8
  10
 831.79088708432
  20
 267.28446174601
  30
0.0
  11
 830.38027123865
  21
 259.28446174601
  31
0.0
  12
 833.20150292999
  22
 259.28446174601
  32
0.0
  13
 833.20150292999
  23
 259.28446174601
  33
0.0
   0
MTEXT
   5
1A9
 100
AcDbEntity
   8
0
 370
15
  62
8
 100
AcDbMText
  10
 827.79088708432
  20
 244.78446174601
  30
0.0
  40
 10.000000000000
  41
0.0
  71
8
  72
1
   1
\A1;45
   7
GMM001
  11
0.0
  21
 1.0000000000000
  31
0.0
   0
ENDBLK
   5
1AA
 100
AcDbEntity
   8
0
 100
AcDbBlockEnd
   0
BLOCK
   5
1AB
 100
AcDbEntity
   8
0
 100
AcDbBlockBegin
   2
*D25
  70
65
  10
0.0
  20
0.0
  30
0.0
   3
*D25
   0
LINE
   5
1AC
 100
AcDbEntity
   8
0
 370
15
 100
AcDbLine
   6
CONTINUOUS
  62
8
  10
 296.29972385273
  20
 287.40984551920
  30
0.0
  11
 296.29972385273
  21
 307.40984551920
  31
0.0
   0
LINE
   5
1AD
 100
AcDbEntity
   8
0
 370
15
 100
AcDbLine
   6
CONTINUOUS
  62
8
  10
 316.29972385273
  20
 287.40984551920
  30
0.0
  11
 316.29972385273
  21
 307.40984551920
  31
0.0
   0
LINE
   5
1AE
 100
AcDbEntity
   8
0
 370
15
 100
AcDbLine
   6
CONTINUOUS
  62
8
  10
 296.29972385273
  20
 303.40984551920
  30
0.0
  11
 306.29972385273
  21
 303.40984551920
  31
0.0
   0
LINE
   5
1AF
 100
AcDbEntity
   8
0
 370
15
 100
AcDbLine
   6
CONTINUOUS
  62
8
  10
 316.29972385273
  20
 303.40984551920
  30
0.0
  11
 306.29972385273
  21
 303.40984551920
  31
0.0
   0
SOLID
   5
1B0
 100
AcDbEntity
   8
0
 100
AcDbTrace
   6
CONTINUOUS
  62
8
  10
 296.29972385273
  20
 303.40984551920
  30
0.0
  11
 304.29972385273
  21
 301.99922967353
  31
0.0
  12
 304.29972385273
  22
 304.82046136486
  32
0.0
  13
 304.29972385273
  23
 304.82046136486
  33
0.0
   0
SOLID
   5
1B1
 100
AcDbEntity
   8
0
 100
AcDbTrace
   6
CONTINUOUS
  62
8
  10
 316.29972385273
  20
 303.40984551920
  30
0.0
  11
 308.29972385273
  21
 304.82046136486
  31
0.0
  12
 308.29972385273
  22
 301.99922967353
  32
0.0
  13
 308.29972385273
  23
 301.99922967353
  33
0.0
   0
MTEXT
   5
1B2
 100
AcDbEntity
   8
0
 370
15
  62
8
 100
AcDbMText
  10
 306.29972385273
  20
 307.40984551920
  30
0.0
  40
 10.000000000000
  41
0.0
  71
8
  72
1
   1
\A1;20
   7
GMM001
   0
ENDBLK
   5
1B3
 100
AcDbEntity
   8
0
 100
AcDbBlockEnd
   0
BLOCK
   5
1B4
 100
AcDbEntity
   8
0
 100
AcDbBlockBegin
   2
*D26
  70
65
  10
0.0
  20
0.0
  30
0.0
   3
*D26
   0
LINE
   5
1B5
 100
AcDbEntity
   8
0
 370
15
 100
AcDbLine
   6
CONTINUOUS
  62
8
  10
 365.75032870007
  20
 287.40984551920
  30
0.0
  11
 365.75032870007
  21
 307.40984551920
  31
0.0
   0
LINE
   5
1B6
 100
AcDbEntity
   8
0
 370
15
 100
AcDbLine
   6
CONTINUOUS
  62
8
  10
 445.75032870007
  20
 287.40984551920
  30
0.0
  11
 445.75032870007
  21
 307.40984551920
  31
0.0
   0
LINE
   5
1B7
 100
AcDbEntity
   8
0
 370
15
 100
AcDbLine
   6
CONTINUOUS
  62
8
  10
 365.75032870007
  20
 303.40984551920
  30
0.0
  11
 405.75032870007
  21
 303.40984551920
  31
0.0
   0
LINE
   5
1B8
 100
AcDbEntity
   8
0
 370
15
 100
AcDbLine
   6
CONTINUOUS
  62
8
  10
 445.75032870007
  20
 303.40984551920
  30
0.0
  11
 405.75032870007
  21
 303.40984551920
  31
0.0
   0
SOLID
   5
1B9
 100
AcDbEntity
   8
0
 100
AcDbTrace
   6
CONTINUOUS
  62
8
  10
 365.75032870007
  20
 303.40984551920
  30
0.0
  11
 373.75032870007
  21
 301.99922967353
  31
0.0
  12
 373.75032870007
  22
 304.82046136486
  32
0.0
  13
 373.75032870007
  23
 304.82046136486
  33
0.0
   0
SOLID
   5
1BA
 100
AcDbEntity
   8
0
 100
AcDbTrace
   6
CONTINUOUS
  62
8
  10
 445.75032870007
  20
 303.40984551920
  30
0.0
  11
 437.75032870007
  21
 304.82046136486
  31
0.0
  12
 437.75032870007
  22
 301.99922967353
  32
0.0
  13
 437.75032870007
  23
 301.99922967353
  33
0.0
   0
MTEXT
   5
1BB
 100
AcDbEntity
   8
0
 370
15
  62
8
 100
AcDbMText
  10
 405.75032870007
  20
 307.40984551920
  30
0.0
  40
 10.000000000000
  41
0.0
  71
8
  72
1
   1
\A1;80
   7
GMM001
   0
ENDBLK
   5
1BC
 100
AcDbEntity
   8
0
 100
AcDbBlockEnd
   0
BLOCK
   5
1BD
 100
AcDbEntity
   8
0
 100
AcDbBlockBegin
   2
*D27
  70
65
  10
0.0
  20
0.0
  30
0.0
   3
*D27
   0
LINE
   5
1BE
 100
AcDbEntity
   8
0
 370
15
 100
AcDbLine
   6
CONTINUOUS
  62
8
  10
 449.75032870007
  20
 280.90984551920
  30
0.0
  11
 483.62651318024
  21
 280.90984551920
  31
0.0
   0
LINE
   5
1BF
 100
AcDbEntity
   8
0
 370
15
 100
AcDbLine
   6
CONTINUOUS
  62
8
  10
 449.75032870007
  20
 283.40984551920
  30
0.0
  11
 483.62651318024
  21
 283.40984551920
  31
0.0
   0
LINE
   5
1C0
 100
AcDbEntity
   8
0
 370
15
 100
AcDbLine
   6
CONTINUOUS
  62
8
  10
 479.62651318024
  20
 270.90984551920
  30
0.0
  11
 479.62651318024
  21
 282.15984551920
  31
0.0
   0
LINE
   5
1C1
 100
AcDbEntity
   8
0
 370
15
 100
AcDbLine
   6
CONTINUOUS
  62
8
  10
 479.62651318024
  20
 314.28528943675
  30
0.0
  11
 479.62651318024
  21
 282.15984551920
  31
0.0
   0
SOLID
   5
1C2
 100
AcDbEntity
   8
0
 100
AcDbTrace
   6
CONTINUOUS
  62
8
  10
 479.62651318024
  20
 280.90984551920
  30
0.0
  11
 478.21589733458
  21
 272.90984551920
  31
0.0
  12
 481.03712902591
  22
 272.90984551920
  32
0.0
  13
 481.03712902591
  23
 272.90984551920
  33
0.0
   0
SOLID
   5
1C3
 100
AcDbEntity
   8
0
 100
AcDbTrace
   6
CONTINUOUS
  62
8
  10
 479.62651318024
  20
 283.40984551920
  30
0.0
  11
 481.03712902591
  21
 291.40984551920
  31
0.0
  12
 478.21589733458
  22
 291.40984551920
  32
0.0
  13
 478.21589733458
  23
 291.40984551920
  33
0.0
   0
MTEXT
   5
1C4
 100
AcDbEntity
   8
0
 370
15
  62
8
 100
AcDbMText
  10
 475.21548561128
  20
 292.28528943675
  30
0.0
  40
 10.000000000000
  41
0.0
  71
7
  72
1
   1
\A1;2.5
   7
GMM001
  11
0.0
  21
 1.0000000000000
  31
0.0
   0
ENDBLK
   5
1C5
 100
AcDbEntity
   8
0
 100
AcDbBlockEnd
   0
BLOCK
   5
1C6
 100
AcDbEntity
   8
0
 100
AcDbBlockBegin
   2
*D28
  70
65
  10
0.0
  20
0.0
  30
0.0
   3
*D28
   0
LINE
   5
1C7
 100
AcDbEntity
   8
0
 370
15
 100
AcDbLine
   6
CONTINUOUS
  62
8
  10
 447.75032870007
  20
 392.35911197202
  30
0.0
  11
 483.62651318024
  21
 392.35911197202
  31
0.0
   0
LINE
   5
1C8
 100
AcDbEntity
   8
0
 370
15
 100
AcDbLine
   6
CONTINUOUS
  62
8
  10
 447.75032870007
  20
 412.35911197202
  30
0.0
  11
 483.62651318024
  21
 412.35911197202
  31
0.0
   0
LINE
   5
1C9
 100
AcDbEntity
   8
0
 370
15
 100
AcDbLine
   6
CONTINUOUS
  62
8
  10
 479.62651318024
  20
 392.35911197202
  30
0.0
  11
 479.62651318024
  21
 402.35911197202
  31
0.0
   0
LINE
   5
1CA
 100
AcDbEntity
   8
0
 370
15
 100
AcDbLine
   6
CONTINUOUS
  62
8
  10
 479.62651318024
  20
 412.35911197202
  30
0.0
  11
 479.62651318024
  21
 402.35911197202
  31
0.0
   0
SOLID
   5
1CB
 100
AcDbEntity
   8
0
 100
AcDbTrace
   6
CONTINUOUS
  62
8
  10
 479.62651318024
  20
 392.35911197202
  30
0.0
  11
 481.03712902591
  21
 400.35911197202
  31
0.0
  12
 478.21589733458
  22
 400.35911197202
  32
0.0
  13
 478.21589733458
  23
 400.35911197202
  33
0.0
   0
SOLID
   5
1CC
 100
AcDbEntity
   8
0
 100
AcDbTrace
   6
CONTINUOUS
  62
8
  10
 479.62651318024
  20
 412.35911197202
  30
0.0
  11
 478.21589733458
  21
 404.35911197202
  31
0.0
  12
 481.03712902591
  22
 404.35911197202
  32
0.0
  13
 481.03712902591
  23
 404.35911197202
  33
0.0
   0
MTEXT
   5
1CD
 100
AcDbEntity
   8
0
 370
15
  62
8
 100
AcDbMText
  10
 475.62651318024
  20
 402.35911197202
  30
0.0
  40
 10.000000000000
  41
0.0
  71
8
  72
1
   1
\A1;20
   7
GMM001
  11
0.0
  21
 1.0000000000000
  31
0.0
   0
ENDBLK
   5
1CE
 100
AcDbEntity
   8
0
 100
AcDbBlockEnd
   0
BLOCK
   5
1CF
 100
AcDbEntity
   8
0
 100
AcDbBlockBegin
   2
*D29
  70
65
  10
0.0
  20
0.0
  30
0.0
   3
*D29
   0
LINE
   5
1D0
 100
AcDbEntity
   8
0
 370
15
 100
AcDbLine
   6
CONTINUOUS
  62
8
  10
 365.75032870007
  20
 390.35911197202
  30
0.0
  11
 365.75032870007
  21
 339.93107055665
  31
0.0
   0
LINE
   5
1D1
 100
AcDbEntity
   8
0
 370
15
 100
AcDbLine
   6
CONTINUOUS
  62
8
  10
 445.75032870007
  20
 390.35911197202
  30
0.0
  11
 445.75032870007
  21
 339.93107055665
  31
0.0
   0
LINE
   5
1D2
 100
AcDbEntity
   8
0
 370
15
 100
AcDbLine
   6
CONTINUOUS
  62
8
  10
 365.75032870007
  20
 343.93107055665
  30
0.0
  11
 405.75032870007
  21
 343.93107055665
  31
0.0
   0
LINE
   5
1D3
 100
AcDbEntity
   8
0
 370
15
 100
AcDbLine
   6
CONTINUOUS
  62
8
  10
 445.75032870007
  20
 343.93107055665
  30
0.0
  11
 405.75032870007
  21
 343.93107055665
  31
0.0
   0
SOLID
   5
1D4
 100
AcDbEntity
   8
0
 100
AcDbTrace
   6
CONTINUOUS
  62
8
  10
 365.75032870007
  20
 343.93107055665
  30
0.0
  11
 373.75032870007
  21
 342.52045471098
  31
0.0
  12
 373.75032870007
  22
 345.34168640231
  32
0.0
  13
 373.75032870007
  23
 345.34168640231
  33
0.0
   0
SOLID
   5
1D5
 100
AcDbEntity
   8
0
 100
AcDbTrace
   6
CONTINUOUS
  62
8
  10
 445.75032870007
  20
 343.93107055665
  30
0.0
  11
 437.75032870007
  21
 345.34168640231
  31
0.0
  12
 437.75032870007
  22
 342.52045471098
  32
0.0
  13
 437.75032870007
  23
 342.52045471098
  33
0.0
   0
MTEXT
   5
1D6
 100
AcDbEntity
   8
0
 370
15
  62
8
 100
AcDbMText
  10
 405.75032870007
  20
 347.93107055665
  30
0.0
  40
 10.000000000000
  41
0.0
  71
8
  72
1
   1
\A1;80
   7
GMM001
   0
ENDBLK
   5
1D7
 100
AcDbEntity
   8
0
 100
AcDbBlockEnd
   0
BLOCK
   5
1D8
 100
AcDbEntity
   8
0
 100
AcDbBlockBegin
   2
*D30
  70
65
  10
0.0
  20
0.0
  30
0.0
   3
*D30
   0
LINE
   5
1D9
 100
AcDbEntity
   8
0
 370
15
 100
AcDbLine
   6
CONTINUOUS
  62
8
  10
 375.75032870007
  20
 395.10821272424
  30
0.0
  11
 375.75032870007
  21
 362.42731115834
  31
0.0
   0
LINE
   5
1DA
 100
AcDbEntity
   8
0
 370
15
 100
AcDbLine
   6
CONTINUOUS
  62
8
  10
 435.75032870007
  20
 390.43487152291
  30
0.0
  11
 435.75032870007
  21
 362.42731115834
  31
0.0
   0
LINE
   5
1DB
 100
AcDbEntity
   8
0
 370
15
 100
AcDbLine
   6
CONTINUOUS
  62
8
  10
 375.75032870007
  20
 366.42731115834
  30
0.0
  11
 405.75032870007
  21
 366.42731115834
  31
0.0
   0
LINE
   5
1DC
 100
AcDbEntity
   8
0
 370
15
 100
AcDbLine
   6
CONTINUOUS
  62
8
  10
 435.75032870007
  20
 366.42731115834
  30
0.0
  11
 405.75032870007
  21
 366.42731115834
  31
0.0
   0
SOLID
   5
1DD
 100
AcDbEntity
   8
0
 100
AcDbTrace
   6
CONTINUOUS
  62
8
  10
 375.75032870007
  20
 366.42731115834
  30
0.0
  11
 383.75032870007
  21
 365.01669531267
  31
0.0
  12
 383.75032870007
  22
 367.83792700401
  32
0.0
  13
 383.75032870007
  23
 367.83792700401
  33
0.0
   0
SOLID
   5
1DE
 100
AcDbEntity
   8
0
 100
AcDbTrace
   6
CONTINUOUS
  62
8
  10
 435.75032870007
  20
 366.42731115834
  30
0.0
  11
 427.75032870007
  21
 367.83792700401
  31
0.0
  12
 427.75032870007
  22
 365.01669531267
  32
0.0
  13
 427.75032870007
  23
 365.01669531267
  33
0.0
   0
MTEXT
   5
1DF
 100
AcDbEntity
   8
0
 370
15
  62
8
 100
AcDbMText
  10
 405.75032870007
  20
 370.42731115834
  30
0.0
  40
 10.000000000000
  41
0.0
  71
8
  72
1
   1
\A1;60
   7
GMM001
   0
ENDBLK
   5
1E0
 100
AcDbEntity
   8
0
 100
AcDbBlockEnd
   0
BLOCK
   5
1E1
 100
AcDbEntity
   8
0
 100
AcDbBlockBegin
   2
*D31
  70
65
  10
0.0
  20
0.0
  30
0.0
   3
*D31
   0
LINE
   5
1E2
 100
AcDbEntity
   8
0
 370
15
 100
AcDbLine
   6
CONTINUOUS
  62
8
  10
 449.29665718044
  20
 947.10047435941
  30
0.0
  11
 485.17284166061
  21
 947.10047435941
  31
0.0
   0
LINE
   5
1E3
 100
AcDbEntity
   8
0
 370
15
 100
AcDbLine
   6
CONTINUOUS
  62
8
  10
 449.29665718044
  20
 967.10047435941
  30
0.0
  11
 485.17284166061
  21
 967.10047435941
  31
0.0
   0
LINE
   5
1E4
 100
AcDbEntity
   8
0
 370
15
 100
AcDbLine
   6
CONTINUOUS
  62
8
  10
 481.17284166061
  20
 947.10047435941
  30
0.0
  11
 481.17284166061
  21
 957.10047435941
  31
0.0
   0
LINE
   5
1E5
 100
AcDbEntity
   8
0
 370
15
 100
AcDbLine
   6
CONTINUOUS
  62
8
  10
 481.17284166061
  20
 967.10047435941
  30
0.0
  11
 481.17284166061
  21
 957.10047435941
  31
0.0
   0
SOLID
   5
1E6
 100
AcDbEntity
   8
0
 100
AcDbTrace
   6
CONTINUOUS
  62
8
  10
 481.17284166061
  20
 947.10047435941
  30
0.0
  11
 482.58345750628
  21
 955.10047435941
  31
0.0
  12
 479.76222581495
  22
 955.10047435941
  32
0.0
  13
 479.76222581495
  23
 955.10047435941
  33
0.0
   0
SOLID
   5
1E7
 100
AcDbEntity
   8
0
 100
AcDbTrace
   6
CONTINUOUS
  62
8
  10
 481.17284166061
  20
 967.10047435941
  30
0.0
  11
 479.76222581495
  21
 959.10047435941
  31
0.0
  12
 482.58345750628
  22
 959.10047435941
  32
0.0
  13
 482.58345750628
  23
 959.10047435941
  33
0.0
   0
MTEXT
   5
1E8
 100
AcDbEntity
   8
0
 370
15
  62
8
 100
AcDbMText
  10
 477.17284166061
  20
 957.10047435941
  30
0.0
  40
 10.000000000000
  41
0.0
  71
8
  72
1
   1
\A1;20
   7
GMM001
  11
0.0
  21
 1.0000000000000
  31
0.0
   0
ENDBLK
   5
1E9
 100
AcDbEntity
   8
0
 100
AcDbBlockEnd
   0
BLOCK
   5
1EA
 100
AcDbEntity
   8
0
 100
AcDbBlockBegin
   2
*D32
  70
65
  10
0.0
  20
0.0
  30
0.0
   3
*D32
   0
LINE
   5
1EB
 100
AcDbEntity
   8
0
 370
15
 100
AcDbLine
   6
CONTINUOUS
  62
8
  10
 367.29665718044
  20
 945.10047435941
  30
0.0
  11
 367.29665718044
  21
 894.67243294404
  31
0.0
   0
LINE
   5
1EC
 100
AcDbEntity
   8
0
 370
15
 100
AcDbLine
   6
CONTINUOUS
  62
8
  10
 447.29665718044
  20
 945.10047435941
  30
0.0
  11
 447.29665718044
  21
 894.67243294404
  31
0.0
   0
LINE
   5
1ED
 100
AcDbEntity
   8
0
 370
15
 100
AcDbLine
   6
CONTINUOUS
  62
8
  10
 367.29665718044
  20
 898.67243294404
  30
0.0
  11
 407.29665718044
  21
 898.67243294404
  31
0.0
   0
LINE
   5
1EE
 100
AcDbEntity
   8
0
 370
15
 100
AcDbLine
   6
CONTINUOUS
  62
8
  10
 447.29665718044
  20
 898.67243294404
  30
0.0
  11
 407.29665718044
  21
 898.67243294404
  31
0.0
   0
SOLID
   5
1EF
 100
AcDbEntity
   8
0
 100
AcDbTrace
   6
CONTINUOUS
  62
8
  10
 367.29665718044
  20
 898.67243294404
  30
0.0
  11
 375.29665718044
  21
 897.26181709837
  31
0.0
  12
 375.29665718044
  22
 900.08304878970
  32
0.0
  13
 375.29665718044
  23
 900.08304878970
  33
0.0
   0
SOLID
   5
1F0
 100
AcDbEntity
   8
0
 100
AcDbTrace
   6
CONTINUOUS
  62
8
  10
 447.29665718044
  20
 898.67243294404
  30
0.0
  11
 439.29665718044
  21
 900.08304878970
  31
0.0
  12
 439.29665718044
  22
 897.26181709837
  32
0.0
  13
 439.29665718044
  23
 897.26181709837
  33
0.0
   0
MTEXT
   5
1F1
 100
AcDbEntity
   8
0
 370
15
  62
8
 100
AcDbMText
  10
 407.29665718044
  20
 902.67243294404
  30
0.0
  40
 10.000000000000
  41
0.0
  71
8
  72
1
   1
\A1;80
   7
GMM001
   0
ENDBLK
   5
1F2
 100
AcDbEntity
   8
0
 100
AcDbBlockEnd
   0
BLOCK
   5
1F3
 100
AcDbEntity
   8
0
 100
AcDbBlockBegin
   2
*D33
  70
65
  10
0.0
  20
0.0
  30
0.0
   3
*D33
   0
LINE
   5
1F4
 100
AcDbEntity
   8
0
 370
15
 100
AcDbLine
   6
CONTINUOUS
  62
8
  10
 377.29665718044
  20
 949.84957511163
  30
0.0
  11
 377.29665718044
  21
 917.16867354573
  31
0.0
   0
LINE
   5
1F5
 100
AcDbEntity
   8
0
 370
15
 100
AcDbLine
   6
CONTINUOUS
  62
8
  10
 437.29665718044
  20
 945.17623391030
  30
0.0
  11
 437.29665718044
  21
 917.16867354573
  31
0.0
   0
LINE
   5
1F6
 100
AcDbEntity
   8
0
 370
15
 100
AcDbLine
   6
CONTINUOUS
  62
8
  10
 377.29665718044
  20
 921.16867354573
  30
0.0
  11
 407.29665718044
  21
 921.16867354573
  31
0.0
   0
LINE
   5
1F7
 100
AcDbEntity
   8
0
 370
15
 100
AcDbLine
   6
CONTINUOUS
  62
8
  10
 437.29665718044
  20
 921.16867354573
  30
0.0
  11
 407.29665718044
  21
 921.16867354573
  31
0.0
   0
SOLID
   5
1F8
 100
AcDbEntity
   8
0
 100
AcDbTrace
   6
CONTINUOUS
  62
8
  10
 377.29665718044
  20
 921.16867354573
  30
0.0
  11
 385.29665718044
  21
 919.75805770006
  31
0.0
  12
 385.29665718044
  22
 922.57928939140
  32
0.0
  13
 385.29665718044
  23
 922.57928939140
  33
0.0
   0
SOLID
   5
1F9
 100
AcDbEntity
   8
0
 100
AcDbTrace
   6
CONTINUOUS
  62
8
  10
 437.29665718044
  20
 921.16867354573
  30
0.0
  11
 429.29665718044
  21
 922.57928939140
  31
0.0
  12
 429.29665718044
  22
 919.75805770006
  32
0.0
  13
 429.29665718044
  23
 919.75805770006
  33
0.0
   0
MTEXT
   5
1FA
 100
AcDbEntity
   8
0
 370
15
  62
8
 100
AcDbMText
  10
 407.29665718044
  20
 925.16867354573
  30
0.0
  40
 10.000000000000
  41
0.0
  71
8
  72
1
   1
\A1;60
   7
GMM001
   0
ENDBLK
   5
1FB
 100
AcDbEntity
   8
0
 100
AcDbBlockEnd
   0
BLOCK
   5
1FC
 100
AcDbEntity
   8
0
 100
AcDbBlockBegin
   2
*D34
  70
65
  10
0.0
  20
0.0
  30
0.0
   3
*D34
   0
LINE
   5
1FD
 100
AcDbEntity
   8
0
 370
15
 100
AcDbLine
   6
CONTINUOUS
  62
8
  10
 451.29665718043
  20
 835.65120790659
  30
0.0
  11
 485.17284166060
  21
 835.65120790659
  31
0.0
   0
LINE
   5
1FE
 100
AcDbEntity
   8
0
 370
15
 100
AcDbLine
   6
CONTINUOUS
  62
8
  10
 451.29665718043
  20
 838.15120790659
  30
0.0
  11
 485.17284166060
  21
 838.15120790659
  31
0.0
   0
LINE
   5
1FF
 100
AcDbEntity
   8
0
 370
15
 100
AcDbLine
   6
CONTINUOUS
  62
8
  10
 481.17284166060
  20
 825.65120790659
  30
0.0
  11
 481.17284166060
  21
 836.90120790659
  31
0.0
   0
LINE
   5
200
 100
AcDbEntity
   8
0
 370
15
 100
AcDbLine
   6
CONTINUOUS
  62
8
  10
 481.17284166060
  20
 869.02665182413
  30
0.0
  11
 481.17284166060
  21
 836.90120790659
  31
0.0
   0
SOLID
   5
201
 100
AcDbEntity
   8
0
 100
AcDbTrace
   6
CONTINUOUS
  62
8
  10
 481.17284166060
  20
 835.65120790659
  30
0.0
  11
 479.76222581494
  21
 827.65120790659
  31
0.0
  12
 482.58345750627
  22
 827.65120790659
  32
0.0
  13
 482.58345750627
  23
 827.65120790659
  33
0.0
   0
SOLID
   5
202
 100
AcDbEntity
   8
0
 100
AcDbTrace
   6
CONTINUOUS
  62
8
  10
 481.17284166060
  20
 838.15120790659
  30
0.0
  11
 482.58345750627
  21
 846.15120790659
  31
0.0
  12
 479.76222581494
  22
 846.15120790659
  32
0.0
  13
 479.76222581494
  23
 846.15120790659
  33
0.0
   0
MTEXT
   5
203
 100
AcDbEntity
   8
0
 370
15
  62
8
 100
AcDbMText
  10
 476.76181409164
  20
 847.02665182413
  30
0.0
  40
 10.000000000000
  41
0.0
  71
7
  72
1
   1
\A1;2.5
   7
GMM001
  11
0.0
  21
 1.0000000000000
  31
0.0
   0
ENDBLK
   5
204
 100
AcDbEntity
   8
0
 100
AcDbBlockEnd
   0
BLOCK
   5
205
 100
AcDbEntity
   8
0
 100
AcDbBlockBegin
   2
*D35
  70
65
  10
0.0
  20
0.0
  30
0.0
   3
*D35
   0
LINE
   5
206
 100
AcDbEntity
   8
0
 370
15
 100
AcDbLine
   6
CONTINUOUS
  62
8
  10
 367.29665718043
  20
 842.15120790659
  30
0.0
  11
 367.29665718043
  21
 862.15120790659
  31
0.0
   0
LINE
   5
207
 100
AcDbEntity
   8
0
 370
15
 100
AcDbLine
   6
CONTINUOUS
  62
8
  10
 447.29665718043
  20
 842.15120790659
  30
0.0
  11
 447.29665718043
  21
 862.15120790659
  31
0.0
   0
LINE
   5
208
 100
AcDbEntity
   8
0
 370
15
 100
AcDbLine
   6
CONTINUOUS
  62
8
  10
 367.29665718043
  20
 858.15120790659
  30
0.0
  11
 407.29665718043
  21
 858.15120790659
  31
0.0
   0
LINE
   5
209
 100
AcDbEntity
   8
0
 370
15
 100
AcDbLine
   6
CONTINUOUS
  62
8
  10
 447.29665718043
  20
 858.15120790659
  30
0.0
  11
 407.29665718043
  21
 858.15120790659
  31
0.0
   0
SOLID
   5
20A
 100
AcDbEntity
   8
0
 100
AcDbTrace
   6
CONTINUOUS
  62
8
  10
 367.29665718043
  20
 858.15120790659
  30
0.0
  11
 375.29665718043
  21
 856.74059206092
  31
0.0
  12
 375.29665718043
  22
 859.56182375225
  32
0.0
  13
 375.29665718043
  23
 859.56182375225
  33
0.0
   0
SOLID
   5
20B
 100
AcDbEntity
   8
0
 100
AcDbTrace
   6
CONTINUOUS
  62
8
  10
 447.29665718043
  20
 858.15120790659
  30
0.0
  11
 439.29665718043
  21
 859.56182375225
  31
0.0
  12
 439.29665718043
  22
 856.74059206092
  32
0.0
  13
 439.29665718043
  23
 856.74059206092
  33
0.0
   0
MTEXT
   5
20C
 100
AcDbEntity
   8
0
 370
15
  62
8
 100
AcDbMText
  10
 407.29665718043
  20
 862.15120790659
  30
0.0
  40
 10.000000000000
  41
0.0
  71
8
  72
1
   1
\A1;80
   7
GMM001
   0
ENDBLK
   5
20D
 100
AcDbEntity
   8
0
 100
AcDbBlockEnd
   0
BLOCK
   5
20E
 100
AcDbEntity
   8
0
 100
AcDbBlockBegin
   2
*D36
  70
65
  10
0.0
  20
0.0
  30
0.0
   3
*D36
   0
LINE
   5
20F
 100
AcDbEntity
   8
0
 370
15
 100
AcDbLine
   6
CONTINUOUS
  62
8
  10
 297.84605233309
  20
 842.15120790659
  30
0.0
  11
 297.84605233309
  21
 862.15120790659
  31
0.0
   0
LINE
   5
210
 100
AcDbEntity
   8
0
 370
15
 100
AcDbLine
   6
CONTINUOUS
  62
8
  10
 317.84605233309
  20
 842.15120790659
  30
0.0
  11
 317.84605233309
  21
 862.15120790659
  31
0.0
   0
LINE
   5
211
 100
AcDbEntity
   8
0
 370
15
 100
AcDbLine
   6
CONTINUOUS
  62
8
  10
 297.84605233309
  20
 858.15120790659
  30
0.0
  11
 307.84605233309
  21
 858.15120790659
  31
0.0
   0
LINE
   5
212
 100
AcDbEntity
   8
0
 370
15
 100
AcDbLine
   6
CONTINUOUS
  62
8
  10
 317.84605233309
  20
 858.15120790659
  30
0.0
  11
 307.84605233309
  21
 858.15120790659
  31
0.0
   0
SOLID
   5
213
 100
AcDbEntity
   8
0
 100
AcDbTrace
   6
CONTINUOUS
  62
8
  10
 297.84605233309
  20
 858.15120790659
  30
0.0
  11
 305.84605233309
  21
 856.74059206092
  31
0.0
  12
 305.84605233309
  22
 859.56182375225
  32
0.0
  13
 305.84605233309
  23
 859.56182375225
  33
0.0
   0
SOLID
   5
214
 100
AcDbEntity
   8
0
 100
AcDbTrace
   6
CONTINUOUS
  62
8
  10
 317.84605233309
  20
 858.15120790659
  30
0.0
  11
 309.84605233309
  21
 859.56182375225
  31
0.0
  12
 309.84605233309
  22
 856.74059206092
  32
0.0
  13
 309.84605233309
  23
 856.74059206092
  33
0.0
   0
MTEXT
   5
215
 100
AcDbEntity
   8
0
 370
15
  62
8
 100
AcDbMText
  10
 307.84605233309
  20
 862.15120790659
  30
0.0
  40
 10.000000000000
  41
0.0
  71
8
  72
1
   1
\A1;20
   7
GMM001
   0
ENDBLK
   5
216
 100
AcDbEntity
   8
0
 100
AcDbBlockEnd
   0
BLOCK
   5
217
 100
AcDbEntity
   8
0
 100
AcDbBlockBegin
   2
*D37
  70
65
  10
0.0
  20
0.0
  30
0.0
   3
*D37
   0
LINE
   5
218
 100
AcDbEntity
   8
0
 370
15
 100
AcDbLine
   6
CONTINUOUS
  62
8
  10
 968.75032869988
  20
 386.73372819884
  30
0.0
  11
 968.75032869988
  21
 339.93107055665
  31
0.0
   0
LINE
   5
219
 100
AcDbEntity
   8
0
 370
15
 100
AcDbLine
   6
CONTINUOUS
  62
8
  10
 1048.7503286999
  20
 386.73372819884
  30
0.0
  11
 1048.7503286999
  21
 339.93107055665
  31
0.0
   0
LINE
   5
21A
 100
AcDbEntity
   8
0
 370
15
 100
AcDbLine
   6
CONTINUOUS
  62
8
  10
 968.75032869988
  20
 343.93107055665
  30
0.0
  11
 1008.7503286999
  21
 343.93107055665
  31
0.0
   0
LINE
   5
21B
 100
AcDbEntity
   8
0
 370
15
 100
AcDbLine
   6
CONTINUOUS
  62
8
  10
 1048.7503286999
  20
 343.93107055665
  30
0.0
  11
 1008.7503286999
  21
 343.93107055665
  31
0.0
   0
SOLID
   5
21C
 100
AcDbEntity
   8
0
 100
AcDbTrace
   6
CONTINUOUS
  62
8
  10
 968.75032869988
  20
 343.93107055665
  30
0.0
  11
 976.75032869988
  21
 342.52045471098
  31
0.0
  12
 976.75032869988
  22
 345.34168640231
  32
0.0
  13
 976.75032869988
  23
 345.34168640231
  33
0.0
   0
SOLID
   5
21D
 100
AcDbEntity
   8
0
 100
AcDbTrace
   6
CONTINUOUS
  62
8
  10
 1048.7503286999
  20
 343.93107055665
  30
0.0
  11
 1040.7503286999
  21
 345.34168640231
  31
0.0
  12
 1040.7503286999
  22
 342.52045471098
  32
0.0
  13
 1040.7503286999
  23
 342.52045471098
  33
0.0
   0
MTEXT
   5
21E
 100
AcDbEntity
   8
0
 370
15
  62
8
 100
AcDbMText
  10
 1008.7503286999
  20
 347.93107055665
  30
0.0
  40
 10.000000000000
  41
0.0
  71
8
  72
1
   1
\A1;80
   7
GMM001
   0
ENDBLK
   5
21F
 100
AcDbEntity
   8
0
 100
AcDbBlockEnd
   0
BLOCK
   5
220
 100
AcDbEntity
   8
0
 100
AcDbBlockBegin
   2
*D38
  70
65
  10
0.0
  20
0.0
  30
0.0
   3
*D38
   0
LINE
   5
221
 100
AcDbEntity
   8
0
 370
15
 100
AcDbLine
   6
CONTINUOUS
  62
8
  10
 978.75032869988
  20
 395.71628074666
  30
0.0
  11
 978.75032869988
  21
 362.42731115834
  31
0.0
   0
LINE
   5
222
 100
AcDbEntity
   8
0
 370
15
 100
AcDbLine
   6
CONTINUOUS
  62
8
  10
 1038.7503286999
  20
 385.71628074666
  30
0.0
  11
 1038.7503286999
  21
 362.42731115834
  31
0.0
   0
LINE
   5
223
 100
AcDbEntity
   8
0
 370
15
 100
AcDbLine
   6
CONTINUOUS
  62
8
  10
 978.75032869988
  20
 366.42731115834
  30
0.0
  11
 1008.7503286999
  21
 366.42731115834
  31
0.0
   0
LINE
   5
224
 100
AcDbEntity
   8
0
 370
15
 100
AcDbLine
   6
CONTINUOUS
  62
8
  10
 1038.7503286999
  20
 366.42731115834
  30
0.0
  11
 1008.7503286999
  21
 366.42731115834
  31
0.0
   0
SOLID
   5
225
 100
AcDbEntity
   8
0
 100
AcDbTrace
   6
CONTINUOUS
  62
8
  10
 978.75032869988
  20
 366.42731115834
  30
0.0
  11
 986.75032869988
  21
 365.01669531267
  31
0.0
  12
 986.75032869988
  22
 367.83792700401
  32
0.0
  13
 986.75032869988
  23
 367.83792700401
  33
0.0
   0
SOLID
   5
226
 100
AcDbEntity
   8
0
 100
AcDbTrace
   6
CONTINUOUS
  62
8
  10
 1038.7503286999
  20
 366.42731115834
  30
0.0
  11
 1030.7503286999
  21
 367.83792700401
  31
0.0
  12
 1030.7503286999
  22
 365.01669531267
  32
0.0
  13
 1030.7503286999
  23
 365.01669531267
  33
0.0
   0
MTEXT
   5
227
 100
AcDbEntity
   8
0
 370
15
  62
8
 100
AcDbMText
  10
 1008.7503286999
  20
 370.42731115834
  30
0.0
  40
 10.000000000000
  41
0.0
  71
8
  72
1
   1
\A1;60
   7
GMM001
   0
ENDBLK
   5
228
 100
AcDbEntity
   8
0
 100
AcDbBlockEnd
   0
BLOCK
   5
229
 100
AcDbEntity
   8
0
 100
AcDbBlockBegin
   2
*D39
  70
65
  10
0.0
  20
0.0
  30
0.0
   3
*D39
   0
LINE
   5
22A
 100
AcDbEntity
   8
0
 370
15
 100
AcDbLine
   6
CONTINUOUS
  62
8
  10
 896.79972385254
  20
 286.28446174601
  30
0.0
  11
 896.79972385254
  21
 307.40984551920
  31
0.0
   0
LINE
   5
22B
 100
AcDbEntity
   8
0
 370
15
 100
AcDbLine
   6
CONTINUOUS
  62
8
  10
 921.79972385254
  20
 286.28446174601
  30
0.0
  11
 921.79972385254
  21
 307.40984551920
  31
0.0
   0
LINE
   5
22C
 100
AcDbEntity
   8
0
 370
15
 100
AcDbLine
   6
CONTINUOUS
  62
8
  10
 896.79972385254
  20
 303.40984551920
  30
0.0
  11
 909.29972385254
  21
 303.40984551920
  31
0.0
   0
LINE
   5
22D
 100
AcDbEntity
   8
0
 370
15
 100
AcDbLine
   6
CONTINUOUS
  62
8
  10
 921.79972385254
  20
 303.40984551920
  30
0.0
  11
 909.29972385254
  21
 303.40984551920
  31
0.0
   0
SOLID
   5
22E
 100
AcDbEntity
   8
0
 100
AcDbTrace
   6
CONTINUOUS
  62
8
  10
 896.79972385254
  20
 303.40984551920
  30
0.0
  11
 904.79972385254
  21
 301.99922967353
  31
0.0
  12
 904.79972385254
  22
 304.82046136486
  32
0.0
  13
 904.79972385254
  23
 304.82046136486
  33
0.0
   0
SOLID
   5
22F
 100
AcDbEntity
   8
0
 100
AcDbTrace
   6
CONTINUOUS
  62
8
  10
 921.79972385254
  20
 303.40984551920
  30
0.0
  11
 913.79972385254
  21
 304.82046136486
  31
0.0
  12
 913.79972385254
  22
 301.99922967353
  32
0.0
  13
 913.79972385254
  23
 301.99922967353
  33
0.0
   0
MTEXT
   5
230
 100
AcDbEntity
   8
0
 370
15
  62
8
 100
AcDbMText
  10
 909.29972385254
  20
 307.40984551920
  30
0.0
  40
 10.000000000000
  41
0.0
  71
8
  72
1
   1
\A1;25
   7
GMM001
   0
ENDBLK
   5
231
 100
AcDbEntity
   8
0
 100
AcDbBlockEnd
   0
BLOCK
   5
232
 100
AcDbEntity
   8
0
 100
AcDbBlockBegin
   2
*D40
  70
65
  10
0.0
  20
0.0
  30
0.0
   3
*D40
   0
LINE
   5
233
 100
AcDbEntity
   8
0
 370
15
 100
AcDbLine
   6
CONTINUOUS
  62
8
  10
 968.75032869988
  20
 286.28446174601
  30
0.0
  11
 968.75032869988
  21
 307.40984551920
  31
0.0
   0
LINE
   5
234
 100
AcDbEntity
   8
0
 370
15
 100
AcDbLine
   6
CONTINUOUS
  62
8
  10
 1048.7503286999
  20
 286.28446174601
  30
0.0
  11
 1048.7503286999
  21
 307.40984551920
  31
0.0
   0
LINE
   5
235
 100
AcDbEntity
   8
0
 370
15
 100
AcDbLine
   6
CONTINUOUS
  62
8
  10
 968.75032869988
  20
 303.40984551920
  30
0.0
  11
 1008.7503286999
  21
 303.40984551920
  31
0.0
   0
LINE
   5
236
 100
AcDbEntity
   8
0
 370
15
 100
AcDbLine
   6
CONTINUOUS
  62
8
  10
 1048.7503286999
  20
 303.40984551920
  30
0.0
  11
 1008.7503286999
  21
 303.40984551920
  31
0.0
   0
SOLID
   5
237
 100
AcDbEntity
   8
0
 100
AcDbTrace
   6
CONTINUOUS
  62
8
  10
 968.75032869988
  20
 303.40984551920
  30
0.0
  11
 976.75032869988
  21
 301.99922967353
  31
0.0
  12
 976.75032869988
  22
 304.82046136486
  32
0.0
  13
 976.75032869988
  23
 304.82046136486
  33
0.0
   0
SOLID
   5
238
 100
AcDbEntity
   8
0
 100
AcDbTrace
   6
CONTINUOUS
  62
8
  10
 1048.7503286999
  20
 303.40984551920
  30
0.0
  11
 1040.7503286999
  21
 304.82046136486
  31
0.0
  12
 1040.7503286999
  22
 301.99922967353
  32
0.0
  13
 1040.7503286999
  23
 301.99922967353
  33
0.0
   0
MTEXT
   5
239
 100
AcDbEntity
   8
0
 370
15
  62
8
 100
AcDbMText
  10
 1008.7503286999
  20
 307.40984551920
  30
0.0
  40
 10.000000000000
  41
0.0
  71
8
  72
1
   1
\A1;80
   7
GMM001
   0
ENDBLK
   5
23A
 100
AcDbEntity
   8
0
 100
AcDbBlockEnd
   0
BLOCK
   5
23B
 100
AcDbEntity
   8
0
 100
AcDbBlockBegin
   2
*D41
  70
65
  10
0.0
  20
0.0
  30
0.0
   3
*D41
   0
LINE
   5
23C
 100
AcDbEntity
   8
0
 370
15
 100
AcDbLine
   6
CONTINUOUS
  62
8
  10
 1052.7503286999
  20
 279.78446174601
  30
0.0
  11
 1086.6265131801
  21
 279.78446174601
  31
0.0
   0
LINE
   5
23D
 100
AcDbEntity
   8
0
 370
15
 100
AcDbLine
   6
CONTINUOUS
  62
8
  10
 1052.7503286999
  20
 282.28446174601
  30
0.0
  11
 1086.6265131801
  21
 282.28446174601
  31
0.0
   0
LINE
   5
23E
 100
AcDbEntity
   8
0
 370
15
 100
AcDbLine
   6
CONTINUOUS
  62
8
  10
 1082.6265131801
  20
 269.78446174601
  30
0.0
  11
 1082.6265131801
  21
 281.03446174601
  31
0.0
   0
LINE
   5
23F
 100
AcDbEntity
   8
0
 370
15
 100
AcDbLine
   6
CONTINUOUS
  62
8
  10
 1082.6265131801
  20
 313.15990566356
  30
0.0
  11
 1082.6265131801
  21
 281.03446174601
  31
0.0
   0
SOLID
   5
240
 100
AcDbEntity
   8
0
 100
AcDbTrace
   6
CONTINUOUS
  62
8
  10
 1082.6265131801
  20
 279.78446174601
  30
0.0
  11
 1081.2158973344
  21
 271.78446174601
  31
0.0
  12
 1084.0371290257
  22
 271.78446174601
  32
0.0
  13
 1084.0371290257
  23
 271.78446174601
  33
0.0
   0
SOLID
   5
241
 100
AcDbEntity
   8
0
 100
AcDbTrace
   6
CONTINUOUS
  62
8
  10
 1082.6265131801
  20
 282.28446174601
  30
0.0
  11
 1084.0371290257
  21
 290.28446174601
  31
0.0
  12
 1081.2158973344
  22
 290.28446174601
  32
0.0
  13
 1081.2158973344
  23
 290.28446174601
  33
0.0
   0
MTEXT
   5
242
 100
AcDbEntity
   8
0
 370
15
  62
8
 100
AcDbMText
  10
 1078.2154856111
  20
 291.15990566356
  30
0.0
  40
 10.000000000000
  41
0.0
  71
7
  72
1
   1
\A1;2.5
   7
GMM001
  11
0.0
  21
 1.0000000000000
  31
0.0
   0
ENDBLK
   5
243
 100
AcDbEntity
   8
0
 100
AcDbBlockEnd
   0
BLOCK
   5
244
 100
AcDbEntity
   8
0
 100
AcDbBlockBegin
   2
*D42
  70
65
  10
0.0
  20
0.0
  30
0.0
   3
*D42
   0
LINE
   5
245
 100
AcDbEntity
   8
0
 370
15
 100
AcDbLine
   6
CONTINUOUS
  62
8
  10
 1050.7503286999
  20
 388.73372819884
  30
0.0
  11
 1086.6265131801
  21
 388.73372819884
  31
0.0
   0
LINE
   5
246
 100
AcDbEntity
   8
0
 370
15
 100
AcDbLine
   6
CONTINUOUS
  62
8
  10
 1050.7503286999
  20
 413.73372819884
  30
0.0
  11
 1086.6265131801
  21
 413.73372819884
  31
0.0
   0
LINE
   5
247
 100
AcDbEntity
   8
0
 370
15
 100
AcDbLine
   6
CONTINUOUS
  62
8
  10
 1082.6265131801
  20
 388.73372819884
  30
0.0
  11
 1082.6265131801
  21
 401.23372819884
  31
0.0
   0
LINE
   5
248
 100
AcDbEntity
   8
0
 370
15
 100
AcDbLine
   6
CONTINUOUS
  62
8
  10
 1082.6265131801
  20
 413.73372819884
  30
0.0
  11
 1082.6265131801
  21
 401.23372819884
  31
0.0
   0
SOLID
   5
249
 100
AcDbEntity
   8
0
 100
AcDbTrace
   6
CONTINUOUS
  62
8
  10
 1082.6265131801
  20
 388.73372819884
  30
0.0
  11
 1084.0371290257
  21
 396.73372819884
  31
0.0
  12
 1081.2158973344
  22
 396.73372819884
  32
0.0
  13
 1081.2158973344
  23
 396.73372819884
  33
0.0
   0
SOLID
   5
24A
 100
AcDbEntity
   8
0
 100
AcDbTrace
   6
CONTINUOUS
  62
8
  10
 1082.6265131801
  20
 413.73372819884
  30
0.0
  11
 1081.2158973344
  21
 405.73372819884
  31
0.0
  12
 1084.0371290257
  22
 405.73372819884
  32
0.0
  13
 1084.0371290257
  23
 405.73372819884
  33
0.0
   0
MTEXT
   5
24B
 100
AcDbEntity
   8
0
 370
15
  62
8
 100
AcDbMText
  10
 1078.6265131801
  20
 401.23372819884
  30
0.0
  40
 10.000000000000
  41
0.0
  71
8
  72
1
   1
\A1;25
   7
GMM001
  11
0.0
  21
 1.0000000000000
  31
0.0
   0
ENDBLK
   5
24C
 100
AcDbEntity
   8
0
 100
AcDbBlockEnd
   0
BLOCK
   5
24D
 100
AcDbEntity
   8
0
 100
AcDbBlockBegin
   2
*D43
  70
65
  10
0.0
  20
0.0
  30
0.0
   3
*D43
   0
LINE
   5
24E
 100
AcDbEntity
   8
0
 370
15
 100
AcDbLine
   6
CONTINUOUS
  62
8
  10
 970.29665718043
  20
 942.60047435921
  30
0.0
  11
 970.29665718043
  21
 895.79781671702
  31
0.0
   0
LINE
   5
24F
 100
AcDbEntity
   8
0
 370
15
 100
AcDbLine
   6
CONTINUOUS
  62
8
  10
 1050.2966571804
  20
 942.60047435921
  30
0.0
  11
 1050.2966571804
  21
 895.79781671702
  31
0.0
   0
LINE
   5
250
 100
AcDbEntity
   8
0
 370
15
 100
AcDbLine
   6
CONTINUOUS
  62
8
  10
 970.29665718043
  20
 899.79781671702
  30
0.0
  11
 1010.2966571804
  21
 899.79781671702
  31
0.0
   0
LINE
   5
251
 100
AcDbEntity
   8
0
 370
15
 100
AcDbLine
   6
CONTINUOUS
  62
8
  10
 1050.2966571804
  20
 899.79781671702
  30
0.0
  11
 1010.2966571804
  21
 899.79781671702
  31
0.0
   0
SOLID
   5
252
 100
AcDbEntity
   8
0
 100
AcDbTrace
   6
CONTINUOUS
  62
8
  10
 970.29665718043
  20
 899.79781671702
  30
0.0
  11
 978.29665718043
  21
 898.38720087135
  31
0.0
  12
 978.29665718043
  22
 901.20843256269
  32
0.0
  13
 978.29665718043
  23
 901.20843256269
  33
0.0
   0
SOLID
   5
253
 100
AcDbEntity
   8
0
 100
AcDbTrace
   6
CONTINUOUS
  62
8
  10
 1050.2966571804
  20
 899.79781671702
  30
0.0
  11
 1042.2966571804
  21
 901.20843256269
  31
0.0
  12
 1042.2966571804
  22
 898.38720087135
  32
0.0
  13
 1042.2966571804
  23
 898.38720087135
  33
0.0
   0
MTEXT
   5
254
 100
AcDbEntity
   8
0
 370
15
  62
8
 100
AcDbMText
  10
 1010.2966571804
  20
 903.79781671702
  30
0.0
  40
 10.000000000000
  41
0.0
  71
8
  72
1
   1
\A1;80
   7
GMM001
   0
ENDBLK
   5
255
 100
AcDbEntity
   8
0
 100
AcDbBlockEnd
   0
BLOCK
   5
256
 100
AcDbEntity
   8
0
 100
AcDbBlockBegin
   2
*D44
  70
65
  10
0.0
  20
0.0
  30
0.0
   3
*D44
   0
LINE
   5
257
 100
AcDbEntity
   8
0
 370
15
 100
AcDbLine
   6
CONTINUOUS
  62
8
  10
 980.29665718043
  20
 951.58302690703
  30
0.0
  11
 980.29665718043
  21
 918.29405731871
  31
0.0
   0
LINE
   5
258
 100
AcDbEntity
   8
0
 370
15
 100
AcDbLine
   6
CONTINUOUS
  62
8
  10
 1040.2966571804
  20
 941.58302690703
  30
0.0
  11
 1040.2966571804
  21
 918.29405731871
  31
0.0
   0
LINE
   5
259
 100
AcDbEntity
   8
0
 370
15
 100
AcDbLine
   6
CONTINUOUS
  62
8
  10
 980.29665718043
  20
 922.29405731871
  30
0.0
  11
 1010.2966571804
  21
 922.29405731871
  31
0.0
   0
LINE
   5
25A
 100
AcDbEntity
   8
0
 370
15
 100
AcDbLine
   6
CONTINUOUS
  62
8
  10
 1040.2966571804
  20
 922.29405731871
  30
0.0
  11
 1010.2966571804
  21
 922.29405731871
  31
0.0
   0
SOLID
   5
25B
 100
AcDbEntity
   8
0
 100
AcDbTrace
   6
CONTINUOUS
  62
8
  10
 980.29665718043
  20
 922.29405731871
  30
0.0
  11
 988.29665718043
  21
 920.88344147305
  31
0.0
  12
 988.29665718043
  22
 923.70467316438
  32
0.0
  13
 988.29665718043
  23
 923.70467316438
  33
0.0
   0
SOLID
   5
25C
 100
AcDbEntity
   8
0
 100
AcDbTrace
   6
CONTINUOUS
  62
8
  10
 1040.2966571804
  20
 922.29405731871
  30
0.0
  11
 1032.2966571804
  21
 923.70467316438
  31
0.0
  12
 1032.2966571804
  22
 920.88344147305
  32
0.0
  13
 1032.2966571804
  23
 920.88344147305
  33
0.0
   0
MTEXT
   5
25D
 100
AcDbEntity
   8
0
 370
15
  62
8
 100
AcDbMText
  10
 1010.2966571804
  20
 926.29405731871
  30
0.0
  40
 10.000000000000
  41
0.0
  71
8
  72
1
   1
\A1;60
   7
GMM001
   0
ENDBLK
   5
25E
 100
AcDbEntity
   8
0
 100
AcDbBlockEnd
   0
BLOCK
   5
25F
 100
AcDbEntity
   8
0
 100
AcDbBlockBegin
   2
*D45
  70
65
  10
0.0
  20
0.0
  30
0.0
   3
*D45
   0
LINE
   5
260
 100
AcDbEntity
   8
0
 370
15
 100
AcDbLine
   6
CONTINUOUS
  62
8
  10
 1052.2966571804
  20
 944.60047435921
  30
0.0
  11
 1088.1728416606
  21
 944.60047435921
  31
0.0
   0
LINE
   5
261
 100
AcDbEntity
   8
0
 370
15
 100
AcDbLine
   6
CONTINUOUS
  62
8
  10
 1052.2966571804
  20
 969.60047435921
  30
0.0
  11
 1088.1728416606
  21
 969.60047435921
  31
0.0
   0
LINE
   5
262
 100
AcDbEntity
   8
0
 370
15
 100
AcDbLine
   6
CONTINUOUS
  62
8
  10
 1084.1728416606
  20
 944.60047435921
  30
0.0
  11
 1084.1728416606
  21
 957.10047435921
  31
0.0
   0
LINE
   5
263
 100
AcDbEntity
   8
0
 370
15
 100
AcDbLine
   6
CONTINUOUS
  62
8
  10
 1084.1728416606
  20
 969.60047435921
  30
0.0
  11
 1084.1728416606
  21
 957.10047435921
  31
0.0
   0
SOLID
   5
264
 100
AcDbEntity
   8
0
 100
AcDbTrace
   6
CONTINUOUS
  62
8
  10
 1084.1728416606
  20
 944.60047435921
  30
0.0
  11
 1085.5834575063
  21
 952.60047435921
  31
0.0
  12
 1082.7622258149
  22
 952.60047435921
  32
0.0
  13
 1082.7622258149
  23
 952.60047435921
  33
0.0
   0
SOLID
   5
265
 100
AcDbEntity
   8
0
 100
AcDbTrace
   6
CONTINUOUS
  62
8
  10
 1084.1728416606
  20
 969.60047435921
  30
0.0
  11
 1082.7622258149
  21
 961.60047435921
  31
0.0
  12
 1085.5834575063
  22
 961.60047435921
  32
0.0
  13
 1085.5834575063
  23
 961.60047435921
  33
0.0
   0
MTEXT
   5
266
 100
AcDbEntity
   8
0
 370
15
  62
8
 100
AcDbMText
  10
 1080.1728416606
  20
 957.10047435921
  30
0.0
  40
 10.000000000000
  41
0.0
  71
8
  72
1
   1
\A1;25
   7
GMM001
  11
0.0
  21
 1.0000000000000
  31
0.0
   0
ENDBLK
   5
267
 100
AcDbEntity
   8
0
 100
AcDbBlockEnd
   0
BLOCK
   5
268
 100
AcDbEntity
   8
0
 100
AcDbBlockBegin
   2
*D46
  70
65
  10
0.0
  20
0.0
  30
0.0
   3
*D46
   0
LINE
   5
269
 100
AcDbEntity
   8
0
 370
15
 100
AcDbLine
   6
CONTINUOUS
  62
8
  10
 898.34605233309
  20
 842.15120790638
  30
0.0
  11
 898.34605233309
  21
 863.27659167957
  31
0.0
   0
LINE
   5
26A
 100
AcDbEntity
   8
0
 370
15
 100
AcDbLine
   6
CONTINUOUS
  62
8
  10
 923.34605233309
  20
 842.15120790638
  30
0.0
  11
 923.34605233309
  21
 863.27659167957
  31
0.0
   0
LINE
   5
26B
 100
AcDbEntity
   8
0
 370
15
 100
AcDbLine
   6
CONTINUOUS
  62
8
  10
 898.34605233309
  20
 859.27659167957
  30
0.0
  11
 910.84605233309
  21
 859.27659167957
  31
0.0
   0
LINE
   5
26C
 100
AcDbEntity
   8
0
 370
15
 100
AcDbLine
   6
CONTINUOUS
  62
8
  10
 923.34605233309
  20
 859.27659167957
  30
0.0
  11
 910.84605233309
  21
 859.27659167957
  31
0.0
   0
SOLID
   5
26D
 100
AcDbEntity
   8
0
 100
AcDbTrace
   6
CONTINUOUS
  62
8
  10
 898.34605233309
  20
 859.27659167957
  30
0.0
  11
 906.34605233309
  21
 857.86597583390
  31
0.0
  12
 906.34605233309
  22
 860.68720752524
  32
0.0
  13
 906.34605233309
  23
 860.68720752524
  33
0.0
   0
SOLID
   5
26E
 100
AcDbEntity
   8
0
 100
AcDbTrace
   6
CONTINUOUS
  62
8
  10
 923.34605233309
  20
 859.27659167957
  30
0.0
  11
 915.34605233309
  21
 860.68720752524
  31
0.0
  12
 915.34605233309
  22
 857.86597583390
  32
0.0
  13
 915.34605233309
  23
 857.86597583390
  33
0.0
   0
MTEXT
   5
26F
 100
AcDbEntity
   8
0
 370
15
  62
8
 100
AcDbMText
  10
 910.84605233309
  20
 863.27659167957
  30
0.0
  40
 10.000000000000
  41
0.0
  71
8
  72
1
   1
\A1;25
   7
GMM001
   0
ENDBLK
   5
270
 100
AcDbEntity
   8
0
 100
AcDbBlockEnd
   0
BLOCK
   5
271
 100
AcDbEntity
   8
0
 100
AcDbBlockBegin
   2
*D47
  70
65
  10
0.0
  20
0.0
  30
0.0
   3
*D47
   0
LINE
   5
272
 100
AcDbEntity
   8
0
 370
15
 100
AcDbLine
   6
CONTINUOUS
  62
8
  10
 970.29665718043
  20
 842.15120790638
  30
0.0
  11
 970.29665718043
  21
 863.27659167957
  31
0.0
   0
LINE
   5
273
 100
AcDbEntity
   8
0
 370
15
 100
AcDbLine
   6
CONTINUOUS
  62
8
  10
 1050.2966571804
  20
 842.15120790638
  30
0.0
  11
 1050.2966571804
  21
 863.27659167957
  31
0.0
   0
LINE
   5
274
 100
AcDbEntity
   8
0
 370
15
 100
AcDbLine
   6
CONTINUOUS
  62
8
  10
 970.29665718043
  20
 859.27659167957
  30
0.0
  11
 1010.2966571804
  21
 859.27659167957
  31
0.0
   0
LINE
   5
275
 100
AcDbEntity
   8
0
 370
15
 100
AcDbLine
   6
CONTINUOUS
  62
8
  10
 1050.2966571804
  20
 859.27659167957
  30
0.0
  11
 1010.2966571804
  21
 859.27659167957
  31
0.0
   0
SOLID
   5
276
 100
AcDbEntity
   8
0
 100
AcDbTrace
   6
CONTINUOUS
  62
8
  10
 970.29665718043
  20
 859.27659167957
  30
0.0
  11
 978.29665718043
  21
 857.86597583390
  31
0.0
  12
 978.29665718043
  22
 860.68720752524
  32
0.0
  13
 978.29665718043
  23
 860.68720752524
  33
0.0
   0
SOLID
   5
277
 100
AcDbEntity
   8
0
 100
AcDbTrace
   6
CONTINUOUS
  62
8
  10
 1050.2966571804
  20
 859.27659167957
  30
0.0
  11
 1042.2966571804
  21
 860.68720752524
  31
0.0
  12
 1042.2966571804
  22
 857.86597583390
  32
0.0
  13
 1042.2966571804
  23
 857.86597583390
  33
0.0
   0
MTEXT
   5
278
 100
AcDbEntity
   8
0
 370
15
  62
8
 100
AcDbMText
  10
 1010.2966571804
  20
 863.27659167957
  30
0.0
  40
 10.000000000000
  41
0.0
  71
8
  72
1
   1
\A1;80
   7
GMM001
   0
ENDBLK
   5
279
 100
AcDbEntity
   8
0
 100
AcDbBlockEnd
   0
BLOCK
   5
27A
 100
AcDbEntity
   8
0
 100
AcDbBlockBegin
   2
*D48
  70
65
  10
0.0
  20
0.0
  30
0.0
   3
*D48
   0
LINE
   5
27B
 100
AcDbEntity
   8
0
 370
15
 100
AcDbLine
   6
CONTINUOUS
  62
8
  10
 1054.2966571804
  20
 835.65120790638
  30
0.0
  11
 1088.1728416606
  21
 835.65120790638
  31
0.0
   0
LINE
   5
27C
 100
AcDbEntity
   8
0
 370
15
 100
AcDbLine
   6
CONTINUOUS
  62
8
  10
 1054.2966571804
  20
 838.15120790638
  30
0.0
  11
 1088.1728416606
  21
 838.15120790638
  31
0.0
   0
LINE
   5
27D
 100
AcDbEntity
   8
0
 370
15
 100
AcDbLine
   6
CONTINUOUS
  62
8
  10
 1084.1728416606
  20
 825.65120790638
  30
0.0
  11
 1084.1728416606
  21
 836.90120790638
  31
0.0
   0
LINE
   5
27E
 100
AcDbEntity
   8
0
 370
15
 100
AcDbLine
   6
CONTINUOUS
  62
8
  10
 1084.1728416606
  20
 869.02665182393
  30
0.0
  11
 1084.1728416606
  21
 836.90120790638
  31
0.0
   0
SOLID
   5
27F
 100
AcDbEntity
   8
0
 100
AcDbTrace
   6
CONTINUOUS
  62
8
  10
 1084.1728416606
  20
 835.65120790638
  30
0.0
  11
 1082.7622258149
  21
 827.65120790638
  31
0.0
  12
 1085.5834575063
  22
 827.65120790638
  32
0.0
  13
 1085.5834575063
  23
 827.65120790638
  33
0.0
   0
SOLID
   5
280
 100
AcDbEntity
   8
0
 100
AcDbTrace
   6
CONTINUOUS
  62
8
  10
 1084.1728416606
  20
 838.15120790638
  30
0.0
  11
 1085.5834575063
  21
 846.15120790638
  31
0.0
  12
 1082.7622258149
  22
 846.15120790638
  32
0.0
  13
 1082.7622258149
  23
 846.15120790638
  33
0.0
   0
MTEXT
   5
281
 100
AcDbEntity
   8
0
 370
15
  62
8
 100
AcDbMText
  10
 1079.7618140916
  20
 847.02665182393
  30
0.0
  40
 10.000000000000
  41
0.0
  71
7
  72
1
   1
\A1;2.5
   7
GMM001
  11
0.0
  21
 1.0000000000000
  31
0.0
   0
ENDBLK
   5
282
 100
AcDbEntity
   8
0
 100
AcDbBlockEnd
   0
ENDSEC
   0
SECTION
   2
ENTITIES
   0
LINE
   5
283
 100
AcDbEntity
   8
LEVEL001
 370
40
 100
AcDbLine
   6
CONTINUOUS
  62
3
  10
 1268.0000000001
  20
 1027.0000000000
  30
0.0
  11
 1618.0000000001
  21
 1027.0000000000
  31
0.0
   0
LINE
   5
284
 100
AcDbEntity
   8
LEVEL001
 370
40
 100
AcDbLine
   6
CONTINUOUS
  62
3
  10
 1268.0000000001
  20
 947.00000000001
  30
0.0
  11
 1618.0000000001
  21
 947.00000000001
  31
0.0
   0
LINE
   5
285
 100
AcDbEntity
   8
LEVEL001
 370
40
 100
AcDbLine
   6
CONTINUOUS
  62
3
  10
 1268.0000000001
  20
 867.00000000001
  30
0.0
  11
 1618.0000000001
  21
 867.00000000001
  31
0.0
   0
LINE
   5
286
 100
AcDbEntity
   8
LEVEL001
 370
40
 100
AcDbLine
   6
CONTINUOUS
  62
3
  10
 1468.0000000001
  20
 208.00000000001
  30
0.0
  11
 1468.0000000001
  21
 48.000000000009
  31
0.0
   0
LINE
   5
287
 100
AcDbEntity
   8
LEVEL001
 370
40
 100
AcDbLine
   6
CONTINUOUS
  62
3
  10
 1268.0000000001
  20
 288.00000000001
  30
0.0
  11
 1618.0000000001
  21
 288.00000000001
  31
0.0
   0
LINE
   5
288
 100
AcDbEntity
   8
LEVEL001
 370
40
 100
AcDbLine
   6
CONTINUOUS
  62
3
  10
 1268.0000000001
  20
 208.00000000001
  30
0.0
  11
 1618.0000000001
  21
 208.00000000001
  31
0.0
   0
LINE
   5
289
 100
AcDbEntity
   8
LEVEL001
 370
40
 100
AcDbLine
   6
CONTINUOUS
  62
3
  10
 1268.0000000001
  20
 128.00000000001
  30
0.0
  11
 1618.0000000001
  21
 128.00000000001
  31
0.0
   0
LINE
   5
28A
 100
AcDbEntity
   8
LEVEL001
 370
40
 100
AcDbLine
   6
CONTINUOUS
  62
3
  10
 1468.0000000001
  20
 181.33333333334
  30
0.0
  11
 1618.0000000001
  21
 181.33333333334
  31
0.0
   0
LINE
   5
28B
 100
AcDbEntity
   8
LEVEL001
 370
40
 100
AcDbLine
   6
CONTINUOUS
  62
3
  10
 1468.0000000001
  20
 154.66666666668
  30
0.0
  11
 1618.0000000001
  21
 154.66666666668
  31
0.0
   0
LINE
   5
28C
 100
AcDbEntity
   8
LEVEL001
 370
40
 100
AcDbLine
   6
CONTINUOUS
  62
3
  10
 1409.8800000003
  20
 1087.3400000000
  30
0.0
  11
 1386.8400000003
  21
 1087.3400000000
  31
0.0
   0
LINE
   5
28D
 100
AcDbEntity
   8
LEVEL001
 370
40
 100
AcDbLine
   6
CONTINUOUS
  62
3
  10
 1386.8400000003
  20
 1087.3400000000
  30
0.0
  11
 1386.8400000003
  21
 1052.7800000000
  31
0.0
   0
LINE
   5
28E
 100
AcDbEntity
   8
LEVEL001
 370
40
 100
AcDbLine
   6
CONTINUOUS
  62
3
  10
 1386.8400000003
  20
 1052.7800000000
  30
0.0
  11
 1398.3600000003
  21
 1052.7800000000
  31
0.0
   0
LINE
   5
28F
 100
AcDbEntity
   8
LEVEL001
 370
40
 100
AcDbLine
   6
CONTINUOUS
  62
3
  10
 1398.3600000003
  20
 1052.7800000000
  30
0.0
  11
 1398.3600000003
  21
 1058.5400000000
  31
0.0
   0
LINE
   5
290
 100
AcDbEntity
   8
LEVEL001
 370
40
 100
AcDbLine
   6
CONTINUOUS
  62
3
  10
 1398.3600000003
  20
 1058.5400000000
  30
0.0
  11
 1409.8800000003
  21
 1058.5400000000
  31
0.0
   0
ARC
   5
291
 100
AcDbEntity
   8
LEVEL001
 370
40
   6
CONTINUOUS
  62
3
 100
AcDbCircle
  10
 1409.8800000003
  20
 1072.9400000000
  30
0.0
  40
 14.400000000000
 100
AcDbArc
  50
 270.00000000000
  51
 90.000000000000
   0
LINE
   5
292
 100
AcDbEntity
   8
LEVEL001
 370
40
 100
AcDbLine
   6
CONTINUOUS
  62
3
  10
 1398.3600000003
  20
 1070.0600000000
  30
0.0
  11
 1409.8800000003
  21
 1070.0600000000
  31
0.0
   0
ARC
   5
293
 100
AcDbEntity
   8
LEVEL001
 370
40
   6
CONTINUOUS
  62
3
 100
AcDbCircle
  10
 1409.8800000003
  20
 1072.9400000000
  30
0.0
  40
 2.8800000000000
 100
AcDbArc
  50
 270.00000000000
  51
 90.000000000000
   0
LINE
   5
294
 100
AcDbEntity
   8
LEVEL001
 370
40
 100
AcDbLine
   6
CONTINUOUS
  62
3
  10
 1409.8800000003
  20
 1075.8200000000
  30
0.0
  11
 1398.3600000003
  21
 1075.8200000000
  31
0.0
   0
LINE
   5
295
 100
AcDbEntity
   8
LEVEL001
 370
40
 100
AcDbLine
   6
CONTINUOUS
  62
3
  10
 1398.3600000003
  20
 1075.8200000000
  30
0.0
  11
 1398.3600000003
  21
 1070.0600000000
  31
0.0
   0
LINE
   5
296
 100
AcDbEntity
   8
LEVEL001
 370
40
 100
AcDbLine
   6
CONTINUOUS
  62
3
  10
 1415.6400000003
  20
 1052.7800000000
  30
0.0
  11
 1438.6800000003
  21
 1087.3400000000
  31
0.0
   0
LINE
   5
297
 100
AcDbEntity
   8
LEVEL001
 370
40
 100
AcDbLine
   6
CONTINUOUS
  62
3
  10
 1438.6800000003
  20
 1087.3400000000
  30
0.0
  11
 1467.4800000003
  21
 1087.3400000000
  31
0.0
   0
LINE
   5
298
 100
AcDbEntity
   8
LEVEL001
 370
40
 100
AcDbLine
   6
CONTINUOUS
  62
3
  10
 1467.4800000003
  20
 1087.3400000000
  30
0.0
  11
 1467.4800000003
  21
 1064.3000000000
  31
0.0
   0
LINE
   5
299
 100
AcDbEntity
   8
LEVEL001
 370
40
 100
AcDbLine
   6
CONTINUOUS
  62
3
  10
 1467.4800000003
  20
 1064.3000000000
  30
0.0
  11
 1484.7600000003
  21
 1064.3000000000
  31
0.0
   0
LINE
   5
29A
 100
AcDbEntity
   8
LEVEL001
 370
40
 100
AcDbLine
   6
CONTINUOUS
  62
3
  10
 1484.7600000003
  20
 1064.3000000000
  30
0.0
  11
 1484.7600000003
  21
 1075.8200000000
  31
0.0
   0
LINE
   5
29B
 100
AcDbEntity
   8
LEVEL001
 370
40
 100
AcDbLine
   6
CONTINUOUS
  62
3
  10
 1484.7600000003
  20
 1075.8200000000
  30
0.0
  11
 1473.2400000003
  21
 1075.8200000000
  31
0.0
   0
LINE
   5
29C
 100
AcDbEntity
   8
LEVEL001
 370
40
 100
AcDbLine
   6
CONTINUOUS
  62
3
  10
 1473.2400000003
  20
 1075.8200000000
  30
0.0
  11
 1473.2400000003
  21
 1087.3400000000
  31
0.0
   0
LINE
   5
29D
 100
AcDbEntity
   8
LEVEL001
 370
40
 100
AcDbLine
   6
CONTINUOUS
  62
3
  10
 1473.2400000003
  20
 1087.3400000000
  30
0.0
  11
 1542.3600000003
  21
 1087.3400000000
  31
0.0
   0
LINE
   5
29E
 100
AcDbEntity
   8
LEVEL001
 370
40
 100
AcDbLine
   6
CONTINUOUS
  62
3
  10
 1542.3600000003
  20
 1087.3400000000
  30
0.0
  11
 1542.3600000003
  21
 1075.8200000000
  31
0.0
   0
LINE
   5
29F
 100
AcDbEntity
   8
LEVEL001
 370
40
 100
AcDbLine
   6
CONTINUOUS
  62
3
  10
 1542.3600000003
  20
 1075.8200000000
  30
0.0
  11
 1519.3200000003
  21
 1075.8200000000
  31
0.0
   0
LINE
   5
2A0
 100
AcDbEntity
   8
LEVEL001
 370
40
 100
AcDbLine
   6
CONTINUOUS
  62
3
  10
 1519.3200000003
  20
 1075.8200000000
  30
0.0
  11
 1519.3200000003
  21
 1072.9400000000
  31
0.0
   0
LINE
   5
2A1
 100
AcDbEntity
   8
LEVEL001
 370
40
 100
AcDbLine
   6
CONTINUOUS
  62
3
  10
 1519.3200000003
  20
 1072.9400000000
  30
0.0
  11
 1539.4800000003
  21
 1072.9400000000
  31
0.0
   0
LINE
   5
2A2
 100
AcDbEntity
   8
LEVEL001
 370
40
 100
AcDbLine
   6
CONTINUOUS
  62
3
  10
 1539.4800000003
  20
 1072.9400000000
  30
0.0
  11
 1539.4800000003
  21
 1067.1800000000
  31
0.0
   0
LINE
   5
2A3
 100
AcDbEntity
   8
LEVEL001
 370
40
 100
AcDbLine
   6
CONTINUOUS
  62
3
  10
 1539.4800000003
  20
 1067.1800000000
  30
0.0
  11
 1519.3200000003
  21
 1067.1800000000
  31
0.0
   0
LINE
   5
2A4
 100
AcDbEntity
   8
LEVEL001
 370
40
 100
AcDbLine
   6
CONTINUOUS
  62
3
  10
 1519.3200000003
  20
 1067.1800000000
  30
0.0
  11
 1519.3200000003
  21
 1064.3000000000
  31
0.0
   0
LINE
   5
2A5
 100
AcDbEntity
   8
LEVEL001
 370
40
 100
AcDbLine
   6
CONTINUOUS
  62
3
  10
 1519.3200000003
  20
 1064.3000000000
  30
0.0
  11
 1542.3600000003
  21
 1064.3000000000
  31
0.0
   0
LINE
   5
2A6
 100
AcDbEntity
   8
LEVEL001
 370
40
 100
AcDbLine
   6
CONTINUOUS
  62
3
  10
 1542.3600000003
  20
 1064.3000000000
  30
0.0
  11
 1542.3600000003
  21
 1052.7800000000
  31
0.0
   0
LINE
   5
2A7
 100
AcDbEntity
   8
LEVEL001
 370
40
 100
AcDbLine
   6
CONTINUOUS
  62
3
  10
 1542.3600000003
  20
 1052.7800000000
  30
0.0
  11
 1507.8000000003
  21
 1052.7800000000
  31
0.0
   0
LINE
   5
2A8
 100
AcDbEntity
   8
LEVEL001
 370
40
 100
AcDbLine
   6
CONTINUOUS
  62
3
  10
 1507.8000000003
  20
 1052.7800000000
  30
0.0
  11
 1507.8000000003
  21
 1075.8200000000
  31
0.0
   0
LINE
   5
2A9
 100
AcDbEntity
   8
LEVEL001
 370
40
 100
AcDbLine
   6
CONTINUOUS
  62
3
  10
 1507.8000000003
  20
 1075.8200000000
  30
0.0
  11
 1496.2800000003
  21
 1075.8200000000
  31
0.0
   0
LINE
   5
2AA
 100
AcDbEntity
   8
LEVEL001
 370
40
 100
AcDbLine
   6
CONTINUOUS
  62
3
  10
 1496.2800000003
  20
 1075.8200000000
  30
0.0
  11
 1496.2800000003
  21
 1052.7800000000
  31
0.0
   0
LINE
   5
2AB
 100
AcDbEntity
   8
LEVEL001
 370
40
 100
AcDbLine
   6
CONTINUOUS
  62
3
  10
 1496.2800000003
  20
 1052.7800000000
  30
0.0
  11
 1455.9600000003
  21
 1052.7800000000
  31
0.0
   0
LINE
   5
2AC
 100
AcDbEntity
   8
LEVEL001
 370
40
 100
AcDbLine
   6
CONTINUOUS
  62
3
  10
 1455.9600000003
  20
 1052.7800000000
  30
0.0
  11
 1455.9600000003
  21
 1087.3400000000
  31
0.0
   0
LINE
   5
2AD
 100
AcDbEntity
   8
LEVEL001
 370
40
 100
AcDbLine
   6
CONTINUOUS
  62
3
  10
 1455.9600000003
  20
 1087.3400000000
  30
0.0
  11
 1432.9200000003
  21
 1052.7800000000
  31
0.0
   0
LINE
   5
2AE
 100
AcDbEntity
   8
LEVEL001
 370
40
 100
AcDbLine
   6
CONTINUOUS
  62
3
  10
 1432.9200000003
  20
 1052.7800000000
  30
0.0
  11
 1415.6400000003
  21
 1052.7800000000
  31
0.0
   0
LINE
   5
2AF
 100
AcDbEntity
   8
LEVEL001
 370
40
 100
AcDbLine
   6
CONTINUOUS
  62
3
  10
 1452.1200000003
  20
 1074.6573415511
  30
0.0
  11
 1437.5351056329
  21
 1052.7800000000
  31
0.0
   0
LINE
   5
2B0
 100
AcDbEntity
   8
LEVEL001
 370
40
 100
AcDbLine
   6
CONTINUOUS
  62
3
  10
 1437.5351056329
  20
 1052.7800000000
  30
0.0
  11
 1452.1200000003
  21
 1052.7800000000
  31
0.0
   0
LINE
   5
2B1
 100
AcDbEntity
   8
LEVEL001
 370
40
 100
AcDbLine
   6
CONTINUOUS
  62
3
  10
 1452.1200000003
  20
 1052.7800000000
  30
0.0
  11
 1452.1200000003
  21
 1074.6573415511
  31
0.0
   0
ARC
   5
2B2
 100
AcDbEntity
   8
LEVEL001
 370
40
   6
CONTINUOUS
  62
3
 100
AcDbCircle
  10
 1559.6400000003
  20
 1070.0600000000
  30
0.0
  40
 17.280000000000
 100
AcDbArc
  50
 90.000000000000
  51
 270.00000000000
   0
ARC
   5
2B3
 100
AcDbEntity
   8
LEVEL001
 370
40
   6
CONTINUOUS
  62
3
 100
AcDbCircle
  10
 1559.6400000003
  20
 1070.0600000000
  30
0.0
  40
 5.7600000000000
 100
AcDbArc
  50
 90.000000000000
  51
 270.00000000000
   0
LINE
   5
2B4
 100
AcDbEntity
   8
LEVEL001
 370
40
 100
AcDbLine
   6
CONTINUOUS
  62
3
  10
 1559.6400000003
  20
 1087.3400000000
  30
0.0
  11
 1576.9200000003
  21
 1087.3400000000
  31
0.0
   0
LINE
   5
2B5
 100
AcDbEntity
   8
LEVEL001
 370
40
 100
AcDbLine
   6
CONTINUOUS
  62
3
  10
 1576.9200000003
  20
 1087.3400000000
  30
0.0
  11
 1576.9200000003
  21
 1075.8200000000
  31
0.0
   0
LINE
   5
2B6
 100
AcDbEntity
   8
LEVEL001
 370
40
 100
AcDbLine
   6
CONTINUOUS
  62
3
  10
 1576.9200000003
  20
 1075.8200000000
  30
0.0
  11
 1559.6400000003
  21
 1075.8200000000
  31
0.0
   0
LINE
   5
2B7
 100
AcDbEntity
   8
LEVEL001
 370
40
 100
AcDbLine
   6
CONTINUOUS
  62
3
  10
 1386.8400000003
  20
 1087.3400000000
  30
0.0
  11
 1386.8400000003
  21
 1052.7800000000
  31
0.0
   0
LINE
   5
2B8
 100
AcDbEntity
   8
LEVEL001
 370
40
 100
AcDbLine
   6
CONTINUOUS
  62
3
  10
 1386.8400000003
  20
 1052.7800000000
  30
0.0
  11
 1398.3600000003
  21
 1052.7800000000
  31
0.0
   0
LINE
   5
2B9
 100
AcDbEntity
   8
LEVEL001
 370
40
 100
AcDbLine
   6
CONTINUOUS
  62
3
  10
 1398.3600000003
  20
 1052.7800000000
  30
0.0
  11
 1398.3600000003
  21
 1058.5400000000
  31
0.0
   0
LINE
   5
2BA
 100
AcDbEntity
   8
LEVEL001
 370
40
 100
AcDbLine
   6
CONTINUOUS
  62
3
  10
 1398.3600000003
  20
 1058.5400000000
  30
0.0
  11
 1409.8800000003
  21
 1058.5400000000
  31
0.0
   0
ARC
   5
2BB
 100
AcDbEntity
   8
LEVEL001
 370
40
   6
CONTINUOUS
  62
3
 100
AcDbCircle
  10
 1409.8800000003
  20
 1072.9400000000
  30
0.0
  40
 14.400000000000
 100
AcDbArc
  50
 270.00000000000
  51
 90.000000000000
   0
LINE
   5
2BC
 100
AcDbEntity
   8
LEVEL001
 370
40
 100
AcDbLine
   6
CONTINUOUS
  62
3
  10
 1409.8800000003
  20
 1087.3400000000
  30
0.0
  11
 1386.8400000003
  21
 1087.3400000000
  31
0.0
   0
LINE
   5
2BD
 100
AcDbEntity
   8
LEVEL001
 370
40
 100
AcDbLine
   6
CONTINUOUS
  62
3
  10
 1398.3600000003
  20
 1075.8200000000
  30
0.0
  11
 1398.3600000003
  21
 1070.0600000000
  31
0.0
   0
LINE
   5
2BE
 100
AcDbEntity
   8
LEVEL001
 370
40
 100
AcDbLine
   6
CONTINUOUS
  62
3
  10
 1398.3600000003
  20
 1070.0600000000
  30
0.0
  11
 1409.8800000003
  21
 1070.0600000000
  31
0.0
   0
ARC
   5
2BF
 100
AcDbEntity
   8
LEVEL001
 370
40
   6
CONTINUOUS
  62
3
 100
AcDbCircle
  10
 1409.8800000003
  20
 1072.9400000000
  30
0.0
  40
 2.8800000000000
 100
AcDbArc
  50
 270.00000000000
  51
 90.000000000000
   0
LINE
   5
2C0
 100
AcDbEntity
   8
LEVEL001
 370
40
 100
AcDbLine
   6
CONTINUOUS
  62
3
  10
 1409.8800000003
  20
 1075.8200000000
  30
0.0
  11
 1398.3600000003
  21
 1075.8200000000
  31
0.0
   0
LINE
   5
2C1
 100
AcDbEntity
   8
LEVEL001
 370
40
 100
AcDbLine
   6
CONTINUOUS
  62
3
  10
 1438.6800000003
  20
 1087.3400000000
  30
0.0
  11
 1415.6400000003
  21
 1052.7800000000
  31
0.0
   0
LINE
   5
2C2
 100
AcDbEntity
   8
LEVEL001
 370
40
 100
AcDbLine
   6
CONTINUOUS
  62
3
  10
 1415.6400000003
  20
 1052.7800000000
  30
0.0
  11
 1432.9200000003
  21
 1052.7800000000
  31
0.0
   0
LINE
   5
2C3
 100
AcDbEntity
   8
LEVEL001
 370
40
 100
AcDbLine
   6
CONTINUOUS
  62
3
  10
 1432.9200000003
  20
 1052.7800000000
  30
0.0
  11
 1455.9600000003
  21
 1087.3400000000
  31
0.0
   0
LINE
   5
2C4
 100
AcDbEntity
   8
LEVEL001
 370
40
 100
AcDbLine
   6
CONTINUOUS
  62
3
  10
 1455.9600000003
  20
 1087.3400000000
  30
0.0
  11
 1438.6800000003
  21
 1087.3400000000
  31
0.0
   0
LINE
   5
2C5
 100
AcDbEntity
   8
LEVEL001
 370
40
 100
AcDbLine
   6
CONTINUOUS
  62
3
  10
 1452.1200000003
  20
 1052.7800000000
  30
0.0
  11
 1452.1200000003
  21
 1074.6573415511
  31
0.0
   0
LINE
   5
2C6
 100
AcDbEntity
   8
LEVEL001
 370
40
 100
AcDbLine
   6
CONTINUOUS
  62
3
  10
 1452.1200000003
  20
 1074.6573415511
  30
0.0
  11
 1437.5351056329
  21
 1052.7800000000
  31
0.0
   0
LINE
   5
2C7
 100
AcDbEntity
   8
LEVEL001
 370
40
 100
AcDbLine
   6
CONTINUOUS
  62
3
  10
 1437.5351056329
  20
 1052.7800000000
  30
0.0
  11
 1452.1200000003
  21
 1052.7800000000
  31
0.0
   0
LINE
   5
2C8
 100
AcDbEntity
   8
LEVEL001
 370
40
 100
AcDbLine
   6
CONTINUOUS
  62
3
  10
 1455.9600000003
  20
 1052.7800000000
  30
0.0
  11
 1496.2800000003
  21
 1052.7800000000
  31
0.0
   0
LINE
   5
2C9
 100
AcDbEntity
   8
LEVEL001
 370
40
 100
AcDbLine
   6
CONTINUOUS
  62
3
  10
 1496.2800000003
  20
 1052.7800000000
  30
0.0
  11
 1496.2800000003
  21
 1075.8200000000
  31
0.0
   0
LINE
   5
2CA
 100
AcDbEntity
   8
LEVEL001
 370
40
 100
AcDbLine
   6
CONTINUOUS
  62
3
  10
 1496.2800000003
  20
 1075.8200000000
  30
0.0
  11
 1507.8000000003
  21
 1075.8200000000
  31
0.0
   0
LINE
   5
2CB
 100
AcDbEntity
   8
LEVEL001
 370
40
 100
AcDbLine
   6
CONTINUOUS
  62
3
  10
 1507.8000000003
  20
 1075.8200000000
  30
0.0
  11
 1507.8000000003
  21
 1052.7800000000
  31
0.0
   0
LINE
   5
2CC
 100
AcDbEntity
   8
LEVEL001
 370
40
 100
AcDbLine
   6
CONTINUOUS
  62
3
  10
 1507.8000000003
  20
 1052.7800000000
  30
0.0
  11
 1542.3600000003
  21
 1052.7800000000
  31
0.0
   0
LINE
   5
2CD
 100
AcDbEntity
   8
LEVEL001
 370
40
 100
AcDbLine
   6
CONTINUOUS
  62
3
  10
 1542.3600000003
  20
 1052.7800000000
  30
0.0
  11
 1542.3600000003
  21
 1064.3000000000
  31
0.0
   0
LINE
   5
2CE
 100
AcDbEntity
   8
LEVEL001
 370
40
 100
AcDbLine
   6
CONTINUOUS
  62
3
  10
 1542.3600000003
  20
 1064.3000000000
  30
0.0
  11
 1519.3200000003
  21
 1064.3000000000
  31
0.0
   0
LINE
   5
2CF
 100
AcDbEntity
   8
LEVEL001
 370
40
 100
AcDbLine
   6
CONTINUOUS
  62
3
  10
 1519.3200000003
  20
 1064.3000000000
  30
0.0
  11
 1519.3200000003
  21
 1067.1800000000
  31
0.0
   0
LINE
   5
2D0
 100
AcDbEntity
   8
LEVEL001
 370
40
 100
AcDbLine
   6
CONTINUOUS
  62
3
  10
 1519.3200000003
  20
 1067.1800000000
  30
0.0
  11
 1539.4800000003
  21
 1067.1800000000
  31
0.0
   0
LINE
   5
2D1
 100
AcDbEntity
   8
LEVEL001
 370
40
 100
AcDbLine
   6
CONTINUOUS
  62
3
  10
 1539.4800000003
  20
 1067.1800000000
  30
0.0
  11
 1539.4800000003
  21
 1072.9400000000
  31
0.0
   0
LINE
   5
2D2
 100
AcDbEntity
   8
LEVEL001
 370
40
 100
AcDbLine
   6
CONTINUOUS
  62
3
  10
 1539.4800000003
  20
 1072.9400000000
  30
0.0
  11
 1519.3200000003
  21
 1072.9400000000
  31
0.0
   0
LINE
   5
2D3
 100
AcDbEntity
   8
LEVEL001
 370
40
 100
AcDbLine
   6
CONTINUOUS
  62
3
  10
 1519.3200000003
  20
 1072.9400000000
  30
0.0
  11
 1519.3200000003
  21
 1075.8200000000
  31
0.0
   0
LINE
   5
2D4
 100
AcDbEntity
   8
LEVEL001
 370
40
 100
AcDbLine
   6
CONTINUOUS
  62
3
  10
 1519.3200000003
  20
 1075.8200000000
  30
0.0
  11
 1542.3600000003
  21
 1075.8200000000
  31
0.0
   0
LINE
   5
2D5
 100
AcDbEntity
   8
LEVEL001
 370
40
 100
AcDbLine
   6
CONTINUOUS
  62
3
  10
 1542.3600000003
  20
 1075.8200000000
  30
0.0
  11
 1542.3600000003
  21
 1087.3400000000
  31
0.0
   0
LINE
   5
2D6
 100
AcDbEntity
   8
LEVEL001
 370
40
 100
AcDbLine
   6
CONTINUOUS
  62
3
  10
 1542.3600000003
  20
 1087.3400000000
  30
0.0
  11
 1473.2400000003
  21
 1087.3400000000
  31
0.0
   0
LINE
   5
2D7
 100
AcDbEntity
   8
LEVEL001
 370
40
 100
AcDbLine
   6
CONTINUOUS
  62
3
  10
 1473.2400000003
  20
 1087.3400000000
  30
0.0
  11
 1473.2400000003
  21
 1075.8200000000
  31
0.0
   0
LINE
   5
2D8
 100
AcDbEntity
   8
LEVEL001
 370
40
 100
AcDbLine
   6
CONTINUOUS
  62
3
  10
 1473.2400000003
  20
 1075.8200000000
  30
0.0
  11
 1484.7600000003
  21
 1075.8200000000
  31
0.0
   0
LINE
   5
2D9
 100
AcDbEntity
   8
LEVEL001
 370
40
 100
AcDbLine
   6
CONTINUOUS
  62
3
  10
 1484.7600000003
  20
 1075.8200000000
  30
0.0
  11
 1484.7600000003
  21
 1064.3000000000
  31
0.0
   0
LINE
   5
2DA
 100
AcDbEntity
   8
LEVEL001
 370
40
 100
AcDbLine
   6
CONTINUOUS
  62
3
  10
 1484.7600000003
  20
 1064.3000000000
  30
0.0
  11
 1467.4800000003
  21
 1064.3000000000
  31
0.0
   0
LINE
   5
2DB
 100
AcDbEntity
   8
LEVEL001
 370
40
 100
AcDbLine
   6
CONTINUOUS
  62
3
  10
 1467.4800000003
  20
 1064.3000000000
  30
0.0
  11
 1467.4800000003
  21
 1087.3400000000
  31
0.0
   0
LINE
   5
2DC
 100
AcDbEntity
   8
LEVEL001
 370
40
 100
AcDbLine
   6
CONTINUOUS
  62
3
  10
 1467.4800000003
  20
 1087.3400000000
  30
0.0
  11
 1455.9600000003
  21
 1087.3400000000
  31
0.0
   0
LINE
   5
2DD
 100
AcDbEntity
   8
LEVEL001
 370
40
 100
AcDbLine
   6
CONTINUOUS
  62
3
  10
 1455.9600000003
  20
 1087.3400000000
  30
0.0
  11
 1455.9600000003
  21
 1052.7800000000
  31
0.0
   0
LINE
   5
2DE
 100
AcDbEntity
   8
LEVEL001
 370
40
 100
AcDbLine
   6
CONTINUOUS
  62
3
  10
 1559.6400000003
  20
 1052.7800000000
  30
0.0
  11
 1576.9200000003
  21
 1052.7800000000
  31
0.0
   0
LINE
   5
2DF
 100
AcDbEntity
   8
LEVEL001
 370
40
 100
AcDbLine
   6
CONTINUOUS
  62
3
  10
 1576.9200000003
  20
 1052.7800000000
  30
0.0
  11
 1576.9200000003
  21
 1064.3000000000
  31
0.0
   0
LINE
   5
2E0
 100
AcDbEntity
   8
LEVEL001
 370
40
 100
AcDbLine
   6
CONTINUOUS
  62
3
  10
 1576.9200000003
  20
 1064.3000000000
  30
0.0
  11
 1559.6400000003
  21
 1064.3000000000
  31
0.0
   0
ARC
   5
2E1
 100
AcDbEntity
   8
LEVEL001
 370
40
   6
CONTINUOUS
  62
3
 100
AcDbCircle
  10
 1559.6400000003
  20
 1070.0600000000
  30
0.0
  40
 5.7600000000000
 100
AcDbArc
  50
 90.000000000000
  51
 270.00000000000
   0
LINE
   5
2E2
 100
AcDbEntity
   8
LEVEL001
 370
40
 100
AcDbLine
   6
CONTINUOUS
  62
3
  10
 1559.6400000003
  20
 1075.8200000000
  30
0.0
  11
 1576.9200000003
  21
 1075.8200000000
  31
0.0
   0
LINE
   5
2E3
 100
AcDbEntity
   8
LEVEL001
 370
40
 100
AcDbLine
   6
CONTINUOUS
  62
3
  10
 1576.9200000003
  20
 1075.8200000000
  30
0.0
  11
 1576.9200000003
  21
 1087.3400000000
  31
0.0
   0
LINE
   5
2E4
 100
AcDbEntity
   8
LEVEL001
 370
40
 100
AcDbLine
   6
CONTINUOUS
  62
3
  10
 1576.9200000003
  20
 1087.3400000000
  30
0.0
  11
 1559.6400000003
  21
 1087.3400000000
  31
0.0
   0
ARC
   5
2E5
 100
AcDbEntity
   8
LEVEL001
 370
40
   6
CONTINUOUS
  62
3
 100
AcDbCircle
  10
 1559.6400000003
  20
 1070.0600000000
  30
0.0
  40
 17.280000000000
 100
AcDbArc
  50
 90.000000000000
  51
 270.00000000000
   0
LINE
   5
2E6
 100
AcDbEntity
   8
LEVEL001
 370
40
 100
AcDbLine
   6
CONTINUOUS
  62
3
  10
 1375.3200000003
  20
 1060.4600000000
  30
0.0
  11
 1360.9200000003
  21
 1083.5000000000
  31
0.0
   0
LINE
   5
2E7
 100
AcDbEntity
   8
LEVEL001
 370
40
 100
AcDbLine
   6
CONTINUOUS
  62
3
  10
 1360.9200000003
  20
 1083.5000000000
  30
0.0
  11
 1375.3200000003
  21
 1083.5000000000
  31
0.0
   0
LINE
   5
2E8
 100
AcDbEntity
   8
LEVEL001
 370
40
 100
AcDbLine
   6
CONTINUOUS
  62
3
  10
 1375.3200000003
  20
 1083.5000000000
  30
0.0
  11
 1375.3200000003
  21
 1060.4600000000
  31
0.0
   0
LINE
   5
2E9
 100
AcDbEntity
   8
LEVEL001
 370
40
 100
AcDbLine
   6
CONTINUOUS
  62
3
  10
 1360.9200000003
  20
 1083.5000000000
  30
0.0
  11
 1375.3200000003
  21
 1060.4600000000
  31
0.0
   0
LINE
   5
2EA
 100
AcDbEntity
   8
LEVEL001
 370
40
 100
AcDbLine
   6
CONTINUOUS
  62
3
  10
 1375.3200000003
  20
 1060.4600000000
  30
0.0
  11
 1375.3200000003
  21
 1083.5000000000
  31
0.0
   0
LINE
   5
2EB
 100
AcDbEntity
   8
LEVEL001
 370
40
 100
AcDbLine
   6
CONTINUOUS
  62
3
  10
 1375.3200000003
  20
 1083.5000000000
  30
0.0
  11
 1360.9200000003
  21
 1083.5000000000
  31
0.0
   0
LINE
   5
2EC
 100
AcDbEntity
   8
LEVEL001
 370
40
 100
AcDbLine
   6
CONTINUOUS
  62
3
  10
 1329.5600000003
  20
 1114.2200000000
  30
0.0
  11
 1309.0800000003
  21
 1083.5000000000
  31
0.0
   0
LINE
   5
2ED
 100
AcDbEntity
   8
LEVEL001
 370
40
 100
AcDbLine
   6
CONTINUOUS
  62
3
  10
 1309.0800000003
  20
 1083.5000000000
  30
0.0
  11
 1329.5600000003
  21
 1052.7800000000
  31
0.0
   0
LINE
   5
2EE
 100
AcDbEntity
   8
LEVEL001
 370
40
 100
AcDbLine
   6
CONTINUOUS
  62
3
  10
 1346.8400000003
  20
 1052.7800000000
  30
0.0
  11
 1326.3600000003
  21
 1083.5000000000
  31
0.0
   0
LINE
   5
2EF
 100
AcDbEntity
   8
LEVEL001
 370
40
 100
AcDbLine
   6
CONTINUOUS
  62
3
  10
 1326.3600000003
  20
 1083.5000000000
  30
0.0
  11
 1346.8400000003
  21
 1114.2200000000
  31
0.0
   0
LINE
   5
2F0
 100
AcDbEntity
   8
LEVEL001
 370
40
 100
AcDbLine
   6
CONTINUOUS
  62
3
  10
 1355.4800000003
  20
 1114.2200000000
  30
0.0
  11
 1335.0000000003
  21
 1083.5000000000
  31
0.0
   0
LINE
   5
2F1
 100
AcDbEntity
   8
LEVEL001
 370
40
 100
AcDbLine
   6
CONTINUOUS
  62
3
  10
 1335.0000000003
  20
 1083.5000000000
  30
0.0
  11
 1355.4800000003
  21
 1052.7800000000
  31
0.0
   0
LINE
   5
2F2
 100
AcDbEntity
   8
LEVEL001
 370
40
 100
AcDbLine
   6
CONTINUOUS
  62
3
  10
 1372.7600000003
  20
 1052.7800000000
  30
0.0
  11
 1352.2800000003
  21
 1083.5000000000
  31
0.0
   0
LINE
   5
2F3
 100
AcDbEntity
   8
LEVEL001
 370
40
 100
AcDbLine
   6
CONTINUOUS
  62
3
  10
 1352.2800000003
  20
 1083.5000000000
  30
0.0
  11
 1372.7600000003
  21
 1114.2200000000
  31
0.0
   0
LINE
   5
2F4
 100
AcDbEntity
   8
LEVEL001
 370
40
 100
AcDbLine
   6
CONTINUOUS
  62
3
  10
 1329.5600000003
  20
 1052.7800000000
  30
0.0
  11
 1309.0800000003
  21
 1083.5000000000
  31
0.0
   0
LINE
   5
2F5
 100
AcDbEntity
   8
LEVEL001
 370
40
 100
AcDbLine
   6
CONTINUOUS
  62
3
  10
 1309.0800000003
  20
 1083.5000000000
  30
0.0
  11
 1329.5600000003
  21
 1114.2200000000
  31
0.0
   0
LINE
   5
2F6
 100
AcDbEntity
   8
LEVEL001
 370
40
 100
AcDbLine
   6
CONTINUOUS
  62
3
  10
 1329.5600000003
  20
 1114.2200000000
  30
0.0
  11
 1346.8400000003
  21
 1114.2200000000
  31
0.0
   0
LINE
   5
2F7
 100
AcDbEntity
   8
LEVEL001
 370
40
 100
AcDbLine
   6
CONTINUOUS
  62
3
  10
 1346.8400000003
  20
 1114.2200000000
  30
0.0
  11
 1326.3600000003
  21
 1083.5000000000
  31
0.0
   0
LINE
   5
2F8
 100
AcDbEntity
   8
LEVEL001
 370
40
 100
AcDbLine
   6
CONTINUOUS
  62
3
  10
 1326.3600000003
  20
 1083.5000000000
  30
0.0
  11
 1346.8400000003
  21
 1052.7800000000
  31
0.0
   0
LINE
   5
2F9
 100
AcDbEntity
   8
LEVEL001
 370
40
 100
AcDbLine
   6
CONTINUOUS
  62
3
  10
 1346.8400000003
  20
 1052.7800000000
  30
0.0
  11
 1329.5600000003
  21
 1052.7800000000
  31
0.0
   0
LINE
   5
2FA
 100
AcDbEntity
   8
LEVEL001
 370
40
 100
AcDbLine
   6
CONTINUOUS
  62
3
  10
 1355.4800000003
  20
 1052.7800000000
  30
0.0
  11
 1335.0000000003
  21
 1083.5000000000
  31
0.0
   0
LINE
   5
2FB
 100
AcDbEntity
   8
LEVEL001
 370
40
 100
AcDbLine
   6
CONTINUOUS
  62
3
  10
 1335.0000000003
  20
 1083.5000000000
  30
0.0
  11
 1355.4800000003
  21
 1114.2200000000
  31
0.0
   0
LINE
   5
2FC
 100
AcDbEntity
   8
LEVEL001
 370
40
 100
AcDbLine
   6
CONTINUOUS
  62
3
  10
 1355.4800000003
  20
 1114.2200000000
  30
0.0
  11
 1372.7600000003
  21
 1114.2200000000
  31
0.0
   0
LINE
   5
2FD
 100
AcDbEntity
   8
LEVEL001
 370
40
 100
AcDbLine
   6
CONTINUOUS
  62
3
  10
 1372.7600000003
  20
 1114.2200000000
  30
0.0
  11
 1352.2800000003
  21
 1083.5000000000
  31
0.0
   0
LINE
   5
2FE
 100
AcDbEntity
   8
LEVEL001
 370
40
 100
AcDbLine
   6
CONTINUOUS
  62
3
  10
 1352.2800000003
  20
 1083.5000000000
  30
0.0
  11
 1372.7600000003
  21
 1052.7800000000
  31
0.0
   0
LINE
   5
2FF
 100
AcDbEntity
   8
LEVEL001
 370
40
 100
AcDbLine
   6
CONTINUOUS
  62
3
  10
 1372.7600000003
  20
 1052.7800000000
  30
0.0
  11
 1355.4800000003
  21
 1052.7800000000
  31
0.0
   0
LINE
   5
300
 100
AcDbEntity
   8
LEVEL001
 370
40
 100
AcDbLine
   6
CONTINUOUS
  62
3
  10
 1268.0000000001
  20
 333.38360969059
  30
0.0
  11
 1618.0000000001
  21
 333.38360969059
  31
0.0
   0
HATCH
   5
301
 100
AcDbEntity
   8
0
  62
1
 100
AcDbHatch
  10
0.0
  20
0.0
  30
0.0
 210
0.0
 220
0.0
 230
 1.0000000000000
   2
SOLID
  70
1
  71
1
  91
1
  92
1
  93
6
  72
1
  10
 1326.3600000003
  20
 1083.5000000000
  11
 1346.8400000003
  21
 1052.7800000000
  72
1
  10
 1346.8400000003
  20
 1052.7800000000
  11
 1329.5600000003
  21
 1052.7800000000
  72
1
  10
 1329.5600000003
  20
 1052.7800000000
  11
 1309.0800000003
  21
 1083.5000000000
  72
1
  10
 1309.0800000003
  20
 1083.5000000000
  11
 1329.5600000003
  21
 1114.2200000000
  72
1
  10
 1329.5600000003
  20
 1114.2200000000
  11
 1346.8400000003
  21
 1114.2200000000
  72
1
  10
 1346.8400000003
  20
 1114.2200000000
  11
 1326.3600000003
  21
 1083.5000000000
  97
1
 330

  75
0
  76
1
  98
1
  10
0.0
  20
0.0
   0
HATCH
   5
302
 100
AcDbEntity
   8
0
  62
1
 100
AcDbHatch
  10
0.0
  20
0.0
  30
0.0
 210
0.0
 220
0.0
 230
 1.0000000000000
   2
SOLID
  70
1
  71
1
  91
1
  92
1
  93
6
  72
1
  10
 1355.4800000003
  20
 1114.2200000000
  11
 1372.7600000003
  21
 1114.2200000000
  72
1
  10
 1372.7600000003
  20
 1114.2200000000
  11
 1352.2800000003
  21
 1083.5000000000
  72
1
  10
 1352.2800000003
  20
 1083.5000000000
  11
 1372.7600000003
  21
 1052.7800000000
  72
1
  10
 1372.7600000003
  20
 1052.7800000000
  11
 1355.4800000003
  21
 1052.7800000000
  72
1
  10
 1355.4800000003
  20
 1052.7800000000
  11
 1335.0000000003
  21
 1083.5000000000
  72
1
  10
 1335.0000000003
  20
 1083.5000000000
  11
 1355.4800000003
  21
 1114.2200000000
  97
1
 330

  75
0
  76
1
  98
1
  10
0.0
  20
0.0
   0
HATCH
   5
303
 100
AcDbEntity
   8
0
  62
1
 100
AcDbHatch
  10
0.0
  20
0.0
  30
0.0
 210
0.0
 220
0.0
 230
 1.0000000000000
   2
SOLID
  70
1
  71
1
  91
1
  92
1
  93
3
  72
1
  10
 1360.9200000003
  20
 1083.5000000000
  11
 1375.3200000003
  21
 1083.5000000000
  72
1
  10
 1375.3200000003
  20
 1083.5000000000
  11
 1375.3200000003
  21
 1060.4600000000
  72
1
  10
 1375.3200000003
  20
 1060.4600000000
  11
 1360.9200000003
  21
 1083.5000000000
  97
1
 330

  75
0
  76
1
  98
1
  10
0.0
  20
0.0
   0
HATCH
   5
304
 100
AcDbEntity
   8
0
  62
1
 100
AcDbHatch
  10
0.0
  20
0.0
  30
0.0
 210
0.0
 220
0.0
 230
 1.0000000000000
   2
SOLID
  70
1
  71
1
  91
2
  92
1
  93
6
  72
2
  10
 1409.8800000003
  20
 1072.9400000000
  40
 14.400000000000
  50
 270.00000000000
  51
 90.000000000000
  73
0
  72
1
  10
 1409.8800000003
  20
 1058.5400000000
  11
 1398.3600000003
  21
 1058.5400000000
  72
1
  10
 1398.3600000003
  20
 1058.5400000000
  11
 1398.3600000003
  21
 1052.7800000000
  72
1
  10
 1398.3600000003
  20
 1052.7800000000
  11
 1386.8400000003
  21
 1052.7800000000
  72
1
  10
 1386.8400000003
  20
 1052.7800000000
  11
 1386.8400000003
  21
 1087.3400000000
  72
1
  10
 1386.8400000003
  20
 1087.3400000000
  11
 1409.8800000003
  21
 1087.3400000000
  97
1
 330

  92
16
  93
4
  72
2
  10
 1409.8800000003
  20
 1072.9400000000
  40
 2.8800000000000
  50
 270.00000000000
  51
 90.000000000000
  73
1
  72
1
  10
 1409.8800000003
  20
 1075.8200000000
  11
 1398.3600000003
  21
 1075.8200000000
  72
1
  10
 1398.3600000003
  20
 1075.8200000000
  11
 1398.3600000003
  21
 1070.0600000000
  72
1
  10
 1398.3600000003
  20
 1070.0600000000
  11
 1409.8800000003
  21
 1070.0600000000
  97
1
 330

  75
0
  76
1
  98
1
  10
0.0
  20
0.0
   0
HATCH
   5
305
 100
AcDbEntity
   8
0
  62
1
 100
AcDbHatch
  10
0.0
  20
0.0
  30
0.0
 210
0.0
 220
0.0
 230
 1.0000000000000
   2
SOLID
  70
1
  71
1
  91
1
  92
1
  93
4
  72
1
  10
 1438.6800000003
  20
 1087.3400000000
  11
 1455.9600000003
  21
 1087.3400000000
  72
1
  10
 1455.9600000003
  20
 1087.3400000000
  11
 1432.9200000003
  21
 1052.7800000000
  72
1
  10
 1432.9200000003
  20
 1052.7800000000
  11
 1415.6400000003
  21
 1052.7800000000
  72
1
  10
 1415.6400000003
  20
 1052.7800000000
  11
 1438.6800000003
  21
 1087.3400000000
  97
1
 330

  75
0
  76
1
  98
1
  10
0.0
  20
0.0
   0
HATCH
   5
306
 100
AcDbEntity
   8
0
  62
1
 100
AcDbHatch
  10
0.0
  20
0.0
  30
0.0
 210
0.0
 220
0.0
 230
 1.0000000000000
   2
SOLID
  70
1
  71
1
  91
1
  92
1
  93
3
  72
1
  10
 1437.5351056329
  20
 1052.7800000000
  11
 1452.1200000003
  21
 1074.6573415511
  72
1
  10
 1452.1200000003
  20
 1074.6573415511
  11
 1452.1200000003
  21
 1052.7800000000
  72
1
  10
 1452.1200000003
  20
 1052.7800000000
  11
 1437.5351056329
  21
 1052.7800000000
  97
1
 330

  75
0
  76
1
  98
1
  10
0.0
  20
0.0
   0
HATCH
   5
307
 100
AcDbEntity
   8
0
  62
1
 100
AcDbHatch
  10
0.0
  20
0.0
  30
0.0
 210
0.0
 220
0.0
 230
 1.0000000000000
   2
SOLID
  70
1
  71
1
  91
1
  92
1
  93
22
  72
1
  10
 1519.3200000003
  20
 1064.3000000000
  11
 1542.3600000003
  21
 1064.3000000000
  72
1
  10
 1542.3600000003
  20
 1064.3000000000
  11
 1542.3600000003
  21
 1052.7800000000
  72
1
  10
 1542.3600000003
  20
 1052.7800000000
  11
 1507.8000000003
  21
 1052.7800000000
  72
1
  10
 1507.8000000003
  20
 1052.7800000000
  11
 1507.8000000003
  21
 1075.8200000000
  72
1
  10
 1507.8000000003
  20
 1075.8200000000
  11
 1496.2800000003
  21
 1075.8200000000
  72
1
  10
 1496.2800000003
  20
 1075.8200000000
  11
 1496.2800000003
  21
 1052.7800000000
  72
1
  10
 1496.2800000003
  20
 1052.7800000000
  11
 1455.9600000003
  21
 1052.7800000000
  72
1
  10
 1455.9600000003
  20
 1052.7800000000
  11
 1455.9600000003
  21
 1087.3400000000
  72
1
  10
 1455.9600000003
  20
 1087.3400000000
  11
 1467.4800000003
  21
 1087.3400000000
  72
1
  10
 1467.4800000003
  20
 1087.3400000000
  11
 1467.4800000003
  21
 1064.3000000000
  72
1
  10
 1467.4800000003
  20
 1064.3000000000
  11
 1484.7600000003
  21
 1064.3000000000
  72
1
  10
 1484.7600000003
  20
 1064.3000000000
  11
 1484.7600000003
  21
 1075.8200000000
  72
1
  10
 1484.7600000003
  20
 1075.8200000000
  11
 1473.2400000003
  21
 1075.8200000000
  72
1
  10
 1473.2400000003
  20
 1075.8200000000
  11
 1473.2400000003
  21
 1087.3400000000
  72
1
  10
 1473.2400000003
  20
 1087.3400000000
  11
 1542.3600000003
  21
 1087.3400000000
  72
1
  10
 1542.3600000003
  20
 1087.3400000000
  11
 1542.3600000003
  21
 1075.8200000000
  72
1
  10
 1542.3600000003
  20
 1075.8200000000
  11
 1519.3200000003
  21
 1075.8200000000
  72
1
  10
 1519.3200000003
  20
 1075.8200000000
  11
 1519.3200000003
  21
 1072.9400000000
  72
1
  10
 1519.3200000003
  20
 1072.9400000000
  11
 1539.4800000003
  21
 1072.9400000000
  72
1
  10
 1539.4800000003
  20
 1072.9400000000
  11
 1539.4800000003
  21
 1067.1800000000
  72
1
  10
 1539.4800000003
  20
 1067.1800000000
  11
 1519.3200000003
  21
 1067.1800000000
  72
1
  10
 1519.3200000003
  20
 1067.1800000000
  11
 1519.3200000003
  21
 1064.3000000000
  97
1
 330

  75
0
  76
1
  98
1
  10
0.0
  20
0.0
   0
HATCH
   5
308
 100
AcDbEntity
   8
0
  62
1
 100
AcDbHatch
  10
0.0
  20
0.0
  30
0.0
 210
0.0
 220
0.0
 230
 1.0000000000000
   2
SOLID
  70
1
  71
1
  91
1
  92
1
  93
8
  72
1
  10
 1559.6400000003
  20
 1087.3400000000
  11
 1576.9200000003
  21
 1087.3400000000
  72
1
  10
 1576.9200000003
  20
 1087.3400000000
  11
 1576.9200000003
  21
 1075.8200000000
  72
1
  10
 1576.9200000003
  20
 1075.8200000000
  11
 1559.6400000003
  21
 1075.8200000000
  72
2
  10
 1559.6400000003
  20
 1070.0600000000
  40
 5.7600000000000
  50
 90.000000000000
  51
 270.00000000000
  73
1
  72
1
  10
 1559.6400000003
  20
 1064.3000000000
  11
 1576.9200000003
  21
 1064.3000000000
  72
1
  10
 1576.9200000003
  20
 1064.3000000000
  11
 1576.9200000003
  21
 1052.7800000000
  72
1
  10
 1576.9200000003
  20
 1052.7800000000
  11
 1559.6400000003
  21
 1052.7800000000
  72
2
  10
 1559.6400000003
  20
 1070.0600000000
  40
 17.280000000000
  50
 90.000000000000
  51
 270.00000000000
  73
0
  97
1
 330

  75
0
  76
1
  98
1
  10
0.0
  20
0.0
   0
LINE
   5
309
 100
AcDbEntity
   8
LEVEL001
 370
50
 100
AcDbLine
   6
CONTINUOUS
  62
4
  10
 1268.0000000001
  20
 1140.0000000000
  30
0.0
  11
 1268.0000000001
  21
 48.000000000020
  31
0.0
   0
LINE
   5
30A
 100
AcDbEntity
   8
LEVEL001
 370
50
 100
AcDbLine
   6
CONTINUOUS
  62
4
  10
 1268.0000000001
  20
 1140.0000000000
  30
0.0
  11
 1268.0000000001
  21
 48.000000000009
  31
0.0
   0
LINE
   5
30B
 100
AcDbEntity
   8
LEVEL001
 370
50
 100
AcDbLine
   6
CONTINUOUS
  62
4
  10
 1618.0000000001
  20
 48.000000000009
  30
0.0
  11
 1618.0000000001
  21
 1140.0000000000
  31
0.0
   0
LINE
   5
30C
 100
AcDbEntity
   8
LEVEL001
 370
50
 100
AcDbLine
   6
CONTINUOUS
  62
4
  10
 1618.0000000001
  20
 1140.0000000000
  30
0.0
  11
 62.000000000102
  21
 1140.0000000000
  31
0.0
   0
LINE
   5
30D
 100
AcDbEntity
   8
LEVEL001
 370
50
 100
AcDbLine
   6
CONTINUOUS
  62
4
  10
 62.000000000102
  20
 1140.0000000000
  30
0.0
  11
 62.000000000102
  21
 48.000000000020
  31
0.0
   0
LINE
   5
30E
 100
AcDbEntity
   8
LEVEL001
 370
50
 100
AcDbLine
   6
CONTINUOUS
  62
4
  10
 62.000000000102
  20
 48.000000000020
  30
0.0
  11
 1618.0000000001
  21
 48.000000000020
  31
0.0
   0
MTEXT
   5
310
 100
AcDbEntity
   8
LEVEL001
 370
20
  62
7
 100
AcDbMText
  10
 1386.8400000003
  20
 1093.1000000000
  30
0.0
  40
 12.000000000000
  41
0.0
  71
7
  72
1
   1
\T1.000000;ケージーパルテック株式会社
   7
GMM001
  44
 0.79999984000003
   0
MTEXT
   5
312
 100
AcDbEntity
   8
LEVEL001
 370
15
  62
8
 100
AcDbMText
  10
 1499.2000000001
  20
 194.66666666668
  30
0.0
  40
 11.200000000000
  41
0.0
  71
5
  72
1
   1
\T1.000000;作成日付：
   7
GMM002
  44
 0.79999984000003
   0
MTEXT
   5
314
 100
AcDbEntity
   8
LEVEL001
 370
15
  62
8
 100
AcDbMText
  10
 1499.2000000001
  20
 168.00000000001
  30
0.0
  40
 11.200000000000
  41
0.0
  71
5
  72
1
   1
\T1.000000;変更日付：
   7
GMM002
  44
 0.79999984000003
   0
MTEXT
   5
316
 100
AcDbEntity
   8
LEVEL001
 370
15
  62
8
 100
AcDbMText
  10
 1443.0000000001
  20
 248.00000000001
  30
0.0
  40
 15.000000000000
  41
0.0
  71
5
  72
1
   1
\T1.000000;三面図
   7
GMM002
  44
 0.79999984000003
   0
MTEXT
   5
318
 100
AcDbEntity
   8
LEVEL001
 370
15
  62
8
 100
AcDbMText
  10
 1276.7858875373
  20
 312.89545107619
  30
0.0
  40
 12.000000000000
  41
0.0
  71
7
  72
1
   1
\T1.000000;※本製品は予告無しに変更する事があります。
   7
GMM002
  44
 0.79999984000003
   0
LINE
   5
319
 100
AcDbEntity
   8
0
 370
15
 100
AcDbLine
   6
DOT
  62
2
  10
 1680.0000000000
  20
 1188.0000000000
  30
0.0
  11
0.0
  21
 1188.0000000000
  31
0.0
   0
LINE
   5
31A
 100
AcDbEntity
   8
0
 370
15
 100
AcDbLine
   6
DOT
  62
2
  10
0.0
  20
0.0
  30
0.0
  11
 1680.0000000000
  21
0.0
  31
0.0
   0
LINE
   5
31B
 100
AcDbEntity
   8
0
 370
15
 100
AcDbLine
   6
DOT
  62
2
  10
0.0
  20
 1188.0000000000
  30
0.0
  11
0.0
  21
0.0
  31
0.0
   0
MTEXT
   5
31D
 100
AcDbEntity
   8
LEVEL001
 370
15
  62
8
 100
AcDbMText
  10
 1293.2000000001
  20
 1012.0000000000
  30
0.0
  40
 12.000000000000
  41
0.0
  71
5
  72
1
   1
\T1.000000;商品名：
   7
GMM001
  44
 0.79999984000003
   0
MTEXT
   5
31F
 100
AcDbEntity
   8
LEVEL001
 370
15
  62
8
 100
AcDbMText
  10
 1287.2000000001
  20
 932.00000000001
  30
0.0
  40
 12.000000000000
  41
0.0
  71
5
  72
1
   1
\T1.000000;形式：
   7
GMM001
  44
 0.79999984000003
   0
MTEXT
   5
321
 100
AcDbEntity
   8
LEVEL001
 370
15
  62
8
 100
AcDbMText
  10
 1287.2000000001
  20
 852.00000000001
  30
0.0
  40
 12.000000000000
  41
0.0
  71
5
  72
1
   1
\T1.000000;仕様：
   7
GMM001
  44
 0.79999984000003
   0
MTEXT
   5
323
 100
AcDbEntity
   8
LEVEL001
 370
15
  62
8
 100
AcDbMText
  10
 1299.2000000001
  20
 273.00000000001
  30
0.0
  40
 12.000000000000
  41
0.0
  71
5
  72
1
   1
\T1.000000;図面名称：
   7
GMM001
  44
 0.79999984000003
   0
MTEXT
   5
325
 100
AcDbEntity
   8
LEVEL001
 370
15
  62
8
 100
AcDbMText
  10
 1287.2000000001
  20
 193.00000000001
  30
0.0
  40
 12.000000000000
  41
0.0
  71
5
  72
1
   1
\T1.000000;縮尺：
   7
GMM001
  44
 0.79999984000003
   0
MTEXT
   5
327
 100
AcDbEntity
   8
LEVEL001
 370
15
  62
8
 100
AcDbMText
  10
 1305.2000000001
  20
 114.88614091451
  30
0.0
  40
 12.000000000000
  41
0.0
  71
5
  72
1
   1
\T1.000000;用紙サイズ：
   7
GMM001
  44
 0.79999984000003
   0
MTEXT
   5
329
 100
AcDbEntity
   8
LEVEL001
 370
15
  62
8
 100
AcDbMText
  10
 1505.2000000001
  20
 113.00000000001
  30
0.0
  40
 12.000000000000
  41
0.0
  71
5
  72
1
   1
\T1.000000;ファイル名：
   7
GMM001
  44
 0.79999984000003
   0
MTEXT
   5
32B
 100
AcDbEntity
   8
LEVEL001
 370
15
  62
8
 100
AcDbMText
  10
 1335.0000000001
  20
 978.00000000001
  30
0.0
  40
 18.000000000000
  41
0.0
  71
7
  72
1
   1
\T1.000000;手摺金具　Ｌ型　Ｐタイプ
   7
GMM001
  44
 0.79999984000003
   0
MTEXT
   5
32D
 100
AcDbEntity
   8
LEVEL001
 370
15
  62
8
 100
AcDbMText
  10
 1287.2799276686
  20
 624.92436335994
  30
0.0
  40
 12.000000000000
  41
0.0
  71
7
  72
1
   1
\T1.000000;※出寸法Ｌは軸の中心までの寸法です。
   7
GMM001
  44
 0.79999984000003
   0
MTEXT
   5
32F
 100
AcDbEntity
   8
LEVEL001
 370
15
  62
8
 100
AcDbMText
  10
 1368.0000000001
  20
 168.00000000001
  30
0.0
  40
 15.000000000000
  41
0.0
  71
5
  72
1
   1
\T1.000000;Ｓ＝１：４
   7
GMM001
  44
 0.79999984000003
   0
MTEXT
   5
331
 100
AcDbEntity
   8
LEVEL001
 370
15
  62
8
 100
AcDbMText
  10
 1368.0000000001
  20
 88.000000000009
  30
0.0
  40
 15.000000000000
  41
0.0
  71
5
  72
1
   1
\T1.000000;Ａ３
   7
GMM001
  44
 0.79999984000003
   0
MTEXT
   5
333
 100
AcDbEntity
   8
LEVEL001
 370
15
  62
8
 100
AcDbMText
  10
 1573.2000000001
  20
 141.33333333334
  30
0.0
  40
 8.0000000000000
  41
0.0
  71
5
  72
1
   1
\T1.000000;平成　　年　　月　　日
   7
GMM001
  44
 0.79999984000003
   0
MTEXT
   5
335
 100
AcDbEntity
   8
LEVEL001
 370
15
  62
8
 100
AcDbMText
  10
 1573.2000000001
  20
 168.00000000001
  30
0.0
  40
 8.0000000000000
  41
0.0
  71
5
  72
1
   1
\T1.000000;平成　　年　　月　　日
   7
GMM001
  44
 0.79999984000003
   0
LINE
   5
336
 100
AcDbEntity
   8
0
 370
15
 100
AcDbLine
   6
DOT
  62
2
  10
 1680.0000000000
  20
 1188.0000000000
  30
0.0
  11
 1680.0000000000
  21
0.0
  31
0.0
   0
MTEXT
   5
338
 100
AcDbEntity
   8
0
 370
15
  62
8
 100
AcDbMText
  10
-418.75647742605
  20
 1132.5945415873
  30
0.0
  40
 100.00000000000
  41
0.0
  71
4
  72
1
   1
\T1.000000;ＰＩＭ
   7
GMM001
  44
 0.79999984000003
   0
MTEXT
   5
33A
 100
AcDbEntity
   8
LEVEL001
 370
15
  62
8
 100
AcDbMText
  10
 1303.0000000001
  20
 900.00000000001
  30
0.0
  40
 14.000000000000
  41
0.0
  71
7
  72
1
   1
\W1.000000;\T1.000000;平受木ネジ座\W0.500000;\T1.000000; \W1.000000;\T1.000000;ＰＩＭ（１６軸）\W0.500000;\T1.000000;/\W1.000000;\T1.000000;（１３軸）
   7
GMM001
  44
 0.79999984000003
   0
MTEXT
   5
33C
 100
AcDbEntity
   8
LEVEL001
 370
15
  62
8
 100
AcDbMText
  10
 1543.0000000001
  20
 88.000000000010
  30
0.0
  40
 10.000000000000
  41
0.0
  71
2
  72
1
   1
{\W1.000000;\T1.000000;手摺金具－ＰＩＭ}\P{\W1.000000;\T1.000000;　　　　　\W0.500000;\T1.000000;(\W1.000000;\T1.000000;１６軸\W0.500000;\T1.000000;)(\W1.000000;\T1.000000;１３軸\W0.500000;\T1.000000;)}
   7
GMM001
  44
 0.79999984000003
   0
LINE
   5
33D
 100
AcDbEntity
   8
0
 370
40
 100
AcDbLine
   6
CONTINUOUS
  62
3
  10
 62.000000000102
  20
 594.00000000001
  30
0.0
  11
 1268.0000000001
  21
 594.00000000001
  31
0.0
   0
LINE
   5
33E
 100
AcDbEntity
   8
0
 370
40
 100
AcDbLine
   6
CONTINUOUS
  62
3
  10
 665.00000000010
  20
 1140.0000000000
  30
0.0
  11
 665.00000000010
  21
 48.000000000020
  31
0.0
   0
MTEXT
   5
340
 100
AcDbEntity
   8
LEVEL001
 370
15
  62
8
 100
AcDbMText
  10
 63.200000000103
  20
 1120.0000000000
  30
0.0
  40
 12.000000000000
  41
0.0
  71
4
  72
1
   1
\T1.000000;　ＰＩＭ２０（１６軸）
   7
GMM001
  44
 0.79999984000003
   0
MTEXT
   5
342
 100
AcDbEntity
   8
LEVEL001
 370
15
  62
8
 100
AcDbMText
  10
 666.20000000010
  20
 1120.0000000000
  30
0.0
  40
 12.000000000000
  41
0.0
  71
4
  72
1
   1
\T1.000000;　ＰＩＭ２５（１６軸）
   7
GMM001
  44
 0.79999984000003
   0
MTEXT
   5
344
 100
AcDbEntity
   8
LEVEL001
 370
15
  62
8
 100
AcDbMText
  10
 63.200000000103
  20
 574.00000000001
  30
0.0
  40
 12.000000000000
  41
0.0
  71
4
  72
1
   1
\T1.000000;　ＰＩＭ２０（１３軸）
   7
GMM001
  44
 0.79999984000003
   0
MTEXT
   5
346
 100
AcDbEntity
   8
LEVEL001
 370
15
  62
8
 100
AcDbMText
  10
 666.20000000010
  20
 574.00000000001
  30
0.0
  40
 12.000000000000
  41
0.0
  71
4
  72
1
   1
\T1.000000;　ＰＩＭ２５（１３軸）
   7
GMM001
  44
 0.79999984000003
   0
LINE
   5
347
 100
AcDbEntity
   8
LEVEL001
 370
20
 100
AcDbLine
   6
CONTINUOUS
  62
7
  10
 1434.2611135294
  20
 755.00000000001
  30
0.0
  11
 1584.2611135294
  21
 755.00000000001
  31
0.0
   0
LINE
   5
348
 100
AcDbEntity
   8
LEVEL001
 370
20
 100
AcDbLine
   6
CONTINUOUS
  62
7
  10
 1434.2611135294
  20
 776.00000000001
  30
0.0
  11
 1434.2611135294
  21
 644.00000000001
  31
0.0
   0
LINE
   5
349
 100
AcDbEntity
   8
LEVEL001
 370
20
 100
AcDbLine
   6
CONTINUOUS
  62
7
  10
 1509.2611135294
  20
 755.00000000001
  30
0.0
  11
 1509.2611135294
  21
 644.00000000001
  31
0.0
   0
LINE
   5
34A
 100
AcDbEntity
   8
LEVEL001
 370
20
 100
AcDbLine
   6
CONTINUOUS
  62
7
  10
 1584.2611135294
  20
 776.00000000001
  30
0.0
  11
 1584.2611135294
  21
 644.00000000001
  31
0.0
   0
MTEXT
   5
34C
 100
AcDbEntity
   8
LEVEL001
 370
15
  62
8
 100
AcDbMText
  10
 1471.7611135294
  20
 744.50000000001
  30
0.0
  40
 12.000000000000
  41
0.0
  71
5
  72
1
   1
\T1.000000;１６軸
   7
GMM001
  44
 0.79999984000003
   0
MTEXT
   5
34E
 100
AcDbEntity
   8
LEVEL001
 370
15
  62
8
 100
AcDbMText
  10
 1546.7611135294
  20
 744.50000000001
  30
0.0
  40
 12.000000000000
  41
0.0
  71
5
  72
1
   1
\T1.000000;１３軸
   7
GMM001
  44
 0.79999984000003
   0
MTEXT
   5
350
 100
AcDbEntity
   8
LEVEL001
 370
15
  62
8
 100
AcDbMText
  10
 1471.7611135294
  20
 725.00000000001
  30
0.0
  40
 12.000000000000
  41
0.0
  71
5
  72
1
   1
\T1.000000;５８
   7
GMM001
  44
 0.79999984000003
   0
MTEXT
   5
352
 100
AcDbEntity
   8
LEVEL001
 370
15
  62
8
 100
AcDbMText
  10
 1471.7611135294
  20
 713.00000000001
  30
0.0
  40
 12.000000000000
  41
0.0
  71
5
  72
1
   1
\T1.000000;７０
   7
GMM001
  44
 0.79999984000003
   0
MTEXT
   5
354
 100
AcDbEntity
   8
LEVEL001
 370
15
  62
8
 100
AcDbMText
  10
 1471.7611135294
  20
 701.00000000001
  30
0.0
  40
 12.000000000000
  41
0.0
  71
5
  72
1
   1
\T1.000000;８０
   7
GMM001
  44
 0.79999984000003
   0
MTEXT
   5
356
 100
AcDbEntity
   8
LEVEL001
 370
15
  62
8
 100
AcDbMText
  10
 1471.7611135294
  20
 689.00000000001
  30
0.0
  40
 12.000000000000
  41
0.0
  71
5
  72
1
   1
\T1.000000;１００
   7
GMM001
  44
 0.79999984000003
   0
MTEXT
   5
358
 100
AcDbEntity
   8
LEVEL001
 370
15
  62
8
 100
AcDbMText
  10
 1471.7611135294
  20
 665.00000000001
  30
0.0
  40
 12.000000000000
  41
0.0
  71
5
  72
1
   1
\T1.000000;１５０
   7
GMM001
  44
 0.79999984000003
   0
MTEXT
   5
35A
 100
AcDbEntity
   8
LEVEL001
 370
15
  62
8
 100
AcDbMText
  10
 1471.7611135294
  20
 653.00000000001
  30
0.0
  40
 12.000000000000
  41
0.0
  71
5
  72
1
   1
\T1.000000;２００
   7
GMM001
  44
 0.79999984000003
   0
MTEXT
   5
35C
 100
AcDbEntity
   8
LEVEL001
 370
15
  62
8
 100
AcDbMText
  10
 1471.7611135294
  20
 677.00000000001
  30
0.0
  40
 12.000000000000
  41
0.0
  71
5
  72
1
   1
\T1.000000;１２０
   7
GMM001
  44
 0.79999984000003
   0
MTEXT
   5
35E
 100
AcDbEntity
   8
LEVEL001
 370
15
  62
8
 100
AcDbMText
  10
 1546.7611135294
  20
 713.00000000001
  30
0.0
  40
 12.000000000000
  41
0.0
  71
5
  72
1
   1
\T1.000000;７０
   7
GMM001
  44
 0.79999984000003
   0
MTEXT
   5
360
 100
AcDbEntity
   8
LEVEL001
 370
15
  62
8
 100
AcDbMText
  10
 1546.7611135294
  20
 725.00000000001
  30
0.0
  40
 12.000000000000
  41
0.0
  71
5
  72
1
   1
\T1.000000;５５
   7
GMM001
  44
 0.79999984000003
   0
LINE
   5
361
 100
AcDbEntity
   8
LEVEL001
 370
20
 100
AcDbLine
   6
CONTINUOUS
  62
7
  10
 1284.2611135294
  20
 776.00000000001
  30
0.0
  11
 1284.2611135294
  21
 644.00000000001
  31
0.0
   0
LINE
   5
362
 100
AcDbEntity
   8
LEVEL001
 370
20
 100
AcDbLine
   6
CONTINUOUS
  62
7
  10
 1284.2611135294
  20
 734.00000000001
  30
0.0
  11
 1584.2611135294
  21
 734.00000000001
  31
0.0
   0
LINE
   5
363
 100
AcDbEntity
   8
LEVEL001
 370
20
 100
AcDbLine
   6
CONTINUOUS
  62
7
  10
 1284.2611135294
  20
 644.00000000001
  30
0.0
  11
 1584.2611135294
  21
 644.00000000001
  31
0.0
   0
MTEXT
   5
365
 100
AcDbEntity
   8
LEVEL001
 370
15
  62
8
 100
AcDbMText
  10
 1359.2611135294
  20
 711.00000000001
  30
0.0
  40
 12.000000000000
  41
0.0
  71
2
  72
1
   1
{\T1.000000;ＰＩＭ２０}\P\P{\T1.000000;ＰＩＭ２５}
   7
GMM001
  44
 0.79999984000003
   0
MTEXT
   5
367
 100
AcDbEntity
   8
LEVEL001
 370
15
  62
8
 100
AcDbMText
  10
 1359.2611135294
  20
 755.00000000001
  30
0.0
  40
 12.000000000000
  41
0.0
  71
5
  72
1
   1
\T1.000000;品番
   7
GMM001
  44
 0.79999984000003
   0
MTEXT
   5
369
 100
AcDbEntity
   8
LEVEL001
 370
15
  62
8
 100
AcDbMText
  10
 1509.2611135294
  20
 765.50000000001
  30
0.0
  40
 12.000000000000
  41
0.0
  71
5
  72
1
   1
\W1.000000;\T1.000000;出寸法Ｌ\W0.500000;\T1.000000;(m/m\W1.000000;\T1.000000;）
   7
GMM001
  44
 0.79999984000003
   0
LINE
   5
36A
 100
AcDbEntity
   8
LEVEL001
 370
20
 100
AcDbLine
   6
CONTINUOUS
  62
7
  10
 1284.2611135294
  20
 776.00000000001
  30
0.0
  11
 1584.2611135294
  21
 776.00000000001
  31
0.0
   0
CIRCLE
   5
36B
 100
AcDbEntity
   8
LEVEL001
 370
15
 100
AcDbCircle
   6
HIDDEN
  62
2
  10
 407.29665718043
  20
 957.10047435941
  30
0.0
  40
 8.0000000000000
   0
LINE
   5
36C
 100
AcDbEntity
   8
LEVEL001
 370
15
 100
AcDbLine
   6
DASHDOT
  62
8
  10
 395.25226472705
  20
 957.10047435941
  30
0.0
  11
 419.34104963381
  21
 957.10047435941
  31
0.0
   0
ARC
   5
36D
 100
AcDbEntity
   8
LEVEL001
 370
20
   6
CONTINUOUS
  62
7
 100
AcDbCircle
  10
 291.84605233309
  20
 806.65120790659
  30
0.0
  40
 8.0000000000000
 100
AcDbArc
  50
 270.00000000000
  51
0.0
   0
ARC
   5
36E
 100
AcDbEntity
   8
LEVEL001
 370
20
   6
CONTINUOUS
  62
7
 100
AcDbCircle
  10
 291.84605233309
  20
 806.65120790659
  30
0.0
  40
 24.000000000000
 100
AcDbArc
  50
 270.00000000000
  51
0.0
   0
LINE
   5
36F
 100
AcDbEntity
   8
LEVEL001
 370
20
 100
AcDbLine
   6
CONTINUOUS
  62
7
  10
 299.84605233309
  20
 806.65120790659
  30
0.0
  11
 299.84605233309
  21
 835.65120790659
  31
0.0
   0
LINE
   5
370
 100
AcDbEntity
   8
LEVEL001
 370
20
 100
AcDbLine
   6
CONTINUOUS
  62
7
  10
 299.84605233309
  20
 835.65120790659
  30
0.0
  11
 315.84605233309
  21
 835.65120790659
  31
0.0
   0
LINE
   5
371
 100
AcDbEntity
   8
LEVEL001
 370
20
 100
AcDbLine
   6
CONTINUOUS
  62
7
  10
 315.84605233309
  20
 835.65120790659
  30
0.0
  11
 315.84605233309
  21
 806.65120790659
  31
0.0
   0
LINE
   5
372
 100
AcDbEntity
   8
LEVEL001
 370
20
 100
AcDbLine
   6
CONTINUOUS
  62
7
  10
 301.34605233309
  20
 835.65120790659
  30
0.0
  11
 314.34605233309
  21
 835.65120790659
  31
0.0
   0
LINE
   5
373
 100
AcDbEntity
   8
LEVEL001
 370
20
 100
AcDbLine
   6
CONTINUOUS
  62
7
  10
 236.34605233309
  20
 818.15120790659
  30
0.0
  11
 236.34605233309
  21
 763.15120790659
  31
0.0
   0
LINE
   5
374
 100
AcDbEntity
   8
LEVEL001
 370
20
 100
AcDbLine
   6
CONTINUOUS
  62
7
  10
 236.34605233309
  20
 763.15120790659
  30
0.0
  11
 237.84605233309
  21
 764.65120790659
  31
0.0
   0
LINE
   5
375
 100
AcDbEntity
   8
LEVEL001
 370
20
 100
AcDbLine
   6
CONTINUOUS
  62
7
  10
 237.84605233309
  20
 764.65120790659
  30
0.0
  11
 237.84605233309
  21
 816.65120790659
  31
0.0
   0
LINE
   5
376
 100
AcDbEntity
   8
LEVEL001
 370
20
 100
AcDbLine
   6
CONTINUOUS
  62
7
  10
 237.84605233309
  20
 816.65120790659
  30
0.0
  11
 236.34605233309
  21
 818.15120790659
  31
0.0
   0
LINE
   5
377
 100
AcDbEntity
   8
LEVEL001
 370
20
 100
AcDbLine
   6
CONTINUOUS
  62
7
  10
 237.84605233309
  20
 798.65120790659
  30
0.0
  11
 291.84605233309
  21
 798.65120790659
  31
0.0
   0
LINE
   5
378
 100
AcDbEntity
   8
LEVEL001
 370
20
 100
AcDbLine
   6
CONTINUOUS
  62
7
  10
 291.84605233309
  20
 782.65120790659
  30
0.0
  11
 237.84605233309
  21
 782.65120790659
  31
0.0
   0
LINE
   5
379
 100
AcDbEntity
   8
LEVEL001
 370
20
 100
AcDbLine
   6
CONTINUOUS
  62
7
  10
 234.34605233309
  20
 818.15120790659
  30
0.0
  11
 234.34605233309
  21
 763.15120790659
  31
0.0
   0
LINE
   5
37A
 100
AcDbEntity
   8
LEVEL001
 370
20
 100
AcDbLine
   6
CONTINUOUS
  62
7
  10
 234.34605233309
  20
 763.15120790659
  30
0.0
  11
 236.34605233309
  21
 763.15120790659
  31
0.0
   0
LINE
   5
37B
 100
AcDbEntity
   8
LEVEL001
 370
20
 100
AcDbLine
   6
CONTINUOUS
  62
7
  10
 236.34605233309
  20
 818.15120790659
  30
0.0
  11
 234.34605233309
  21
 818.15120790659
  31
0.0
   0
LINE
   5
37C
 100
AcDbEntity
   8
LEVEL001
 370
15
 100
AcDbLine
   6
HIDDEN
  62
2
  10
 237.54605233309
  20
 795.80120790658
  30
0.0
  11
 235.84605233309
  21
 797.50120790658
  31
0.0
   0
LINE
   5
37D
 100
AcDbEntity
   8
LEVEL001
 370
15
 100
AcDbLine
   6
HIDDEN
  62
2
  10
 235.84605233309
  20
 797.50120790658
  30
0.0
  11
 235.84605233309
  21
 802.30120790658
  31
0.0
   0
LINE
   5
37E
 100
AcDbEntity
   8
LEVEL001
 370
15
 100
AcDbLine
   6
HIDDEN
  62
2
  10
 235.84605233309
  20
 802.30120790658
  30
0.0
  11
 237.54605233309
  21
 804.00120790658
  31
0.0
   0
LINE
   5
37F
 100
AcDbEntity
   8
LEVEL001
 370
15
 100
AcDbLine
   6
HIDDEN
  62
2
  10
 237.84605233309
  20
 795.80120790658
  30
0.0
  11
 237.54605233309
  21
 795.80120790658
  31
0.0
   0
LINE
   5
380
 100
AcDbEntity
   8
LEVEL001
 370
15
 100
AcDbLine
   6
HIDDEN
  62
2
  10
 237.54605233309
  20
 795.80120790658
  30
0.0
  11
 237.54605233309
  21
 804.00120790658
  31
0.0
   0
LINE
   5
381
 100
AcDbEntity
   8
LEVEL001
 370
15
 100
AcDbLine
   6
HIDDEN
  62
2
  10
 237.54605233309
  20
 804.00120790658
  30
0.0
  11
 237.84605233309
  21
 804.00120790658
  31
0.0
   0
LINE
   5
382
 100
AcDbEntity
   8
LEVEL001
 370
15
 100
AcDbLine
   6
HIDDEN
  62
2
  10
 237.54605233309
  20
 768.05120790658
  30
0.0
  11
 235.84605233309
  21
 769.75120790658
  31
0.0
   0
LINE
   5
383
 100
AcDbEntity
   8
LEVEL001
 370
15
 100
AcDbLine
   6
HIDDEN
  62
2
  10
 235.84605233309
  20
 769.75120790658
  30
0.0
  11
 235.84605233309
  21
 774.55120790658
  31
0.0
   0
LINE
   5
384
 100
AcDbEntity
   8
LEVEL001
 370
15
 100
AcDbLine
   6
HIDDEN
  62
2
  10
 235.84605233309
  20
 774.55120790658
  30
0.0
  11
 237.54605233309
  21
 776.25120790658
  31
0.0
   0
LINE
   5
385
 100
AcDbEntity
   8
LEVEL001
 370
15
 100
AcDbLine
   6
HIDDEN
  62
2
  10
 237.84605233309
  20
 768.05120790658
  30
0.0
  11
 237.54605233309
  21
 768.05120790658
  31
0.0
   0
LINE
   5
386
 100
AcDbEntity
   8
LEVEL001
 370
15
 100
AcDbLine
   6
HIDDEN
  62
2
  10
 237.54605233309
  20
 768.05120790658
  30
0.0
  11
 237.54605233309
  21
 776.25120790658
  31
0.0
   0
LINE
   5
387
 100
AcDbEntity
   8
LEVEL001
 370
15
 100
AcDbLine
   6
HIDDEN
  62
2
  10
 237.54605233309
  20
 776.25120790658
  30
0.0
  11
 237.84605233309
  21
 776.25120790658
  31
0.0
   0
LINE
   5
388
 100
AcDbEntity
   8
LEVEL001
 370
15
 100
AcDbLine
   6
HIDDEN
  62
2
  10
 235.84605233309
  20
 802.30120790658
  30
0.0
  11
 234.34605233309
  21
 802.30120790658
  31
0.0
   0
LINE
   5
389
 100
AcDbEntity
   8
LEVEL001
 370
15
 100
AcDbLine
   6
HIDDEN
  62
2
  10
 235.84605233309
  20
 797.50120790658
  30
0.0
  11
 234.34605233309
  21
 797.50120790658
  31
0.0
   0
LINE
   5
38A
 100
AcDbEntity
   8
LEVEL001
 370
15
 100
AcDbLine
   6
HIDDEN
  62
2
  10
 235.84605233309
  20
 769.75120790658
  30
0.0
  11
 234.34605233309
  21
 769.75120790658
  31
0.0
   0
LINE
   5
38B
 100
AcDbEntity
   8
LEVEL001
 370
15
 100
AcDbLine
   6
HIDDEN
  62
2
  10
 235.84605233309
  20
 774.55120790658
  30
0.0
  11
 234.34605233309
  21
 774.55120790658
  31
0.0
   0
ARC
   5
38C
 100
AcDbEntity
   8
LEVEL001
 370
15
   6
DASHDOT
  62
8
 100
AcDbCircle
  10
 291.84605233308
  20
 806.65120790659
  30
0.0
  40
 16.000000000000
 100
AcDbArc
  50
 270.00000000000
  51
0.0
   0
LINE
   5
38D
 100
AcDbEntity
   8
LEVEL001
 370
15
 100
AcDbLine
   6
DASHDOT
  62
8
  10
 232.04975265254
  20
 772.15120790658
  30
0.0
  11
 240.14235201363
  21
 772.15120790658
  31
0.0
   0
LINE
   5
38E
 100
AcDbEntity
   8
LEVEL001
 370
15
 100
AcDbLine
   6
DASHDOT
  62
8
  10
 291.84605233309
  20
 790.65120790659
  30
0.0
  11
 227.61293788239
  21
 790.65120790659
  31
0.0
   0
LINE
   5
38F
 100
AcDbEntity
   8
LEVEL001
 370
15
 100
AcDbLine
   6
DASHDOT
  62
8
  10
 232.04975265254
  20
 799.90120790658
  30
0.0
  11
 240.14235201363
  21
 799.90120790658
  31
0.0
   0
DIMENSION
   5
390
 100
AcDbEntity
   8
0
 370
15
   6
CONTINUOUS
  62
8
 100
AcDbDimension
   2
*D1
  10
 344.49009215664
  20
 835.65120790659
  30
0.0
  11
 344.49009215664
  21
 813.15120790659
  31
0.0
  70
0
   3
GMM001
 100
AcDbAlignedDimension
  13
 291.84605233308
  23
 790.65120790659
  33
0.0
  14
 315.84605233309
  24
 835.65120790659
  34
0.0
  50
 90.000000000000
 100
AcDbRotatedDimension
   0
DIMENSION
   5
391
 100
AcDbEntity
   8
0
 370
15
   6
CONTINUOUS
  62
8
 100
AcDbDimension
   2
*D2
  10
 237.84605233309
  20
 733.15120790659
  30
0.0
  11
 211.94706072777
  21
 733.15120790659
  31
0.0
  70
128
   3
GMM002
 100
AcDbAlignedDimension
  13
 234.34605233309
  23
 763.15120790659
  33
0.0
  14
 237.84605233309
  24
 764.65120790659
  34
0.0
 100
AcDbRotatedDimension
   0
DIMENSION
   5
392
 100
AcDbEntity
   8
0
 370
15
   6
CONTINUOUS
  62
8
 100
AcDbDimension
   2
*D3
  10
 307.84605233308
  20
 733.15120790659
  30
0.0
  11
 272.84605233308
  21
 733.15120790659
  31
0.0
  70
0
   1
\A1;L
   3
GMM003
 100
AcDbAlignedDimension
  13
 237.84605233309
  23
 764.65120790659
  33
0.0
  14
 307.84605233308
  24
 806.65120790659
  34
0.0
 100
AcDbRotatedDimension
   0
LINE
   5
393
 100
AcDbEntity
   8
LEVEL004
 370
20
 100
AcDbLine
   6
CONTINUOUS
  62
7
  10
 300.40389371289
  20
 835.65120790659
  30
0.0
  11
 315.28821095328
  21
 835.65120790659
  31
0.0
   0
LINE
   5
394
 100
AcDbEntity
   8
LEVEL001
 370
20
 100
AcDbLine
   6
CONTINUOUS
  62
7
  10
 399.29665718043
  20
 790.65120790659
  30
0.0
  11
 399.29665718043
  21
 835.65120790659
  31
0.0
   0
LINE
   5
395
 100
AcDbEntity
   8
LEVEL001
 370
20
 100
AcDbLine
   6
CONTINUOUS
  62
7
  10
 399.29665718043
  20
 835.65120790659
  30
0.0
  11
 415.29665718043
  21
 835.65120790659
  31
0.0
   0
LINE
   5
396
 100
AcDbEntity
   8
LEVEL001
 370
20
 100
AcDbLine
   6
CONTINUOUS
  62
7
  10
 415.29665718043
  20
 835.65120790659
  30
0.0
  11
 415.29665718043
  21
 790.65120790659
  31
0.0
   0
ARC
   5
397
 100
AcDbEntity
   8
LEVEL001
 370
20
   6
CONTINUOUS
  62
7
 100
AcDbCircle
  10
 407.29665718043
  20
 790.65120790659
  30
0.0
  40
 8.0000000000000
 100
AcDbArc
  50
 180.00000000000
  51
0.0
   0
ARC
   5
398
 100
AcDbEntity
   8
LEVEL001
 370
20
   6
CONTINUOUS
  62
7
 100
AcDbCircle
  10
 407.29665718043
  20
 790.65120790659
  30
0.0
  40
 27.500000000000
 100
AcDbArc
  50
 106.91238980342
  51
 73.087610196568
   0
ARC
   5
399
 100
AcDbEntity
   8
LEVEL001
 370
20
   6
CONTINUOUS
  62
7
 100
AcDbCircle
  10
 407.29665718043
  20
 790.65120790659
  30
0.0
  40
 26.000000000000
 100
AcDbArc
  50
 107.92021313939
  51
 72.079786860595
   0
CIRCLE
   5
39A
 100
AcDbEntity
   8
LEVEL001
 370
20
 100
AcDbCircle
   6
CONTINUOUS
  62
7
  10
 423.31812715035
  20
 799.90120790660
  30
0.0
  40
 4.1000000000000
   0
CIRCLE
   5
39B
 100
AcDbEntity
   8
LEVEL001
 370
20
 100
AcDbCircle
   6
CONTINUOUS
  62
7
  10
 423.31812715035
  20
 799.90120790660
  30
0.0
  40
 2.4000000000000
   0
CIRCLE
   5
39C
 100
AcDbEntity
   8
LEVEL001
 370
20
 100
AcDbCircle
   6
CONTINUOUS
  62
7
  10
 407.29665718034
  20
 772.15120790660
  30
0.0
  40
 4.1000000000000
   0
CIRCLE
   5
39D
 100
AcDbEntity
   8
LEVEL001
 370
20
 100
AcDbCircle
   6
CONTINUOUS
  62
7
  10
 407.29665718034
  20
 772.15120790660
  30
0.0
  40
 2.4000000000000
   0
CIRCLE
   5
39E
 100
AcDbEntity
   8
LEVEL001
 370
20
 100
AcDbCircle
   6
CONTINUOUS
  62
7
  10
 391.27518721033
  20
 799.90120790660
  30
0.0
  40
 4.1000000000000
   0
CIRCLE
   5
39F
 100
AcDbEntity
   8
LEVEL001
 370
20
 100
AcDbCircle
   6
CONTINUOUS
  62
7
  10
 391.27518721033
  20
 799.90120790660
  30
0.0
  40
 2.4000000000000
   0
LINE
   5
3A0
 100
AcDbEntity
   8
LEVEL001
 370
15
 100
AcDbLine
   6
DASHDOT
  62
8
  10
 384.87510952198
  20
 799.90120790660
  30
0.0
  11
 397.67526489868
  21
 799.90120790660
  31
0.0
   0
LINE
   5
3A1
 100
AcDbEntity
   8
LEVEL001
 370
15
 100
AcDbLine
   6
DASHDOT
  62
8
  10
 391.27518721033
  20
 806.40310848349
  30
0.0
  11
 391.27518721033
  21
 793.39930732970
  31
0.0
   0
LINE
   5
3A2
 100
AcDbEntity
   8
LEVEL001
 370
15
 100
AcDbLine
   6
DASHDOT
  62
8
  10
 439.66321440578
  20
 790.65120790659
  30
0.0
  11
 374.93009995508
  21
 790.65120790659
  31
0.0
   0
LINE
   5
3A3
 100
AcDbEntity
   8
LEVEL001
 370
15
 100
AcDbLine
   6
DASHDOT
  62
8
  10
 416.91804946200
  20
 799.90120790660
  30
0.0
  11
 429.71820483870
  21
 799.90120790660
  31
0.0
   0
LINE
   5
3A4
 100
AcDbEntity
   8
LEVEL001
 370
15
 100
AcDbLine
   6
DASHDOT
  62
8
  10
 423.31812715035
  20
 806.40310848349
  30
0.0
  11
 423.31812715035
  21
 793.39930732970
  31
0.0
   0
LINE
   5
3A5
 100
AcDbEntity
   8
LEVEL001
 370
15
 100
AcDbLine
   6
DASHDOT
  62
8
  10
 400.89657949199
  20
 772.15120790660
  30
0.0
  11
 413.69673486869
  21
 772.15120790660
  31
0.0
   0
DIMENSION
   5
3A6
 100
AcDbEntity
   8
0
 370
15
   6
CONTINUOUS
  62
8
 100
AcDbDimension
   2
*D4
  10
 415.29665718043
  20
 733.15120790659
  30
0.0
  11
 459.54477748108
  21
 733.15120790659
  31
0.0
  70
128
  53
0.0
   3
GMM004
 100
AcDbAlignedDimension
  13
 399.29665718043
  23
 790.65120790659
  33
0.0
  14
 415.29665718043
  24
 790.65120790659
  34
0.0
 100
AcDbRotatedDimension
   0
DIMENSION
   5
3A7
 100
AcDbEntity
   8
0
 370
15
   6
CONTINUOUS
  62
8
 100
AcDbDimension
   2
*D5
  10
 434.79665718043
  20
 703.15120790659
  30
0.0
  11
 407.29665718043
  21
 703.15120790659
  31
0.0
  70
0
   3
GMM001
 100
AcDbAlignedDimension
  13
 379.79665718043
  23
 790.65120790659
  33
0.0
  14
 434.79665718043
  24
 790.65120790659
  34
0.0
 100
AcDbRotatedDimension
   0
LINE
   5
3A8
 100
AcDbEntity
   8
LEVEL004
 370
20
 100
AcDbLine
   6
CONTINUOUS
  62
7
  10
 400.00486111293
  20
 835.65120790659
  30
0.0
  11
 414.58845324793
  21
 835.65120790659
  31
0.0
   0
DIMENSION
   5
3A9
 100
AcDbEntity
   8
0
 370
15
   6
CONTINUOUS
  62
8
 100
AcDbDimension
   2
*D6
  10
 220.18221882868
  20
 763.15120790659
  30
0.0
  11
 220.18221882868
  21
 790.65120790659
  31
0.0
  70
0
   3
GMM001
 100
AcDbAlignedDimension
  13
 234.34605233309
  23
 818.15120790659
  33
0.0
  14
 234.34605233309
  24
 763.15120790659
  34
0.0
  50
 270.00000000000
 100
AcDbRotatedDimension
   0
CIRCLE
   5
3AA
 100
AcDbEntity
   8
LEVEL001
 370
15
 100
AcDbCircle
   6
HIDDEN
  62
2
  10
 1010.2966571804
  20
 957.10047435921
  30
0.0
  40
 8.0000000000000
   0
LINE
   5
3AB
 100
AcDbEntity
   8
LEVEL001
 370
15
 100
AcDbLine
   6
DASHDOT
  62
8
  10
 998.25226472705
  20
 957.10047435921
  30
0.0
  11
 1022.3410496338
  21
 957.10047435921
  31
0.0
   0
ARC
   5
3AC
 100
AcDbEntity
   8
LEVEL001
 370
20
   6
CONTINUOUS
  62
7
 100
AcDbCircle
  10
 894.84605233309
  20
 806.65120790638
  30
0.0
  40
 8.0000000000000
 100
AcDbArc
  50
 270.00000000000
  51
0.0
   0
ARC
   5
3AD
 100
AcDbEntity
   8
LEVEL001
 370
20
   6
CONTINUOUS
  62
7
 100
AcDbCircle
  10
 894.84605233309
  20
 806.65120790638
  30
0.0
  40
 24.000000000000
 100
AcDbArc
  50
 270.00000000000
  51
0.0
   0
LINE
   5
3AE
 100
AcDbEntity
   8
LEVEL001
 370
20
 100
AcDbLine
   6
CONTINUOUS
  62
7
  10
 902.84605233309
  20
 806.65120790638
  30
0.0
  11
 902.84605233309
  21
 835.65120790638
  31
0.0
   0
LINE
   5
3AF
 100
AcDbEntity
   8
LEVEL001
 370
20
 100
AcDbLine
   6
CONTINUOUS
  62
7
  10
 902.84605233309
  20
 835.65120790638
  30
0.0
  11
 918.84605233309
  21
 835.65120790638
  31
0.0
   0
LINE
   5
3B0
 100
AcDbEntity
   8
LEVEL001
 370
20
 100
AcDbLine
   6
CONTINUOUS
  62
7
  10
 918.84605233309
  20
 835.65120790638
  30
0.0
  11
 918.84605233309
  21
 806.65120790638
  31
0.0
   0
LINE
   5
3B1
 100
AcDbEntity
   8
LEVEL001
 370
20
 100
AcDbLine
   6
CONTINUOUS
  62
7
  10
 904.34605233309
  20
 835.65120790638
  30
0.0
  11
 917.34605233309
  21
 835.65120790638
  31
0.0
   0
LINE
   5
3B2
 100
AcDbEntity
   8
LEVEL001
 370
20
 100
AcDbLine
   6
CONTINUOUS
  62
7
  10
 839.34605233309
  20
 818.15120790638
  30
0.0
  11
 839.34605233309
  21
 763.15120790638
  31
0.0
   0
LINE
   5
3B3
 100
AcDbEntity
   8
LEVEL001
 370
20
 100
AcDbLine
   6
CONTINUOUS
  62
7
  10
 839.34605233309
  20
 763.15120790638
  30
0.0
  11
 840.84605233309
  21
 764.65120790638
  31
0.0
   0
LINE
   5
3B4
 100
AcDbEntity
   8
LEVEL001
 370
20
 100
AcDbLine
   6
CONTINUOUS
  62
7
  10
 840.84605233309
  20
 764.65120790638
  30
0.0
  11
 840.84605233309
  21
 816.65120790638
  31
0.0
   0
LINE
   5
3B5
 100
AcDbEntity
   8
LEVEL001
 370
20
 100
AcDbLine
   6
CONTINUOUS
  62
7
  10
 840.84605233309
  20
 816.65120790638
  30
0.0
  11
 839.34605233309
  21
 818.15120790638
  31
0.0
   0
LINE
   5
3B6
 100
AcDbEntity
   8
LEVEL001
 370
20
 100
AcDbLine
   6
CONTINUOUS
  62
7
  10
 840.84605233309
  20
 798.65120790638
  30
0.0
  11
 894.84605233309
  21
 798.65120790638
  31
0.0
   0
LINE
   5
3B7
 100
AcDbEntity
   8
LEVEL001
 370
20
 100
AcDbLine
   6
CONTINUOUS
  62
7
  10
 894.84605233309
  20
 782.65120790638
  30
0.0
  11
 840.84605233309
  21
 782.65120790638
  31
0.0
   0
LINE
   5
3B8
 100
AcDbEntity
   8
LEVEL001
 370
20
 100
AcDbLine
   6
CONTINUOUS
  62
7
  10
 837.34605233309
  20
 818.15120790638
  30
0.0
  11
 837.34605233309
  21
 763.15120790638
  31
0.0
   0
LINE
   5
3B9
 100
AcDbEntity
   8
LEVEL001
 370
20
 100
AcDbLine
   6
CONTINUOUS
  62
7
  10
 837.34605233309
  20
 763.15120790638
  30
0.0
  11
 839.34605233309
  21
 763.15120790638
  31
0.0
   0
LINE
   5
3BA
 100
AcDbEntity
   8
LEVEL001
 370
20
 100
AcDbLine
   6
CONTINUOUS
  62
7
  10
 839.34605233309
  20
 818.15120790638
  30
0.0
  11
 837.34605233309
  21
 818.15120790638
  31
0.0
   0
LINE
   5
3BB
 100
AcDbEntity
   8
LEVEL001
 370
15
 100
AcDbLine
   6
HIDDEN
  62
2
  10
 840.54605233309
  20
 795.80120790637
  30
0.0
  11
 838.84605233309
  21
 797.50120790637
  31
0.0
   0
LINE
   5
3BC
 100
AcDbEntity
   8
LEVEL001
 370
15
 100
AcDbLine
   6
HIDDEN
  62
2
  10
 838.84605233309
  20
 797.50120790637
  30
0.0
  11
 838.84605233309
  21
 802.30120790637
  31
0.0
   0
LINE
   5
3BD
 100
AcDbEntity
   8
LEVEL001
 370
15
 100
AcDbLine
   6
HIDDEN
  62
2
  10
 838.84605233309
  20
 802.30120790637
  30
0.0
  11
 840.54605233309
  21
 804.00120790637
  31
0.0
   0
LINE
   5
3BE
 100
AcDbEntity
   8
LEVEL001
 370
15
 100
AcDbLine
   6
HIDDEN
  62
2
  10
 840.84605233309
  20
 795.80120790637
  30
0.0
  11
 840.54605233309
  21
 795.80120790637
  31
0.0
   0
LINE
   5
3BF
 100
AcDbEntity
   8
LEVEL001
 370
15
 100
AcDbLine
   6
HIDDEN
  62
2
  10
 840.54605233309
  20
 795.80120790637
  30
0.0
  11
 840.54605233309
  21
 804.00120790637
  31
0.0
   0
LINE
   5
3C0
 100
AcDbEntity
   8
LEVEL001
 370
15
 100
AcDbLine
   6
HIDDEN
  62
2
  10
 840.54605233309
  20
 804.00120790637
  30
0.0
  11
 840.84605233309
  21
 804.00120790637
  31
0.0
   0
LINE
   5
3C1
 100
AcDbEntity
   8
LEVEL001
 370
15
 100
AcDbLine
   6
HIDDEN
  62
2
  10
 840.54605233309
  20
 768.05120790637
  30
0.0
  11
 838.84605233309
  21
 769.75120790637
  31
0.0
   0
LINE
   5
3C2
 100
AcDbEntity
   8
LEVEL001
 370
15
 100
AcDbLine
   6
HIDDEN
  62
2
  10
 838.84605233309
  20
 769.75120790637
  30
0.0
  11
 838.84605233309
  21
 774.55120790637
  31
0.0
   0
LINE
   5
3C3
 100
AcDbEntity
   8
LEVEL001
 370
15
 100
AcDbLine
   6
HIDDEN
  62
2
  10
 838.84605233309
  20
 774.55120790637
  30
0.0
  11
 840.54605233309
  21
 776.25120790637
  31
0.0
   0
LINE
   5
3C4
 100
AcDbEntity
   8
LEVEL001
 370
15
 100
AcDbLine
   6
HIDDEN
  62
2
  10
 840.84605233309
  20
 768.05120790637
  30
0.0
  11
 840.54605233309
  21
 768.05120790637
  31
0.0
   0
LINE
   5
3C5
 100
AcDbEntity
   8
LEVEL001
 370
15
 100
AcDbLine
   6
HIDDEN
  62
2
  10
 840.54605233309
  20
 768.05120790637
  30
0.0
  11
 840.54605233309
  21
 776.25120790637
  31
0.0
   0
LINE
   5
3C6
 100
AcDbEntity
   8
LEVEL001
 370
15
 100
AcDbLine
   6
HIDDEN
  62
2
  10
 840.54605233309
  20
 776.25120790637
  30
0.0
  11
 840.84605233309
  21
 776.25120790637
  31
0.0
   0
LINE
   5
3C7
 100
AcDbEntity
   8
LEVEL001
 370
15
 100
AcDbLine
   6
HIDDEN
  62
2
  10
 838.84605233309
  20
 802.30120790637
  30
0.0
  11
 837.34605233309
  21
 802.30120790637
  31
0.0
   0
LINE
   5
3C8
 100
AcDbEntity
   8
LEVEL001
 370
15
 100
AcDbLine
   6
HIDDEN
  62
2
  10
 838.84605233309
  20
 797.50120790637
  30
0.0
  11
 837.34605233309
  21
 797.50120790637
  31
0.0
   0
LINE
   5
3C9
 100
AcDbEntity
   8
LEVEL001
 370
15
 100
AcDbLine
   6
HIDDEN
  62
2
  10
 838.84605233309
  20
 769.75120790637
  30
0.0
  11
 837.34605233309
  21
 769.75120790637
  31
0.0
   0
LINE
   5
3CA
 100
AcDbEntity
   8
LEVEL001
 370
15
 100
AcDbLine
   6
HIDDEN
  62
2
  10
 838.84605233309
  20
 774.55120790637
  30
0.0
  11
 837.34605233309
  21
 774.55120790637
  31
0.0
   0
ARC
   5
3CB
 100
AcDbEntity
   8
LEVEL001
 370
15
   6
DASHDOT
  62
8
 100
AcDbCircle
  10
 894.84605233308
  20
 806.65120790638
  30
0.0
  40
 16.000000000000
 100
AcDbArc
  50
 270.00000000000
  51
0.0
   0
LINE
   5
3CC
 100
AcDbEntity
   8
LEVEL001
 370
15
 100
AcDbLine
   6
DASHDOT
  62
8
  10
 835.04975265254
  20
 772.15120790637
  30
0.0
  11
 843.14235201363
  21
 772.15120790637
  31
0.0
   0
LINE
   5
3CD
 100
AcDbEntity
   8
LEVEL001
 370
15
 100
AcDbLine
   6
DASHDOT
  62
8
  10
 894.84605233309
  20
 790.65120790638
  30
0.0
  11
 830.61293788239
  21
 790.65120790638
  31
0.0
   0
LINE
   5
3CE
 100
AcDbEntity
   8
LEVEL001
 370
15
 100
AcDbLine
   6
DASHDOT
  62
8
  10
 835.04975265254
  20
 799.90120790637
  30
0.0
  11
 843.14235201363
  21
 799.90120790637
  31
0.0
   0
DIMENSION
   5
3CF
 100
AcDbEntity
   8
0
 370
15
   6
CONTINUOUS
  62
8
 100
AcDbDimension
   2
*D7
  10
 947.49009215664
  20
 835.65120790638
  30
0.0
  11
 947.49009215664
  21
 813.15120790638
  31
0.0
  70
0
   3
GMM001
 100
AcDbAlignedDimension
  13
 894.84605233308
  23
 790.65120790638
  33
0.0
  14
 918.84605233309
  24
 835.65120790638
  34
0.0
  50
 90.000000000000
 100
AcDbRotatedDimension
   0
DIMENSION
   5
3D0
 100
AcDbEntity
   8
0
 370
15
   6
CONTINUOUS
  62
8
 100
AcDbDimension
   2
*D8
  10
 840.84605233309
  20
 733.15120790638
  30
0.0
  11
 814.94706072777
  21
 733.15120790638
  31
0.0
  70
128
   3
GMM002
 100
AcDbAlignedDimension
  13
 837.34605233309
  23
 763.15120790638
  33
0.0
  14
 840.84605233309
  24
 764.65120790638
  34
0.0
 100
AcDbRotatedDimension
   0
DIMENSION
   5
3D1
 100
AcDbEntity
   8
0
 370
15
   6
CONTINUOUS
  62
8
 100
AcDbDimension
   2
*D9
  10
 910.84605233308
  20
 733.15120790638
  30
0.0
  11
 875.84605233308
  21
 733.15120790638
  31
0.0
  70
0
   1
\A1;L
   3
GMM003
 100
AcDbAlignedDimension
  13
 840.84605233309
  23
 764.65120790638
  33
0.0
  14
 910.84605233308
  24
 806.65120790638
  34
0.0
 100
AcDbRotatedDimension
   0
LINE
   5
3D2
 100
AcDbEntity
   8
LEVEL004
 370
20
 100
AcDbLine
   6
CONTINUOUS
  62
7
  10
 903.40389371289
  20
 835.65120790638
  30
0.0
  11
 918.28821095328
  21
 835.65120790638
  31
0.0
   0
LINE
   5
3D3
 100
AcDbEntity
   8
LEVEL001
 370
20
 100
AcDbLine
   6
CONTINUOUS
  62
7
  10
 1002.2966571804
  20
 790.65120790638
  30
0.0
  11
 1002.2966571804
  21
 835.65120790638
  31
0.0
   0
LINE
   5
3D4
 100
AcDbEntity
   8
LEVEL001
 370
20
 100
AcDbLine
   6
CONTINUOUS
  62
7
  10
 1002.2966571804
  20
 835.65120790638
  30
0.0
  11
 1018.2966571804
  21
 835.65120790638
  31
0.0
   0
LINE
   5
3D5
 100
AcDbEntity
   8
LEVEL001
 370
20
 100
AcDbLine
   6
CONTINUOUS
  62
7
  10
 1018.2966571804
  20
 835.65120790638
  30
0.0
  11
 1018.2966571804
  21
 790.65120790638
  31
0.0
   0
ARC
   5
3D6
 100
AcDbEntity
   8
LEVEL001
 370
20
   6
CONTINUOUS
  62
7
 100
AcDbCircle
  10
 1010.2966571804
  20
 790.65120790638
  30
0.0
  40
 8.0000000000000
 100
AcDbArc
  50
 180.00000000000
  51
0.0
   0
ARC
   5
3D7
 100
AcDbEntity
   8
LEVEL001
 370
20
   6
CONTINUOUS
  62
7
 100
AcDbCircle
  10
 1010.2966571804
  20
 790.65120790638
  30
0.0
  40
 27.500000000000
 100
AcDbArc
  50
 106.91238980342
  51
 73.087610196568
   0
ARC
   5
3D8
 100
AcDbEntity
   8
LEVEL001
 370
20
   6
CONTINUOUS
  62
7
 100
AcDbCircle
  10
 1010.2966571804
  20
 790.65120790638
  30
0.0
  40
 26.000000000000
 100
AcDbArc
  50
 107.92021313939
  51
 72.079786860595
   0
CIRCLE
   5
3D9
 100
AcDbEntity
   8
LEVEL001
 370
20
 100
AcDbCircle
   6
CONTINUOUS
  62
7
  10
 1026.3181271504
  20
 799.90120790639
  30
0.0
  40
 4.1000000000000
   0
CIRCLE
   5
3DA
 100
AcDbEntity
   8
LEVEL001
 370
20
 100
AcDbCircle
   6
CONTINUOUS
  62
7
  10
 1026.3181271504
  20
 799.90120790639
  30
0.0
  40
 2.4000000000000
   0
CIRCLE
   5
3DB
 100
AcDbEntity
   8
LEVEL001
 370
20
 100
AcDbCircle
   6
CONTINUOUS
  62
7
  10
 1010.2966571803
  20
 772.15120790639
  30
0.0
  40
 4.1000000000000
   0
CIRCLE
   5
3DC
 100
AcDbEntity
   8
LEVEL001
 370
20
 100
AcDbCircle
   6
CONTINUOUS
  62
7
  10
 1010.2966571803
  20
 772.15120790639
  30
0.0
  40
 2.4000000000000
   0
CIRCLE
   5
3DD
 100
AcDbEntity
   8
LEVEL001
 370
20
 100
AcDbCircle
   6
CONTINUOUS
  62
7
  10
 994.27518721033
  20
 799.90120790639
  30
0.0
  40
 4.1000000000000
   0
CIRCLE
   5
3DE
 100
AcDbEntity
   8
LEVEL001
 370
20
 100
AcDbCircle
   6
CONTINUOUS
  62
7
  10
 994.27518721033
  20
 799.90120790639
  30
0.0
  40
 2.4000000000000
   0
LINE
   5
3DF
 100
AcDbEntity
   8
LEVEL001
 370
15
 100
AcDbLine
   6
DASHDOT
  62
8
  10
 987.87510952198
  20
 799.90120790639
  30
0.0
  11
 1000.6752648987
  21
 799.90120790639
  31
0.0
   0
LINE
   5
3E0
 100
AcDbEntity
   8
LEVEL001
 370
15
 100
AcDbLine
   6
DASHDOT
  62
8
  10
 994.27518721033
  20
 806.40310848328
  30
0.0
  11
 994.27518721033
  21
 793.39930732949
  31
0.0
   0
LINE
   5
3E1
 100
AcDbEntity
   8
LEVEL001
 370
15
 100
AcDbLine
   6
DASHDOT
  62
8
  10
 1042.6632144058
  20
 790.65120790638
  30
0.0
  11
 977.93009995508
  21
 790.65120790638
  31
0.0
   0
LINE
   5
3E2
 100
AcDbEntity
   8
LEVEL001
 370
15
 100
AcDbLine
   6
DASHDOT
  62
8
  10
 1019.9180494620
  20
 799.90120790639
  30
0.0
  11
 1032.7182048387
  21
 799.90120790639
  31
0.0
   0
LINE
   5
3E3
 100
AcDbEntity
   8
LEVEL001
 370
15
 100
AcDbLine
   6
DASHDOT
  62
8
  10
 1026.3181271504
  20
 806.40310848328
  30
0.0
  11
 1026.3181271504
  21
 793.39930732949
  31
0.0
   0
LINE
   5
3E4
 100
AcDbEntity
   8
LEVEL001
 370
15
 100
AcDbLine
   6
DASHDOT
  62
8
  10
 1003.8965794920
  20
 772.15120790639
  30
0.0
  11
 1016.6967348687
  21
 772.15120790639
  31
0.0
   0
DIMENSION
   5
3E5
 100
AcDbEntity
   8
0
 370
15
   6
CONTINUOUS
  62
8
 100
AcDbDimension
   2
*D10
  10
 1018.2966571804
  20
 733.15120790638
  30
0.0
  11
 1062.5447774811
  21
 733.15120790638
  31
0.0
  70
128
  53
0.0
   3
GMM004
 100
AcDbAlignedDimension
  13
 1002.2966571804
  23
 790.65120790638
  33
0.0
  14
 1018.2966571804
  24
 790.65120790638
  34
0.0
 100
AcDbRotatedDimension
   0
DIMENSION
   5
3E6
 100
AcDbEntity
   8
0
 370
15
   6
CONTINUOUS
  62
8
 100
AcDbDimension
   2
*D11
  10
 1037.7966571804
  20
 703.15120790638
  30
0.0
  11
 1010.2966571804
  21
 703.15120790638
  31
0.0
  70
0
   3
GMM001
 100
AcDbAlignedDimension
  13
 982.79665718043
  23
 790.65120790638
  33
0.0
  14
 1037.7966571804
  24
 790.65120790638
  34
0.0
 100
AcDbRotatedDimension
   0
LINE
   5
3E7
 100
AcDbEntity
   8
LEVEL004
 370
20
 100
AcDbLine
   6
CONTINUOUS
  62
7
  10
 1003.0048611129
  20
 835.65120790638
  30
0.0
  11
 1017.5884532479
  21
 835.65120790638
  31
0.0
   0
DIMENSION
   5
3E8
 100
AcDbEntity
   8
0
 370
15
   6
CONTINUOUS
  62
8
 100
AcDbDimension
   2
*D12
  10
 823.18221882868
  20
 763.15120790638
  30
0.0
  11
 823.18221882868
  21
 790.65120790638
  31
0.0
  70
0
   3
GMM001
 100
AcDbAlignedDimension
  13
 837.34605233309
  23
 818.15120790638
  33
0.0
  14
 837.34605233309
  24
 763.15120790638
  34
0.0
  50
 270.00000000000
 100
AcDbRotatedDimension
   0
LINE
   5
3E9
 100
AcDbEntity
   8
LEVEL001
 370
15
 100
AcDbLine
   6
DASHDOT
  62
8
  10
 393.70593624669
  20
 402.35911197202
  30
0.0
  11
 417.79472115345
  21
 402.35911197202
  31
0.0
   0
LINE
   5
3EA
 100
AcDbEntity
   8
LEVEL001
 370
15
 100
AcDbLine
   6
DASHDOT
  62
8
  10
 412.34063206848
  20
 253.40984551920
  30
0.0
  11
 425.14078744518
  21
 253.40984551920
  31
0.0
   0
LINE
   5
3EB
 100
AcDbEntity
   8
LEVEL001
 370
15
 100
AcDbLine
   6
DASHDOT
  62
8
  10
 418.74070975683
  20
 259.91174609609
  30
0.0
  11
 418.74070975683
  21
 246.90794494230
  31
0.0
   0
LINE
   5
3EC
 100
AcDbEntity
   8
LEVEL001
 370
15
 100
AcDbLine
   6
DASHDOT
  62
8
  10
 386.35986995495
  20
 253.40984551920
  30
0.0
  11
 399.16002533165
  21
 253.40984551920
  31
0.0
   0
LINE
   5
3ED
 100
AcDbEntity
   8
LEVEL001
 370
15
 100
AcDbLine
   6
DASHDOT
  62
8
  10
 392.75994764330
  20
 259.91174609609
  30
0.0
  11
 392.75994764330
  21
 246.90794494230
  31
0.0
   0
LINE
   5
3EE
 100
AcDbEntity
   8
LEVEL001
 370
15
 100
AcDbLine
   6
DASHDOT
  62
8
  10
 399.35025101172
  20
 230.90984551920
  30
0.0
  11
 412.15040638842
  21
 230.90984551920
  31
0.0
   0
LINE
   5
3EF
 100
AcDbEntity
   8
0
 370
15
 100
AcDbLine
   6
DASHDOT
  62
8
  10
 374.50183111130
  20
 245.90984551920
  30
0.0
  11
 436.99882628884
  21
 245.90984551920
  31
0.0
   0
DIMENSION
   5
3F0
 100
AcDbEntity
   8
0
 370
15
   6
CONTINUOUS
  62
8
 100
AcDbDimension
   2
*D13
  10
 428.25032870007
  20
 174.60686412885
  30
0.0
  11
 405.75032870007
  21
 174.60686412885
  31
0.0
  70
0
   3
GMM001
 100
AcDbAlignedDimension
  13
 383.25032870007
  23
 245.90984551920
  33
0.0
  14
 428.25032870007
  24
 245.90984551920
  34
0.0
 100
AcDbRotatedDimension
   0
DIMENSION
   5
3F1
 100
AcDbEntity
   8
0
 370
15
   6
CONTINUOUS
  62
8
 100
AcDbDimension
   2
*D14
  10
 412.25032870007
  20
 199.21059567996
  30
0.0
  11
 428.75747020907
  21
 199.21059567996
  31
0.0
  70
128
   3
GMM005
 100
AcDbAlignedDimension
  13
 399.25032870007
  23
 245.90984551920
  33
0.0
  14
 412.25032870007
  24
 245.90984551920
  34
0.0
 100
AcDbRotatedDimension
   0
CIRCLE
   5
3F2
 100
AcDbEntity
   8
LEVEL001
 370
15
 100
AcDbCircle
   6
HIDDEN
  62
2
  10
 405.75032870007
  20
 402.35911197202
  30
0.0
  40
 6.5000000000000
   0
LINE
   5
3F3
 100
AcDbEntity
   8
LEVEL001
 370
20
 100
AcDbLine
   6
CONTINUOUS
  62
7
  10
 412.25032870007
  20
 245.90984551920
  30
0.0
  11
 412.25032870007
  21
 280.90984551920
  31
0.0
   0
ARC
   5
3F4
 100
AcDbEntity
   8
LEVEL001
 370
20
   6
CONTINUOUS
  62
7
 100
AcDbCircle
  10
 405.75032870007
  20
 245.90984551920
  30
0.0
  40
 6.5000000000000
 100
AcDbArc
  50
 180.00000000000
  51
0.0
   0
LINE
   5
3F5
 100
AcDbEntity
   8
LEVEL001
 370
20
 100
AcDbLine
   6
CONTINUOUS
  62
7
  10
 399.25032870007
  20
 280.90984551920
  30
0.0
  11
 399.25032870007
  21
 245.90984551920
  31
0.0
   0
ARC
   5
3F6
 100
AcDbEntity
   8
LEVEL001
 370
20
   6
CONTINUOUS
  62
7
 100
AcDbCircle
  10
 405.75032870007
  20
 245.90984551920
  30
0.0
  40
 22.500000000000
 100
AcDbArc
  50
 106.79144711459
  51
 73.208552885411
   0
CIRCLE
   5
3F7
 100
AcDbEntity
   8
LEVEL001
 370
20
 100
AcDbCircle
   6
CONTINUOUS
  62
7
  10
 418.74070975683
  20
 253.40984551920
  30
0.0
  40
 2.0000000000000
   0
CIRCLE
   5
3F8
 100
AcDbEntity
   8
LEVEL001
 370
20
 100
AcDbCircle
   6
CONTINUOUS
  62
7
  10
 418.74070975683
  20
 253.40984551920
  30
0.0
  40
 4.0000000000000
   0
ARC
   5
3F9
 100
AcDbEntity
   8
LEVEL001
 370
20
   6
CONTINUOUS
  62
7
 100
AcDbCircle
  10
 405.75032870007
  20
 245.90984551920
  30
0.0
  40
 21.000000000000
 100
AcDbArc
  50
 108.03053539334
  51
 71.969464606662
   0
CIRCLE
   5
3FA
 100
AcDbEntity
   8
LEVEL001
 370
20
 100
AcDbCircle
   6
CONTINUOUS
  62
7
  10
 405.75032870007
  20
 230.90984551920
  30
0.0
  40
 2.0000000000000
   0
CIRCLE
   5
3FB
 100
AcDbEntity
   8
LEVEL001
 370
20
 100
AcDbCircle
   6
CONTINUOUS
  62
7
  10
 405.75032870007
  20
 230.90984551920
  30
0.0
  40
 4.0000000000000
   0
CIRCLE
   5
3FC
 100
AcDbEntity
   8
LEVEL001
 370
20
 100
AcDbCircle
   6
CONTINUOUS
  62
7
  10
 392.75994764330
  20
 253.40984551920
  30
0.0
  40
 2.0000000000000
   0
CIRCLE
   5
3FD
 100
AcDbEntity
   8
LEVEL001
 370
20
 100
AcDbCircle
   6
CONTINUOUS
  62
7
  10
 392.75994764330
  20
 253.40984551920
  30
0.0
  40
 4.0000000000000
   0
LINE
   5
3FE
 100
AcDbEntity
   8
0
 370
20
 100
AcDbLine
   6
CONTINUOUS
  62
7
  10
 399.25032870007
  20
 280.90984551920
  30
0.0
  11
 412.25032870007
  21
 280.90984551920
  31
0.0
   0
LINE
   5
3FF
 100
AcDbEntity
   8
LEVEL001
 370
15
 100
AcDbLine
   6
DASHDOT
  62
8
  10
 291.79972385273
  20
 245.90984551920
  30
0.0
  11
 239.45551955009
  21
 245.90984551920
  31
0.0
   0
LINE
   5
400
 100
AcDbEntity
   8
LEVEL001
 370
15
 100
AcDbLine
   6
CONTINUOUS
  62
2
  10
 251.29972385273
  20
 237.90984551920
  30
0.0
  11
 251.29972385273
  21
 253.90984551920
  31
0.0
   0
LINE
   5
401
 100
AcDbEntity
   8
LEVEL001
 370
15
 100
AcDbLine
   6
HIDDEN
  62
2
  10
 250.99972385272
  20
 249.30984551920
  30
0.0
  11
 249.29972385273
  21
 251.00984551920
  31
0.0
   0
LINE
   5
402
 100
AcDbEntity
   8
LEVEL001
 370
15
 100
AcDbLine
   6
HIDDEN
  62
2
  10
 249.29972385273
  20
 251.00984551920
  30
0.0
  11
 249.29972385273
  21
 255.80984551920
  31
0.0
   0
LINE
   5
403
 100
AcDbEntity
   8
LEVEL001
 370
15
 100
AcDbLine
   6
HIDDEN
  62
2
  10
 249.29972385273
  20
 255.80984551920
  30
0.0
  11
 250.99972385272
  21
 257.50984551920
  31
0.0
   0
LINE
   5
404
 100
AcDbEntity
   8
LEVEL001
 370
15
 100
AcDbLine
   6
HIDDEN
  62
2
  10
 251.29972385273
  20
 249.30984551920
  30
0.0
  11
 250.99972385272
  21
 249.30984551920
  31
0.0
   0
LINE
   5
405
 100
AcDbEntity
   8
LEVEL001
 370
15
 100
AcDbLine
   6
HIDDEN
  62
2
  10
 250.99972385272
  20
 249.30984551920
  30
0.0
  11
 250.99972385272
  21
 257.50984551920
  31
0.0
   0
LINE
   5
406
 100
AcDbEntity
   8
LEVEL001
 370
15
 100
AcDbLine
   6
HIDDEN
  62
2
  10
 250.99972385272
  20
 257.50984551920
  30
0.0
  11
 251.29972385273
  21
 257.50984551920
  31
0.0
   0
LINE
   5
407
 100
AcDbEntity
   8
LEVEL001
 370
15
 100
AcDbLine
   6
HIDDEN
  62
2
  10
 249.29972385273
  20
 251.00984551920
  30
0.0
  11
 247.29972385273
  21
 251.00984551920
  31
0.0
   0
LINE
   5
408
 100
AcDbEntity
   8
LEVEL001
 370
15
 100
AcDbLine
   6
HIDDEN
  62
2
  10
 249.29972385273
  20
 255.80984551920
  30
0.0
  11
 247.29972385273
  21
 255.80984551920
  31
0.0
   0
LINE
   5
409
 100
AcDbEntity
   8
LEVEL001
 370
15
 100
AcDbLine
   6
HIDDEN
  62
2
  10
 250.99972385272
  20
 226.80984551920
  30
0.0
  11
 249.29972385273
  21
 228.50984551920
  31
0.0
   0
LINE
   5
40A
 100
AcDbEntity
   8
LEVEL001
 370
15
 100
AcDbLine
   6
HIDDEN
  62
2
  10
 249.29972385273
  20
 228.50984551920
  30
0.0
  11
 249.29972385273
  21
 233.30984551920
  31
0.0
   0
LINE
   5
40B
 100
AcDbEntity
   8
LEVEL001
 370
15
 100
AcDbLine
   6
HIDDEN
  62
2
  10
 249.29972385273
  20
 233.30984551920
  30
0.0
  11
 250.99972385272
  21
 235.00984551920
  31
0.0
   0
LINE
   5
40C
 100
AcDbEntity
   8
LEVEL001
 370
15
 100
AcDbLine
   6
HIDDEN
  62
2
  10
 251.29972385273
  20
 226.80984551920
  30
0.0
  11
 250.99972385272
  21
 226.80984551920
  31
0.0
   0
LINE
   5
40D
 100
AcDbEntity
   8
LEVEL001
 370
15
 100
AcDbLine
   6
HIDDEN
  62
2
  10
 250.99972385272
  20
 226.80984551920
  30
0.0
  11
 250.99972385272
  21
 235.00984551920
  31
0.0
   0
LINE
   5
40E
 100
AcDbEntity
   8
LEVEL001
 370
15
 100
AcDbLine
   6
HIDDEN
  62
2
  10
 250.99972385272
  20
 235.00984551920
  30
0.0
  11
 251.29972385273
  21
 235.00984551920
  31
0.0
   0
LINE
   5
40F
 100
AcDbEntity
   8
LEVEL001
 370
15
 100
AcDbLine
   6
HIDDEN
  62
2
  10
 249.29972385273
  20
 228.50984551920
  30
0.0
  11
 247.29972385273
  21
 228.50984551920
  31
0.0
   0
LINE
   5
410
 100
AcDbEntity
   8
LEVEL001
 370
15
 100
AcDbLine
   6
HIDDEN
  62
2
  10
 249.29972385273
  20
 233.30984551920
  30
0.0
  11
 247.29972385273
  21
 233.30984551920
  31
0.0
   0
LINE
   5
411
 100
AcDbEntity
   8
LEVEL001
 370
15
 100
AcDbLine
   6
DASHDOT
  62
8
  10
 245.00342417218
  20
 253.40984551920
  30
0.0
  11
 253.59602353328
  21
 253.40984551920
  31
0.0
   0
LINE
   5
412
 100
AcDbEntity
   8
LEVEL001
 370
15
 100
AcDbLine
   6
DASHDOT
  62
8
  10
 245.00342417218
  20
 230.90984551920
  30
0.0
  11
 253.59602353328
  21
 230.90984551920
  31
0.0
   0
ARC
   5
413
 100
AcDbEntity
   8
LEVEL001
 370
15
   6
DASHDOT
  62
8
 100
AcDbCircle
  10
 291.79972385273
  20
 260.40984551920
  30
0.0
  40
 14.500000000000
 100
AcDbArc
  50
 270.00000000000
  51
0.0
   0
DIMENSION
   5
414
 100
AcDbEntity
   8
0
 370
15
   6
CONTINUOUS
  62
8
 100
AcDbDimension
   2
*D15
  10
 342.94376367628
  20
 280.90984551920
  30
0.0
  11
 342.94376367628
  21
 263.40984551920
  31
0.0
  70
0
   3
GMM001
 100
AcDbAlignedDimension
  13
 290.29972385272
  23
 245.90984551920
  33
0.0
  14
 314.29972385273
  24
 280.90984551920
  34
0.0
  50
 90.000000000000
 100
AcDbRotatedDimension
   0
DIMENSION
   5
415
 100
AcDbEntity
   8
0
 370
15
   6
CONTINUOUS
  62
8
 100
AcDbDimension
   2
*D16
  10
 251.29972385273
  20
 199.21059567996
  30
0.0
  11
 242.31803829589
  21
 199.21059567996
  31
0.0
  70
128
   1
\A1;3.5
   3
GMM006
 100
AcDbAlignedDimension
  13
 247.29972385273
  23
 223.40984551920
  33
0.0
  14
 251.29972385273
  24
 224.90984551920
  34
0.0
 100
AcDbRotatedDimension
   0
DIMENSION
   5
416
 100
AcDbEntity
   8
0
 370
15
   6
CONTINUOUS
  62
8
 100
AcDbDimension
   2
*D17
  10
 306.29972385273
  20
 199.21059567996
  30
0.0
  11
 278.79972385273
  21
 199.21059567996
  31
0.0
  70
0
   1
\A1;L
   3
GMM003
 100
AcDbAlignedDimension
  13
 251.29972385273
  23
 224.90984551920
  33
0.0
  14
 306.29972385273
  24
 260.40984551920
  34
0.0
 100
AcDbRotatedDimension
   0
DIMENSION
   5
417
 100
AcDbEntity
   8
0
 370
15
   6
CONTINUOUS
  62
8
 100
AcDbDimension
   2
*D18
  10
 228.79088708451
  20
 268.40984551920
  30
0.0
  11
 228.79088708451
  21
 245.90984551920
  31
0.0
  70
0
   3
GMM001
 100
AcDbAlignedDimension
  13
 247.29972385273
  23
 223.40984551920
  33
0.0
  14
 247.29972385273
  24
 268.40984551920
  34
0.0
  50
 90.000000000000
 100
AcDbRotatedDimension
   0
ARC
   5
418
 100
AcDbEntity
   8
LEVEL001
 370
20
   6
CONTINUOUS
  62
7
 100
AcDbCircle
  10
 291.79972385273
  20
 260.40984551920
  30
0.0
  40
 21.000000000000
 100
AcDbArc
  50
 270.00000000000
  51
0.0
   0
ARC
   5
419
 100
AcDbEntity
   8
LEVEL001
 370
20
   6
CONTINUOUS
  62
7
 100
AcDbCircle
  10
 291.79972385273
  20
 260.40984551920
  30
0.0
  40
 8.0000000000000
 100
AcDbArc
  50
 270.00000000000
  51
0.0
   0
LINE
   5
41A
 100
AcDbEntity
   8
LEVEL001
 370
20
 100
AcDbLine
   6
CONTINUOUS
  62
7
  10
 291.79972385273
  20
 252.40984551920
  30
0.0
  11
 251.29972385273
  21
 252.40984551920
  31
0.0
   0
LINE
   5
41B
 100
AcDbEntity
   8
LEVEL001
 370
20
 100
AcDbLine
   6
CONTINUOUS
  62
7
  10
 251.29972385273
  20
 239.40984551920
  30
0.0
  11
 291.79972385273
  21
 239.40984551920
  31
0.0
   0
LINE
   5
41C
 100
AcDbEntity
   8
LEVEL001
 370
20
 100
AcDbLine
   6
CONTINUOUS
  62
7
  10
 251.29972385273
  20
 252.40984551920
  30
0.0
  11
 251.29972385273
  21
 266.90984551920
  31
0.0
   0
LINE
   5
41D
 100
AcDbEntity
   8
LEVEL001
 370
20
 100
AcDbLine
   6
CONTINUOUS
  62
7
  10
 247.29972385273
  20
 268.40984551920
  30
0.0
  11
 249.79972385273
  21
 268.40984551920
  31
0.0
   0
LINE
   5
41E
 100
AcDbEntity
   8
LEVEL001
 370
20
 100
AcDbLine
   6
CONTINUOUS
  62
7
  10
 249.79972385273
  20
 268.40984551920
  30
0.0
  11
 251.29972385273
  21
 266.90984551920
  31
0.0
   0
LINE
   5
41F
 100
AcDbEntity
   8
LEVEL001
 370
20
 100
AcDbLine
   6
CONTINUOUS
  62
7
  10
 249.79972385273
  20
 268.40984551920
  30
0.0
  11
 249.79972385273
  21
 223.40984551920
  31
0.0
   0
LINE
   5
420
 100
AcDbEntity
   8
LEVEL001
 370
20
 100
AcDbLine
   6
CONTINUOUS
  62
7
  10
 251.29972385273
  20
 224.90984551920
  30
0.0
  11
 251.29972385273
  21
 239.40984551920
  31
0.0
   0
LINE
   5
421
 100
AcDbEntity
   8
LEVEL001
 370
20
 100
AcDbLine
   6
CONTINUOUS
  62
7
  10
 247.29972385273
  20
 223.40984551920
  30
0.0
  11
 249.79972385273
  21
 223.40984551920
  31
0.0
   0
LINE
   5
422
 100
AcDbEntity
   8
LEVEL001
 370
20
 100
AcDbLine
   6
CONTINUOUS
  62
7
  10
 249.79972385273
  20
 223.40984551920
  30
0.0
  11
 251.29972385273
  21
 224.90984551920
  31
0.0
   0
LINE
   5
423
 100
AcDbEntity
   8
LEVEL001
 370
20
 100
AcDbLine
   6
CONTINUOUS
  62
7
  10
 247.29972385273
  20
 268.40984551920
  30
0.0
  11
 247.29972385273
  21
 223.40984551920
  31
0.0
   0
LINE
   5
424
 100
AcDbEntity
   8
LEVEL001
 370
20
 100
AcDbLine
   6
CONTINUOUS
  62
7
  10
 251.29972385273
  20
 252.40984551920
  30
0.0
  11
 251.29972385273
  21
 239.40984551920
  31
0.0
   0
LINE
   5
425
 100
AcDbEntity
   8
LEVEL001
 370
20
 100
AcDbLine
   6
CONTINUOUS
  62
7
  10
 312.79972385273
  20
 260.40984551920
  30
0.0
  11
 312.79972385273
  21
 280.90984551920
  31
0.0
   0
LINE
   5
426
 100
AcDbEntity
   8
LEVEL001
 370
20
 100
AcDbLine
   6
CONTINUOUS
  62
7
  10
 299.79972385273
  20
 280.90984551920
  30
0.0
  11
 299.79972385273
  21
 260.40984551920
  31
0.0
   0
LINE
   5
427
 100
AcDbEntity
   8
0
 370
20
 100
AcDbLine
   6
CONTINUOUS
  62
7
  10
 299.79972385273
  20
 280.90984551920
  30
0.0
  11
 312.79972385273
  21
 280.90984551920
  31
0.0
   0
LINE
   5
428
 100
AcDbEntity
   8
LEVEL001
 370
15
 100
AcDbLine
   6
DASHDOT
  62
8
  10
 996.70593624650
  20
 401.23372819884
  30
0.0
  11
 1020.7947211533
  21
 401.23372819884
  31
0.0
   0
LINE
   5
429
 100
AcDbEntity
   8
LEVEL001
 370
15
 100
AcDbLine
   6
DASHDOT
  62
8
  10
 1015.3406320683
  20
 252.28446174601
  30
0.0
  11
 1028.1407874450
  21
 252.28446174601
  31
0.0
   0
LINE
   5
42A
 100
AcDbEntity
   8
LEVEL001
 370
15
 100
AcDbLine
   6
DASHDOT
  62
8
  10
 1021.7407097566
  20
 258.78636232290
  30
0.0
  11
 1021.7407097566
  21
 245.78256116911
  31
0.0
   0
LINE
   5
42B
 100
AcDbEntity
   8
LEVEL001
 370
15
 100
AcDbLine
   6
DASHDOT
  62
8
  10
 989.35986995476
  20
 252.28446174601
  30
0.0
  11
 1002.1600253315
  21
 252.28446174601
  31
0.0
   0
LINE
   5
42C
 100
AcDbEntity
   8
LEVEL001
 370
15
 100
AcDbLine
   6
DASHDOT
  62
8
  10
 995.75994764311
  20
 258.78636232290
  30
0.0
  11
 995.75994764311
  21
 245.78256116911
  31
0.0
   0
LINE
   5
42D
 100
AcDbEntity
   8
LEVEL001
 370
15
 100
AcDbLine
   6
DASHDOT
  62
8
  10
 1002.3502510115
  20
 229.78446174601
  30
0.0
  11
 1015.1504063882
  21
 229.78446174601
  31
0.0
   0
LINE
   5
42E
 100
AcDbEntity
   8
0
 370
15
 100
AcDbLine
   6
DASHDOT
  62
8
  10
 977.50183111111
  20
 244.78446174601
  30
0.0
  11
 1039.9988262886
  21
 244.78446174601
  31
0.0
   0
DIMENSION
   5
42F
 100
AcDbEntity
   8
0
 370
15
   6
CONTINUOUS
  62
8
 100
AcDbDimension
   2
*D19
  10
 1031.2503286999
  20
 173.48148035566
  30
0.0
  11
 1008.7503286999
  21
 173.48148035566
  31
0.0
  70
0
   3
GMM001
 100
AcDbAlignedDimension
  13
 986.25032869988
  23
 244.78446174601
  33
0.0
  14
 1031.2503286999
  24
 244.78446174601
  34
0.0
 100
AcDbRotatedDimension
   0
DIMENSION
   5
430
 100
AcDbEntity
   8
0
 370
15
   6
CONTINUOUS
  62
8
 100
AcDbDimension
   2
*D20
  10
 1015.2503286999
  20
 198.08521190677
  30
0.0
  11
 1031.7574702089
  21
 198.08521190677
  31
0.0
  70
128
   3
GMM005
 100
AcDbAlignedDimension
  13
 1002.2503286999
  23
 244.78446174601
  33
0.0
  14
 1015.2503286999
  24
 244.78446174601
  34
0.0
 100
AcDbRotatedDimension
   0
CIRCLE
   5
431
 100
AcDbEntity
   8
LEVEL001
 370
15
 100
AcDbCircle
   6
HIDDEN
  62
2
  10
 1008.7503286999
  20
 401.23372819884
  30
0.0
  40
 6.5000000000000
   0
LINE
   5
432
 100
AcDbEntity
   8
LEVEL001
 370
20
 100
AcDbLine
   6
CONTINUOUS
  62
7
  10
 1015.2503286999
  20
 244.78446174601
  30
0.0
  11
 1015.2503286999
  21
 279.78446174601
  31
0.0
   0
ARC
   5
433
 100
AcDbEntity
   8
LEVEL001
 370
20
   6
CONTINUOUS
  62
7
 100
AcDbCircle
  10
 1008.7503286999
  20
 244.78446174601
  30
0.0
  40
 6.5000000000000
 100
AcDbArc
  50
 180.00000000000
  51
0.0
   0
LINE
   5
434
 100
AcDbEntity
   8
LEVEL001
 370
20
 100
AcDbLine
   6
CONTINUOUS
  62
7
  10
 1002.2503286999
  20
 279.78446174601
  30
0.0
  11
 1002.2503286999
  21
 244.78446174601
  31
0.0
   0
ARC
   5
435
 100
AcDbEntity
   8
LEVEL001
 370
20
   6
CONTINUOUS
  62
7
 100
AcDbCircle
  10
 1008.7503286999
  20
 244.78446174601
  30
0.0
  40
 22.500000000000
 100
AcDbArc
  50
 106.79144711459
  51
 73.208552885411
   0
CIRCLE
   5
436
 100
AcDbEntity
   8
LEVEL001
 370
20
 100
AcDbCircle
   6
CONTINUOUS
  62
7
  10
 1021.7407097566
  20
 252.28446174601
  30
0.0
  40
 2.0000000000000
   0
CIRCLE
   5
437
 100
AcDbEntity
   8
LEVEL001
 370
20
 100
AcDbCircle
   6
CONTINUOUS
  62
7
  10
 1021.7407097566
  20
 252.28446174601
  30
0.0
  40
 4.0000000000000
   0
ARC
   5
438
 100
AcDbEntity
   8
LEVEL001
 370
20
   6
CONTINUOUS
  62
7
 100
AcDbCircle
  10
 1008.7503286999
  20
 244.78446174601
  30
0.0
  40
 21.000000000000
 100
AcDbArc
  50
 108.03053539334
  51
 71.969464606662
   0
CIRCLE
   5
439
 100
AcDbEntity
   8
LEVEL001
 370
20
 100
AcDbCircle
   6
CONTINUOUS
  62
7
  10
 1008.7503286999
  20
 229.78446174601
  30
0.0
  40
 2.0000000000000
   0
CIRCLE
   5
43A
 100
AcDbEntity
   8
LEVEL001
 370
20
 100
AcDbCircle
   6
CONTINUOUS
  62
7
  10
 1008.7503286999
  20
 229.78446174601
  30
0.0
  40
 4.0000000000000
   0
CIRCLE
   5
43B
 100
AcDbEntity
   8
LEVEL001
 370
20
 100
AcDbCircle
   6
CONTINUOUS
  62
7
  10
 995.75994764311
  20
 252.28446174601
  30
0.0
  40
 2.0000000000000
   0
CIRCLE
   5
43C
 100
AcDbEntity
   8
LEVEL001
 370
20
 100
AcDbCircle
   6
CONTINUOUS
  62
7
  10
 995.75994764311
  20
 252.28446174601
  30
0.0
  40
 4.0000000000000
   0
LINE
   5
43D
 100
AcDbEntity
   8
0
 370
20
 100
AcDbLine
   6
CONTINUOUS
  62
7
  10
 1002.2503286999
  20
 279.78446174601
  30
0.0
  11
 1015.2503286999
  21
 279.78446174601
  31
0.0
   0
LINE
   5
43E
 100
AcDbEntity
   8
LEVEL001
 370
15
 100
AcDbLine
   6
DASHDOT
  62
8
  10
 894.79972385254
  20
 244.78446174601
  30
0.0
  11
 842.45551954990
  21
 244.78446174601
  31
0.0
   0
LINE
   5
43F
 100
AcDbEntity
   8
LEVEL001
 370
15
 100
AcDbLine
   6
CONTINUOUS
  62
2
  10
 854.29972385254
  20
 236.78446174601
  30
0.0
  11
 854.29972385254
  21
 252.78446174601
  31
0.0
   0
LINE
   5
440
 100
AcDbEntity
   8
LEVEL001
 370
15
 100
AcDbLine
   6
HIDDEN
  62
2
  10
 853.99972385253
  20
 248.18446174601
  30
0.0
  11
 852.29972385254
  21
 249.88446174601
  31
0.0
   0
LINE
   5
441
 100
AcDbEntity
   8
LEVEL001
 370
15
 100
AcDbLine
   6
HIDDEN
  62
2
  10
 852.29972385254
  20
 249.88446174601
  30
0.0
  11
 852.29972385254
  21
 254.68446174601
  31
0.0
   0
LINE
   5
442
 100
AcDbEntity
   8
LEVEL001
 370
15
 100
AcDbLine
   6
HIDDEN
  62
2
  10
 852.29972385254
  20
 254.68446174601
  30
0.0
  11
 853.99972385253
  21
 256.38446174601
  31
0.0
   0
LINE
   5
443
 100
AcDbEntity
   8
LEVEL001
 370
15
 100
AcDbLine
   6
HIDDEN
  62
2
  10
 854.29972385254
  20
 248.18446174601
  30
0.0
  11
 853.99972385253
  21
 248.18446174601
  31
0.0
   0
LINE
   5
444
 100
AcDbEntity
   8
LEVEL001
 370
15
 100
AcDbLine
   6
HIDDEN
  62
2
  10
 853.99972385253
  20
 248.18446174601
  30
0.0
  11
 853.99972385253
  21
 256.38446174601
  31
0.0
   0
LINE
   5
445
 100
AcDbEntity
   8
LEVEL001
 370
15
 100
AcDbLine
   6
HIDDEN
  62
2
  10
 853.99972385253
  20
 256.38446174601
  30
0.0
  11
 854.29972385254
  21
 256.38446174601
  31
0.0
   0
LINE
   5
446
 100
AcDbEntity
   8
LEVEL001
 370
15
 100
AcDbLine
   6
HIDDEN
  62
2
  10
 852.29972385254
  20
 249.88446174601
  30
0.0
  11
 850.29972385254
  21
 249.88446174601
  31
0.0
   0
LINE
   5
447
 100
AcDbEntity
   8
LEVEL001
 370
15
 100
AcDbLine
   6
HIDDEN
  62
2
  10
 852.29972385254
  20
 254.68446174601
  30
0.0
  11
 850.29972385254
  21
 254.68446174601
  31
0.0
   0
LINE
   5
448
 100
AcDbEntity
   8
LEVEL001
 370
15
 100
AcDbLine
   6
HIDDEN
  62
2
  10
 853.99972385253
  20
 225.68446174601
  30
0.0
  11
 852.29972385254
  21
 227.38446174601
  31
0.0
   0
LINE
   5
449
 100
AcDbEntity
   8
LEVEL001
 370
15
 100
AcDbLine
   6
HIDDEN
  62
2
  10
 852.29972385254
  20
 227.38446174601
  30
0.0
  11
 852.29972385254
  21
 232.18446174601
  31
0.0
   0
LINE
   5
44A
 100
AcDbEntity
   8
LEVEL001
 370
15
 100
AcDbLine
   6
HIDDEN
  62
2
  10
 852.29972385254
  20
 232.18446174601
  30
0.0
  11
 853.99972385253
  21
 233.88446174601
  31
0.0
   0
LINE
   5
44B
 100
AcDbEntity
   8
LEVEL001
 370
15
 100
AcDbLine
   6
HIDDEN
  62
2
  10
 854.29972385254
  20
 225.68446174601
  30
0.0
  11
 853.99972385253
  21
 225.68446174601
  31
0.0
   0
LINE
   5
44C
 100
AcDbEntity
   8
LEVEL001
 370
15
 100
AcDbLine
   6
HIDDEN
  62
2
  10
 853.99972385253
  20
 225.68446174601
  30
0.0
  11
 853.99972385253
  21
 233.88446174601
  31
0.0
   0
LINE
   5
44D
 100
AcDbEntity
   8
LEVEL001
 370
15
 100
AcDbLine
   6
HIDDEN
  62
2
  10
 853.99972385253
  20
 233.88446174601
  30
0.0
  11
 854.29972385254
  21
 233.88446174601
  31
0.0
   0
LINE
   5
44E
 100
AcDbEntity
   8
LEVEL001
 370
15
 100
AcDbLine
   6
HIDDEN
  62
2
  10
 852.29972385254
  20
 227.38446174601
  30
0.0
  11
 850.29972385254
  21
 227.38446174601
  31
0.0
   0
LINE
   5
44F
 100
AcDbEntity
   8
LEVEL001
 370
15
 100
AcDbLine
   6
HIDDEN
  62
2
  10
 852.29972385254
  20
 232.18446174601
  30
0.0
  11
 850.29972385254
  21
 232.18446174601
  31
0.0
   0
LINE
   5
450
 100
AcDbEntity
   8
LEVEL001
 370
15
 100
AcDbLine
   6
DASHDOT
  62
8
  10
 848.00342417199
  20
 252.28446174601
  30
0.0
  11
 856.59602353309
  21
 252.28446174601
  31
0.0
   0
LINE
   5
451
 100
AcDbEntity
   8
LEVEL001
 370
15
 100
AcDbLine
   6
DASHDOT
  62
8
  10
 848.00342417199
  20
 229.78446174601
  30
0.0
  11
 856.59602353309
  21
 229.78446174601
  31
0.0
   0
ARC
   5
452
 100
AcDbEntity
   8
LEVEL001
 370
15
   6
DASHDOT
  62
8
 100
AcDbCircle
  10
 894.79972385254
  20
 259.28446174601
  30
0.0
  40
 14.500000000000
 100
AcDbArc
  50
 270.00000000000
  51
0.0
   0
DIMENSION
   5
453
 100
AcDbEntity
   8
0
 370
15
   6
CONTINUOUS
  62
8
 100
AcDbDimension
   2
*D21
  10
 945.94376367609
  20
 279.78446174601
  30
0.0
  11
 945.94376367609
  21
 262.28446174601
  31
0.0
  70
0
   3
GMM001
 100
AcDbAlignedDimension
  13
 893.29972385253
  23
 244.78446174601
  33
0.0
  14
 917.29972385254
  24
 279.78446174601
  34
0.0
  50
 90.000000000000
 100
AcDbRotatedDimension
   0
DIMENSION
   5
454
 100
AcDbEntity
   8
0
 370
15
   6
CONTINUOUS
  62
8
 100
AcDbDimension
   2
*D22
  10
 854.29972385254
  20
 198.08521190677
  30
0.0
  11
 845.31803829570
  21
 198.08521190677
  31
0.0
  70
128
   1
\A1;3.5
   3
GMM006
 100
AcDbAlignedDimension
  13
 850.29972385254
  23
 222.28446174601
  33
0.0
  14
 854.29972385254
  24
 223.78446174601
  34
0.0
 100
AcDbRotatedDimension
   0
DIMENSION
   5
455
 100
AcDbEntity
   8
0
 370
15
   6
CONTINUOUS
  62
8
 100
AcDbDimension
   2
*D23
  10
 909.29972385254
  20
 198.08521190677
  30
0.0
  11
 881.79972385254
  21
 198.08521190677
  31
0.0
  70
0
   1
\A1;L
   3
GMM003
 100
AcDbAlignedDimension
  13
 854.29972385254
  23
 223.78446174601
  33
0.0
  14
 909.29972385254
  24
 259.28446174601
  34
0.0
 100
AcDbRotatedDimension
   0
DIMENSION
   5
456
 100
AcDbEntity
   8
0
 370
15
   6
CONTINUOUS
  62
8
 100
AcDbDimension
   2
*D24
  10
 831.79088708432
  20
 267.28446174601
  30
0.0
  11
 831.79088708432
  21
 244.78446174601
  31
0.0
  70
0
   3
GMM001
 100
AcDbAlignedDimension
  13
 850.29972385254
  23
 222.28446174601
  33
0.0
  14
 850.29972385254
  24
 267.28446174601
  34
0.0
  50
 90.000000000000
 100
AcDbRotatedDimension
   0
ARC
   5
457
 100
AcDbEntity
   8
LEVEL001
 370
20
   6
CONTINUOUS
  62
7
 100
AcDbCircle
  10
 894.79972385254
  20
 259.28446174601
  30
0.0
  40
 21.000000000000
 100
AcDbArc
  50
 270.00000000000
  51
0.0
   0
ARC
   5
458
 100
AcDbEntity
   8
LEVEL001
 370
20
   6
CONTINUOUS
  62
7
 100
AcDbCircle
  10
 894.79972385254
  20
 259.28446174601
  30
0.0
  40
 8.0000000000000
 100
AcDbArc
  50
 270.00000000000
  51
0.0
   0
LINE
   5
459
 100
AcDbEntity
   8
LEVEL001
 370
20
 100
AcDbLine
   6
CONTINUOUS
  62
7
  10
 894.79972385254
  20
 251.28446174601
  30
0.0
  11
 854.29972385254
  21
 251.28446174601
  31
0.0
   0
LINE
   5
45A
 100
AcDbEntity
   8
LEVEL001
 370
20
 100
AcDbLine
   6
CONTINUOUS
  62
7
  10
 854.29972385254
  20
 238.28446174601
  30
0.0
  11
 894.79972385254
  21
 238.28446174601
  31
0.0
   0
LINE
   5
45B
 100
AcDbEntity
   8
LEVEL001
 370
20
 100
AcDbLine
   6
CONTINUOUS
  62
7
  10
 854.29972385254
  20
 251.28446174601
  30
0.0
  11
 854.29972385254
  21
 265.78446174601
  31
0.0
   0
LINE
   5
45C
 100
AcDbEntity
   8
LEVEL001
 370
20
 100
AcDbLine
   6
CONTINUOUS
  62
7
  10
 850.29972385254
  20
 267.28446174601
  30
0.0
  11
 852.79972385254
  21
 267.28446174601
  31
0.0
   0
LINE
   5
45D
 100
AcDbEntity
   8
LEVEL001
 370
20
 100
AcDbLine
   6
CONTINUOUS
  62
7
  10
 852.79972385254
  20
 267.28446174601
  30
0.0
  11
 854.29972385254
  21
 265.78446174601
  31
0.0
   0
LINE
   5
45E
 100
AcDbEntity
   8
LEVEL001
 370
20
 100
AcDbLine
   6
CONTINUOUS
  62
7
  10
 852.79972385254
  20
 267.28446174601
  30
0.0
  11
 852.79972385254
  21
 222.28446174601
  31
0.0
   0
LINE
   5
45F
 100
AcDbEntity
   8
LEVEL001
 370
20
 100
AcDbLine
   6
CONTINUOUS
  62
7
  10
 854.29972385254
  20
 223.78446174601
  30
0.0
  11
 854.29972385254
  21
 238.28446174601
  31
0.0
   0
LINE
   5
460
 100
AcDbEntity
   8
LEVEL001
 370
20
 100
AcDbLine
   6
CONTINUOUS
  62
7
  10
 850.29972385254
  20
 222.28446174601
  30
0.0
  11
 852.79972385254
  21
 222.28446174601
  31
0.0
   0
LINE
   5
461
 100
AcDbEntity
   8
LEVEL001
 370
20
 100
AcDbLine
   6
CONTINUOUS
  62
7
  10
 852.79972385254
  20
 222.28446174601
  30
0.0
  11
 854.29972385254
  21
 223.78446174601
  31
0.0
   0
LINE
   5
462
 100
AcDbEntity
   8
LEVEL001
 370
20
 100
AcDbLine
   6
CONTINUOUS
  62
7
  10
 850.29972385254
  20
 267.28446174601
  30
0.0
  11
 850.29972385254
  21
 222.28446174601
  31
0.0
   0
LINE
   5
463
 100
AcDbEntity
   8
LEVEL001
 370
20
 100
AcDbLine
   6
CONTINUOUS
  62
7
  10
 854.29972385254
  20
 251.28446174601
  30
0.0
  11
 854.29972385254
  21
 238.28446174601
  31
0.0
   0
LINE
   5
464
 100
AcDbEntity
   8
LEVEL001
 370
20
 100
AcDbLine
   6
CONTINUOUS
  62
7
  10
 915.79972385254
  20
 259.28446174601
  30
0.0
  11
 915.79972385254
  21
 279.78446174601
  31
0.0
   0
LINE
   5
465
 100
AcDbEntity
   8
LEVEL001
 370
20
 100
AcDbLine
   6
CONTINUOUS
  62
7
  10
 902.79972385254
  20
 279.78446174601
  30
0.0
  11
 902.79972385254
  21
 259.28446174601
  31
0.0
   0
LINE
   5
466
 100
AcDbEntity
   8
0
 370
20
 100
AcDbLine
   6
CONTINUOUS
  62
7
  10
 902.79972385254
  20
 279.78446174601
  30
0.0
  11
 915.79972385254
  21
 279.78446174601
  31
0.0
   0
MTEXT
   5
468
 100
AcDbEntity
   8
LEVEL001
 370
15
  62
8
 100
AcDbMText
  10
 1305.5062713797
  20
 838.26225769669
  30
0.0
  40
 12.000000000000
  41
0.0
  71
1
  72
1
   1
{\T1.000000;材　質／ＳＵＳ３０４}\P{\T1.000000;仕上げ／ＨＬ}\P{\T1.000000;軸　径／%%c１６・１３軸}
   7
GMM001
  44
 0.79999984000003
   0
LWPOLYLINE
   5
469
 100
AcDbEntity
   8
0
 370
20
   6
CONTINUOUS
  62
1
 100
AcDbPolyline
  90
4
  70
1
  10
 296.29972385273
  20
 283.40984551920
  10
 296.29972385273
  20
 280.90984551920
  10
 316.29972385273
  20
 280.90984551920
  10
 316.29972385273
  20
 283.40984551920
   0
LINE
   5
46A
 100
AcDbEntity
   8
LEVEL004
 370
20
 100
AcDbLine
   6
HIDDEN
  62
1
  10
 301.54972385273
  20
 281.65984551920
  30
0.0
  11
 311.04972385273
  21
 281.65984551920
  31
0.0
   0
LINE
   5
46B
 100
AcDbEntity
   8
LEVEL004
 370
20
 100
AcDbLine
   6
HIDDEN
  62
1
  10
 301.54972385273
  20
 281.65984551920
  30
0.0
  11
 301.54972385273
  21
 280.90984551920
  31
0.0
   0
LINE
   5
46C
 100
AcDbEntity
   8
LEVEL004
 370
20
 100
AcDbLine
   6
HIDDEN
  62
1
  10
 301.54972385273
  20
 281.65984551920
  30
0.0
  11
 299.79972385273
  21
 283.40984551920
  31
0.0
   0
LINE
   5
46D
 100
AcDbEntity
   8
LEVEL004
 370
20
 100
AcDbLine
   6
HIDDEN
  62
1
  10
 311.04972385273
  20
 281.65984551920
  30
0.0
  11
 311.04972385273
  21
 280.90984551920
  31
0.0
   0
LINE
   5
46E
 100
AcDbEntity
   8
LEVEL004
 370
20
 100
AcDbLine
   6
HIDDEN
  62
1
  10
 311.04972385273
  20
 281.65984551920
  30
0.0
  11
 312.79972385273
  21
 283.40984551920
  31
0.0
   0
LINE
   5
46F
 100
AcDbEntity
   8
LEVEL004
 370
20
 100
AcDbLine
   6
HIDDEN
  62
1
  10
 306.29972385273
  20
 282.80984551920
  30
0.0
  11
 306.29972385273
  21
 283.40984551920
  31
0.0
   0
LINE
   5
470
 100
AcDbEntity
   8
LEVEL004
 370
20
 100
AcDbLine
   6
HIDDEN
  62
1
  10
 306.29972385273
  20
 282.80984551920
  30
0.0
  11
 308.19972385273
  21
 280.90984551920
  31
0.0
   0
LINE
   5
471
 100
AcDbEntity
   8
LEVEL004
 370
20
 100
AcDbLine
   6
HIDDEN
  62
1
  10
 301.29972385273
  20
 282.80984551920
  30
0.0
  11
 301.29972385273
  21
 283.40984551920
  31
0.0
   0
LINE
   5
472
 100
AcDbEntity
   8
LEVEL004
 370
20
 100
AcDbLine
   6
HIDDEN
  62
1
  10
 301.29972385273
  20
 282.80984551920
  30
0.0
  11
 299.39972385273
  21
 280.90984551920
  31
0.0
   0
LINE
   5
473
 100
AcDbEntity
   8
LEVEL004
 370
20
 100
AcDbLine
   6
HIDDEN
  62
1
  10
 301.29972385273
  20
 282.80984551920
  30
0.0
  11
 306.29972385273
  21
 282.80984551920
  31
0.0
   0
LINE
   5
474
 100
AcDbEntity
   8
LEVEL004
 370
20
 100
AcDbLine
   6
HIDDEN
  62
1
  10
 311.29972385273
  20
 282.80984551920
  30
0.0
  11
 311.29972385273
  21
 283.40984551920
  31
0.0
   0
LINE
   5
475
 100
AcDbEntity
   8
LEVEL004
 370
20
 100
AcDbLine
   6
HIDDEN
  62
1
  10
 311.29972385273
  20
 282.80984551920
  30
0.0
  11
 313.19972385273
  21
 280.90984551920
  31
0.0
   0
LINE
   5
476
 100
AcDbEntity
   8
LEVEL004
 370
20
 100
AcDbLine
   6
HIDDEN
  62
1
  10
 306.29972385273
  20
 282.80984551920
  30
0.0
  11
 306.29972385273
  21
 283.40984551920
  31
0.0
   0
LINE
   5
477
 100
AcDbEntity
   8
LEVEL004
 370
20
 100
AcDbLine
   6
HIDDEN
  62
1
  10
 306.29972385273
  20
 282.80984551920
  30
0.0
  11
 304.39972385273
  21
 280.90984551920
  31
0.0
   0
LINE
   5
478
 100
AcDbEntity
   8
LEVEL004
 370
20
 100
AcDbLine
   6
HIDDEN
  62
1
  10
 306.29972385273
  20
 282.80984551920
  30
0.0
  11
 311.29972385273
  21
 282.80984551920
  31
0.0
   0
LINE
   5
479
 100
AcDbEntity
   8
LEVEL006
 370
15
 100
AcDbLine
   6
DASHDOT
  62
8
  10
 303.79972385273
  20
 279.90984551920
  30
0.0
  11
 303.79972385273
  21
 283.90984551920
  31
0.0
   0
LINE
   5
47A
 100
AcDbEntity
   8
LEVEL006
 370
15
 100
AcDbLine
   6
DASHDOT
  62
8
  10
 308.79972385273
  20
 279.90984551920
  30
0.0
  11
 308.79972385273
  21
 283.90984551920
  31
0.0
   0
LINE
   5
47B
 100
AcDbEntity
   8
LEVEL006
 370
15
 100
AcDbLine
   6
DASHDOT
  62
8
  10
 375.75032870007
  20
 279.90984551920
  30
0.0
  11
 375.75032870007
  21
 283.90984551920
  31
0.0
   0
LINE
   5
47C
 100
AcDbEntity
   8
LEVEL004
 370
20
 100
AcDbLine
   6
CONTINUOUS
  62
1
  10
 365.75032870007
  20
 280.90984551920
  30
0.0
  11
 445.75032870007
  21
 280.90984551920
  31
0.0
   0
LINE
   5
47D
 100
AcDbEntity
   8
LEVEL004
 370
20
 100
AcDbLine
   6
CONTINUOUS
  62
1
  10
 365.75032870007
  20
 283.40984551920
  30
0.0
  11
 445.75032870007
  21
 283.40984551920
  31
0.0
   0
LINE
   5
47E
 100
AcDbEntity
   8
LEVEL004
 370
20
 100
AcDbLine
   6
CONTINUOUS
  62
1
  10
 365.75032870007
  20
 280.90984551920
  30
0.0
  11
 365.75032870007
  21
 283.40984551920
  31
0.0
   0
LINE
   5
47F
 100
AcDbEntity
   8
LEVEL004
 370
20
 100
AcDbLine
   6
HIDDEN
  62
1
  10
 401.00032870007
  20
 281.65984551920
  30
0.0
  11
 410.50032870007
  21
 281.65984551920
  31
0.0
   0
LINE
   5
480
 100
AcDbEntity
   8
LEVEL004
 370
20
 100
AcDbLine
   6
HIDDEN
  62
1
  10
 401.00032870007
  20
 281.65984551920
  30
0.0
  11
 401.00032870007
  21
 280.90984551920
  31
0.0
   0
LINE
   5
481
 100
AcDbEntity
   8
LEVEL004
 370
20
 100
AcDbLine
   6
HIDDEN
  62
1
  10
 401.00032870007
  20
 281.65984551920
  30
0.0
  11
 399.25032870007
  21
 283.40984551920
  31
0.0
   0
LINE
   5
482
 100
AcDbEntity
   8
LEVEL004
 370
20
 100
AcDbLine
   6
HIDDEN
  62
1
  10
 378.25032870007
  20
 282.80984551920
  30
0.0
  11
 378.25032870007
  21
 283.40984551920
  31
0.0
   0
LINE
   5
483
 100
AcDbEntity
   8
LEVEL004
 370
20
 100
AcDbLine
   6
HIDDEN
  62
1
  10
 378.25032870007
  20
 282.80984551920
  30
0.0
  11
 380.15032870007
  21
 280.90984551920
  31
0.0
   0
LINE
   5
484
 100
AcDbEntity
   8
LEVEL004
 370
20
 100
AcDbLine
   6
HIDDEN
  62
1
  10
 373.25032870007
  20
 282.80984551920
  30
0.0
  11
 373.25032870007
  21
 283.40984551920
  31
0.0
   0
LINE
   5
485
 100
AcDbEntity
   8
LEVEL004
 370
20
 100
AcDbLine
   6
HIDDEN
  62
1
  10
 373.25032870007
  20
 282.80984551920
  30
0.0
  11
 371.35032870007
  21
 280.90984551920
  31
0.0
   0
LINE
   5
486
 100
AcDbEntity
   8
LEVEL004
 370
20
 100
AcDbLine
   6
HIDDEN
  62
1
  10
 373.25032870007
  20
 282.80984551920
  30
0.0
  11
 378.25032870007
  21
 282.80984551920
  31
0.0
   0
LINE
   5
487
 100
AcDbEntity
   8
LEVEL006
 370
15
 100
AcDbLine
   6
DASHDOT
  62
8
  10
 435.75032870007
  20
 279.90984551920
  30
0.0
  11
 435.75032870007
  21
 283.90984551920
  31
0.0
   0
LINE
   5
488
 100
AcDbEntity
   8
LEVEL006
 370
15
 100
AcDbLine
   6
DASHDOT
  62
8
  10
 435.75032870007
  20
 279.90984551920
  30
0.0
  11
 435.75032870007
  21
 283.90984551920
  31
0.0
   0
LINE
   5
489
 100
AcDbEntity
   8
LEVEL004
 370
20
 100
AcDbLine
   6
CONTINUOUS
  62
1
  10
 445.75032870007
  20
 280.90984551920
  30
0.0
  11
 445.75032870007
  21
 283.40984551920
  31
0.0
   0
LINE
   5
48A
 100
AcDbEntity
   8
LEVEL004
 370
20
 100
AcDbLine
   6
HIDDEN
  62
1
  10
 438.25032870007
  20
 282.80984551920
  30
0.0
  11
 438.25032870007
  21
 283.40984551920
  31
0.0
   0
LINE
   5
48B
 100
AcDbEntity
   8
LEVEL004
 370
20
 100
AcDbLine
   6
HIDDEN
  62
1
  10
 438.25032870007
  20
 282.70984551920
  30
0.0
  11
 433.25032870007
  21
 282.70984551920
  31
0.0
   0
LINE
   5
48C
 100
AcDbEntity
   8
LEVEL004
 370
20
 100
AcDbLine
   6
HIDDEN
  62
1
  10
 438.25032870007
  20
 282.70984551920
  30
0.0
  11
 438.25032870007
  21
 283.40984551920
  31
0.0
   0
LINE
   5
48D
 100
AcDbEntity
   8
LEVEL004
 370
20
 100
AcDbLine
   6
HIDDEN
  62
1
  10
 438.25032870007
  20
 282.70984551920
  30
0.0
  11
 440.05032870007
  21
 280.90984551920
  31
0.0
   0
LINE
   5
48E
 100
AcDbEntity
   8
LEVEL004
 370
20
 100
AcDbLine
   6
HIDDEN
  62
1
  10
 433.25032870007
  20
 282.70984551920
  30
0.0
  11
 431.45032870007
  21
 280.90984551920
  31
0.0
   0
LINE
   5
48F
 100
AcDbEntity
   8
LEVEL004
 370
20
 100
AcDbLine
   6
HIDDEN
  62
1
  10
 433.25032870007
  20
 282.80984551920
  30
0.0
  11
 433.25032870007
  21
 283.40984551920
  31
0.0
   0
LINE
   5
490
 100
AcDbEntity
   8
LEVEL004
 370
20
 100
AcDbLine
   6
HIDDEN
  62
1
  10
 433.25032870007
  20
 282.70984551920
  30
0.0
  11
 433.25032870007
  21
 283.40984551920
  31
0.0
   0
LINE
   5
491
 100
AcDbEntity
   8
LEVEL004
 370
20
 100
AcDbLine
   6
HIDDEN
  62
1
  10
 410.50032870007
  20
 281.65984551920
  30
0.0
  11
 410.50032870007
  21
 280.90984551920
  31
0.0
   0
LINE
   5
492
 100
AcDbEntity
   8
LEVEL004
 370
20
 100
AcDbLine
   6
HIDDEN
  62
1
  10
 410.50032870007
  20
 281.65984551920
  30
0.0
  11
 412.25032870007
  21
 283.40984551920
  31
0.0
   0
LINE
   5
493
 100
AcDbEntity
   8
0
 370
15
 100
AcDbLine
   6
DASHDOT
  62
8
  10
 375.75032870007
  20
 399.10821272424
  30
0.0
  11
 375.75032870007
  21
 410.61001121981
  31
0.0
   0
LINE
   5
494
 100
AcDbEntity
   8
0
 370
15
 100
AcDbLine
   6
DASHDOT
  62
8
  10
 382.10399962795
  20
 404.85911197202
  30
0.0
  11
 369.39665777219
  21
 404.85911197202
  31
0.0
   0
LINE
   5
495
 100
AcDbEntity
   8
LEVEL004
 370
20
 100
AcDbLine
   6
CONTINUOUS
  62
1
  10
 365.75032870007
  20
 410.35911197202
  30
0.0
  11
 365.75032870007
  21
 394.35911197202
  31
0.0
   0
CIRCLE
   5
496
 100
AcDbEntity
   8
LEVEL004
 370
20
 100
AcDbCircle
   6
CONTINUOUS
  62
1
  10
 375.75032870007
  20
 404.85911197202
  30
0.0
  40
 2.5000000000000
   0
LINE
   5
497
 100
AcDbEntity
   8
LEVEL004
 370
20
 100
AcDbLine
   6
CONTINUOUS
  62
1
  10
 367.75032870007
  20
 412.35911197202
  30
0.0
  11
 443.75032870007
  21
 412.35911197202
  31
0.0
   0
LINE
   5
498
 100
AcDbEntity
   8
LEVEL004
 370
20
 100
AcDbLine
   6
CONTINUOUS
  62
1
  10
 443.75032870007
  20
 392.35911197202
  30
0.0
  11
 367.75032870007
  21
 392.35911197202
  31
0.0
   0
ARC
   5
499
 100
AcDbEntity
   8
LEVEL004
 370
20
   6
CONTINUOUS
  62
1
 100
AcDbCircle
  10
 367.75032870007
  20
 410.35911197202
  30
0.0
  40
 2.0000000000000
 100
AcDbArc
  50
 90.000000000000
  51
 180.00000000000
   0
ARC
   5
49A
 100
AcDbEntity
   8
LEVEL004
 370
20
   6
CONTINUOUS
  62
1
 100
AcDbCircle
  10
 367.75032870007
  20
 394.35911197202
  30
0.0
  40
 2.0000000000000
 100
AcDbArc
  50
 180.00000000000
  51
 270.00000000000
   0
CIRCLE
   5
49B
 100
AcDbEntity
   8
LEVEL004
 370
20
 100
AcDbCircle
   6
HIDDEN
  62
1
  10
 375.75032870007
  20
 404.85911197202
  30
0.0
  40
 4.3000000000000
   0
LINE
   5
49C
 100
AcDbEntity
   8
0
 370
15
 100
AcDbLine
   6
DASHDOT
  62
8
  10
 435.75032870007
  20
 394.43487152291
  30
0.0
  11
 435.75032870007
  21
 405.28335242114
  31
0.0
   0
LINE
   5
49D
 100
AcDbEntity
   8
0
 370
15
 100
AcDbLine
   6
DASHDOT
  62
8
  10
 441.20802070364
  20
 399.85911197203
  30
0.0
  11
 430.29263669650
  21
 399.85911197203
  31
0.0
   0
LINE
   5
49E
 100
AcDbEntity
   8
LEVEL004
 370
20
 100
AcDbLine
   6
CONTINUOUS
  62
1
  10
 445.75032870007
  20
 410.35911197202
  30
0.0
  11
 445.75032870007
  21
 394.35911197202
  31
0.0
   0
CIRCLE
   5
49F
 100
AcDbEntity
   8
LEVEL004
 370
20
 100
AcDbCircle
   6
CONTINUOUS
  62
1
  10
 435.75032870007
  20
 399.85911197203
  30
0.0
  40
 2.5000000000000
   0
ARC
   5
4A0
 100
AcDbEntity
   8
LEVEL004
 370
20
   6
CONTINUOUS
  62
1
 100
AcDbCircle
  10
 443.75032870007
  20
 410.35911197202
  30
0.0
  40
 2.0000000000000
 100
AcDbArc
  50
0.0
  51
 90.000000000000
   0
ARC
   5
4A1
 100
AcDbEntity
   8
LEVEL004
 370
20
   6
CONTINUOUS
  62
1
 100
AcDbCircle
  10
 443.75032870007
  20
 394.35911197202
  30
0.0
  40
 2.0000000000000
 100
AcDbArc
  50
 270.00000000000
  51
0.0
   0
CIRCLE
   5
4A2
 100
AcDbEntity
   8
LEVEL004
 370
20
 100
AcDbCircle
   6
HIDDEN
  62
1
  10
 435.75032870007
  20
 399.85911197203
  30
0.0
  40
 4.3000000000000
   0
CIRCLE
   5
4A3
 100
AcDbEntity
   8
LEVEL007
 370
20
 100
AcDbCircle
   6
CONTINUOUS
  62
1
  10
 405.75032870007
  20
 402.35911197202
  30
0.0
  40
 6.4000000000000
   0
CIRCLE
   5
4A4
 100
AcDbEntity
   8
LEVEL002
 370
15
 100
AcDbCircle
   6
CONTINUOUS
  62
5
  10
 405.75032870007
  20
 402.35911197202
  30
0.0
  40
 6.0000000000000
   0
LINE
   5
4A5
 100
AcDbEntity
   8
LEVEL002
 370
15
 100
AcDbLine
   6
CONTINUOUS
  62
5
  10
 406.20032870007
  20
 405.57780735991
  30
0.0
  11
 406.20032870007
  21
 404.65720901088
  31
0.0
   0
LINE
   5
4A6
 100
AcDbEntity
   8
LEVEL002
 370
15
 100
AcDbLine
   6
CONTINUOUS
  62
5
  10
 406.20032870007
  20
 400.06101493317
  30
0.0
  11
 406.20032870007
  21
 399.14041658414
  31
0.0
   0
LINE
   5
4A7
 100
AcDbEntity
   8
LEVEL002
 370
15
 100
AcDbLine
   6
CONTINUOUS
  62
5
  10
 405.30032870007
  20
 405.57780735991
  30
0.0
  11
 405.30032870007
  21
 404.65720901088
  31
0.0
   0
LINE
   5
4A8
 100
AcDbEntity
   8
LEVEL002
 370
15
 100
AcDbLine
   6
CONTINUOUS
  62
5
  10
 405.30032870007
  20
 400.06101493317
  30
0.0
  11
 405.30032870007
  21
 399.14041658414
  31
0.0
   0
LINE
   5
4A9
 100
AcDbEntity
   8
LEVEL002
 370
15
 100
AcDbLine
   6
CONTINUOUS
  62
5
  10
 402.53163331218
  20
 401.90911197203
  30
0.0
  11
 403.45223166121
  21
 401.90911197203
  31
0.0
   0
LINE
   5
4AA
 100
AcDbEntity
   8
LEVEL002
 370
15
 100
AcDbLine
   6
CONTINUOUS
  62
5
  10
 408.04842573892
  20
 401.90911197203
  30
0.0
  11
 408.96902408795
  21
 401.90911197203
  31
0.0
   0
LINE
   5
4AB
 100
AcDbEntity
   8
LEVEL002
 370
15
 100
AcDbLine
   6
CONTINUOUS
  62
5
  10
 402.53163331218
  20
 402.80911197202
  30
0.0
  11
 403.45223166121
  21
 402.80911197202
  31
0.0
   0
LINE
   5
4AC
 100
AcDbEntity
   8
LEVEL002
 370
15
 100
AcDbLine
   6
CONTINUOUS
  62
5
  10
 408.04842573892
  20
 402.80911197202
  30
0.0
  11
 408.96902408795
  21
 402.80911197202
  31
0.0
   0
ARC
   5
4AD
 100
AcDbEntity
   8
LEVEL002
 370
15
   6
CONTINUOUS
  62
5
 100
AcDbCircle
  10
 405.75032870007
  20
 402.35911197202
  30
0.0
  40
 3.2500000000000
 100
AcDbArc
  50
 352.04116811846
  51
 7.9588318815447
   0
ARC
   5
4AE
 100
AcDbEntity
   8
LEVEL002
 370
15
   6
CONTINUOUS
  62
5
 100
AcDbCircle
  10
 405.75032870006
  20
 402.35911197203
  30
0.0
  40
 3.2500000000000
 100
AcDbArc
  50
 82.041168118402
  51
 97.958831881483
   0
ARC
   5
4AF
 100
AcDbEntity
   8
LEVEL002
 370
15
   6
CONTINUOUS
  62
5
 100
AcDbCircle
  10
 405.75032870007
  20
 402.35911197202
  30
0.0
  40
 3.2500000000000
 100
AcDbArc
  50
 172.04116811847
  51
 187.95883188153
   0
ARC
   5
4B0
 100
AcDbEntity
   8
LEVEL002
 370
15
   6
CONTINUOUS
  62
5
 100
AcDbCircle
  10
 405.75032870006
  20
 402.35911197203
  30
0.0
  40
 3.2500000000000
 100
AcDbArc
  50
 262.04116811850
  51
 277.95883188155
   0
ARC
   5
4B1
 100
AcDbEntity
   8
LEVEL002
 370
15
   6
CONTINUOUS
  62
5
 100
AcDbCircle
  10
 408.04842573892
  20
 400.06101493317
  30
0.0
  40
 1.8480970388563
 100
AcDbArc
  50
 89.999999999968
  51
 179.99999999998
   0
ARC
   5
4B2
 100
AcDbEntity
   8
LEVEL002
 370
15
   6
CONTINUOUS
  62
5
 100
AcDbCircle
  10
 408.04842573892
  20
 404.65720901088
  30
0.0
  40
 1.8480970388563
 100
AcDbArc
  50
 180.00000000000
  51
 270.00000000003
   0
ARC
   5
4B3
 100
AcDbEntity
   8
LEVEL002
 370
15
   6
CONTINUOUS
  62
5
 100
AcDbCircle
  10
 403.45223166121
  20
 400.06101493317
  30
0.0
  40
 1.8480970388563
 100
AcDbArc
  50
0.0
  51
 90.000000000088
   0
ARC
   5
4B4
 100
AcDbEntity
   8
LEVEL002
 370
15
   6
CONTINUOUS
  62
5
 100
AcDbCircle
  10
 403.45223166121
  20
 404.65720901088
  30
0.0
  40
 1.8480970388563
 100
AcDbArc
  50
 269.99999999997
  51
0.0
   0
DIMENSION
   5
4B5
 100
AcDbEntity
   8
0
 370
15
   6
CONTINUOUS
  62
8
 100
AcDbDimension
   2
*D25
  10
 316.29972385273
  20
 303.40984551920
  30
0.0
  11
 306.29972385273
  21
 303.40984551920
  31
0.0
  70
0
   3
GMM001
 100
AcDbAlignedDimension
  13
 296.29972385273
  23
 283.40984551920
  33
0.0
  14
 316.29972385273
  24
 283.40984551920
  34
0.0
 100
AcDbRotatedDimension
   0
DIMENSION
   5
4B6
 100
AcDbEntity
   8
0
 370
15
   6
CONTINUOUS
  62
8
 100
AcDbDimension
   2
*D26
  10
 445.75032870007
  20
 303.40984551920
  30
0.0
  11
 405.75032870007
  21
 303.40984551920
  31
0.0
  70
0
   3
GMM001
 100
AcDbAlignedDimension
  13
 365.75032870007
  23
 283.40984551920
  33
0.0
  14
 445.75032870007
  24
 283.40984551920
  34
0.0
 100
AcDbRotatedDimension
   0
DIMENSION
   5
4B7
 100
AcDbEntity
   8
0
 370
15
   6
CONTINUOUS
  62
8
 100
AcDbDimension
   2
*D27
  10
 479.62651318024
  20
 283.40984551920
  30
0.0
  11
 479.62651318024
  21
 292.28528943675
  31
0.0
  70
128
   3
GMM007
 100
AcDbAlignedDimension
  13
 445.75032870007
  23
 280.90984551920
  33
0.0
  14
 445.75032870007
  24
 283.40984551920
  34
0.0
  50
 90.000000000000
 100
AcDbRotatedDimension
   0
DIMENSION
   5
4B8
 100
AcDbEntity
   8
0
 370
15
   6
CONTINUOUS
  62
8
 100
AcDbDimension
   2
*D28
  10
 479.62651318024
  20
 412.35911197202
  30
0.0
  11
 479.62651318024
  21
 402.35911197202
  31
0.0
  70
0
   3
GMM001
 100
AcDbAlignedDimension
  13
 443.75032870007
  23
 392.35911197202
  33
0.0
  14
 443.75032870007
  24
 412.35911197202
  34
0.0
  50
 90.000000000000
 100
AcDbRotatedDimension
   0
LINE
   5
4B9
 100
AcDbEntity
   8
LEVEL001
 370
15
 100
AcDbLine
   6
DASHDOT
  62
8
  10
 306.29972385273
  20
 295.81411149191
  30
0.0
  11
 306.29972385273
  21
 260.40984551920
  31
0.0
   0
LINE
   5
4BA
 100
AcDbEntity
   8
LEVEL001
 370
15
 100
AcDbLine
   6
DASHDOT
  62
8
  10
 405.75032870007
  20
 217.05075162539
  30
0.0
  11
 405.75032870007
  21
 295.81411149191
  31
0.0
   0
DIMENSION
   5
4BB
 100
AcDbEntity
   8
0
 370
15
   6
CONTINUOUS
  62
8
 100
AcDbDimension
   2
*D29
  10
 445.75032870007
  20
 343.93107055665
  30
0.0
  11
 405.75032870007
  21
 343.93107055665
  31
0.0
  70
0
   3
GMM001
 100
AcDbAlignedDimension
  13
 365.75032870007
  23
 394.35911197202
  33
0.0
  14
 445.75032870007
  24
 394.35911197202
  34
0.0
 100
AcDbRotatedDimension
   0
DIMENSION
   5
4BC
 100
AcDbEntity
   8
0
 370
15
   6
CONTINUOUS
  62
8
 100
AcDbDimension
   2
*D30
  10
 435.75032870007
  20
 366.42731115834
  30
0.0
  11
 405.75032870007
  21
 366.42731115834
  31
0.0
  70
0
   3
GMM001
 100
AcDbAlignedDimension
  13
 375.75032870007
  23
 399.10821272424
  33
0.0
  14
 435.75032870007
  24
 394.43487152291
  34
0.0
 100
AcDbRotatedDimension
   0
LINE
   5
4BD
 100
AcDbEntity
   8
LEVEL004
 370
20
 100
AcDbLine
   6
CONTINUOUS
  62
1
  10
 367.29665718044
  20
 965.10047435941
  30
0.0
  11
 367.29665718044
  21
 949.10047435941
  31
0.0
   0
CIRCLE
   5
4BE
 100
AcDbEntity
   8
LEVEL004
 370
20
 100
AcDbCircle
   6
CONTINUOUS
  62
1
  10
 377.29665718044
  20
 959.60047435941
  30
0.0
  40
 2.5000000000000
   0
LINE
   5
4BF
 100
AcDbEntity
   8
LEVEL004
 370
20
 100
AcDbLine
   6
CONTINUOUS
  62
1
  10
 369.29665718044
  20
 967.10047435941
  30
0.0
  11
 445.29665718044
  21
 967.10047435941
  31
0.0
   0
LINE
   5
4C0
 100
AcDbEntity
   8
LEVEL004
 370
20
 100
AcDbLine
   6
CONTINUOUS
  62
1
  10
 445.29665718044
  20
 947.10047435941
  30
0.0
  11
 369.29665718044
  21
 947.10047435941
  31
0.0
   0
ARC
   5
4C1
 100
AcDbEntity
   8
LEVEL004
 370
20
   6
CONTINUOUS
  62
1
 100
AcDbCircle
  10
 369.29665718044
  20
 965.10047435941
  30
0.0
  40
 2.0000000000000
 100
AcDbArc
  50
 90.000000000000
  51
 180.00000000000
   0
ARC
   5
4C2
 100
AcDbEntity
   8
LEVEL004
 370
20
   6
CONTINUOUS
  62
1
 100
AcDbCircle
  10
 369.29665718044
  20
 949.10047435941
  30
0.0
  40
 2.0000000000000
 100
AcDbArc
  50
 180.00000000000
  51
 270.00000000000
   0
CIRCLE
   5
4C3
 100
AcDbEntity
   8
LEVEL004
 370
20
 100
AcDbCircle
   6
HIDDEN
  62
1
  10
 377.29665718044
  20
 959.60047435941
  30
0.0
  40
 4.3000000000000
   0
LINE
   5
4C4
 100
AcDbEntity
   8
LEVEL004
 370
20
 100
AcDbLine
   6
CONTINUOUS
  62
1
  10
 447.29665718044
  20
 965.10047435941
  30
0.0
  11
 447.29665718044
  21
 949.10047435941
  31
0.0
   0
CIRCLE
   5
4C5
 100
AcDbEntity
   8
LEVEL004
 370
20
 100
AcDbCircle
   6
CONTINUOUS
  62
1
  10
 437.29665718044
  20
 954.60047435941
  30
0.0
  40
 2.5000000000000
   0
ARC
   5
4C6
 100
AcDbEntity
   8
LEVEL004
 370
20
   6
CONTINUOUS
  62
1
 100
AcDbCircle
  10
 445.29665718044
  20
 965.10047435941
  30
0.0
  40
 2.0000000000000
 100
AcDbArc
  50
0.0
  51
 90.000000000000
   0
ARC
   5
4C7
 100
AcDbEntity
   8
LEVEL004
 370
20
   6
CONTINUOUS
  62
1
 100
AcDbCircle
  10
 445.29665718044
  20
 949.10047435941
  30
0.0
  40
 2.0000000000000
 100
AcDbArc
  50
 270.00000000000
  51
0.0
   0
CIRCLE
   5
4C8
 100
AcDbEntity
   8
LEVEL004
 370
20
 100
AcDbCircle
   6
HIDDEN
  62
1
  10
 437.29665718044
  20
 954.60047435941
  30
0.0
  40
 4.3000000000000
   0
CIRCLE
   5
4C9
 100
AcDbEntity
   8
LEVEL007
 370
20
 100
AcDbCircle
   6
CONTINUOUS
  62
1
  10
 407.29665718044
  20
 957.10047435941
  30
0.0
  40
 6.4000000000000
   0
LINE
   5
4CA
 100
AcDbEntity
   8
0
 370
15
 100
AcDbLine
   6
DASHDOT
  62
8
  10
 437.29665718044
  20
 949.17623391030
  30
0.0
  11
 437.29665718044
  21
 960.02471480853
  31
0.0
   0
LINE
   5
4CB
 100
AcDbEntity
   8
0
 370
15
 100
AcDbLine
   6
DASHDOT
  62
8
  10
 442.75434918401
  20
 954.60047435941
  30
0.0
  11
 431.83896517687
  21
 954.60047435941
  31
0.0
   0
DIMENSION
   5
4CC
 100
AcDbEntity
   8
0
 370
15
   6
CONTINUOUS
  62
8
 100
AcDbDimension
   2
*D31
  10
 481.17284166061
  20
 967.10047435941
  30
0.0
  11
 481.17284166061
  21
 957.10047435941
  31
0.0
  70
0
   3
GMM001
 100
AcDbAlignedDimension
  13
 445.29665718044
  23
 947.10047435941
  33
0.0
  14
 445.29665718044
  24
 967.10047435941
  34
0.0
  50
 90.000000000000
 100
AcDbRotatedDimension
   0
DIMENSION
   5
4CD
 100
AcDbEntity
   8
0
 370
15
   6
CONTINUOUS
  62
8
 100
AcDbDimension
   2
*D32
  10
 447.29665718044
  20
 898.67243294404
  30
0.0
  11
 407.29665718044
  21
 898.67243294404
  31
0.0
  70
0
   3
GMM001
 100
AcDbAlignedDimension
  13
 367.29665718044
  23
 949.10047435941
  33
0.0
  14
 447.29665718044
  24
 949.10047435941
  34
0.0
 100
AcDbRotatedDimension
   0
DIMENSION
   5
4CE
 100
AcDbEntity
   8
0
 370
15
   6
CONTINUOUS
  62
8
 100
AcDbDimension
   2
*D33
  10
 437.29665718044
  20
 921.16867354573
  30
0.0
  11
 407.29665718044
  21
 921.16867354573
  31
0.0
  70
0
   3
GMM001
 100
AcDbAlignedDimension
  13
 377.29665718044
  23
 953.84957511163
  33
0.0
  14
 437.29665718044
  24
 949.17623391030
  34
0.0
 100
AcDbRotatedDimension
   0
LINE
   5
4CF
 100
AcDbEntity
   8
0
 370
15
 100
AcDbLine
   6
DASHDOT
  62
8
  10
 377.29665718044
  20
 953.84957511163
  30
0.0
  11
 377.29665718044
  21
 965.35137360720
  31
0.0
   0
LINE
   5
4D0
 100
AcDbEntity
   8
0
 370
15
 100
AcDbLine
   6
DASHDOT
  62
8
  10
 383.65032810832
  20
 959.60047435941
  30
0.0
  11
 370.94298625256
  21
 959.60047435941
  31
0.0
   0
CIRCLE
   5
4D1
 100
AcDbEntity
   8
LEVEL002
 370
15
 100
AcDbCircle
   6
CONTINUOUS
  62
5
  10
 407.29665718044
  20
 957.10047435941
  30
0.0
  40
 6.0000000000000
   0
LINE
   5
4D2
 100
AcDbEntity
   8
LEVEL002
 370
15
 100
AcDbLine
   6
CONTINUOUS
  62
5
  10
 407.74665718044
  20
 960.31916974730
  30
0.0
  11
 407.74665718044
  21
 959.39857139827
  31
0.0
   0
LINE
   5
4D3
 100
AcDbEntity
   8
LEVEL002
 370
15
 100
AcDbLine
   6
CONTINUOUS
  62
5
  10
 407.74665718044
  20
 954.80237732056
  30
0.0
  11
 407.74665718044
  21
 953.88177897153
  31
0.0
   0
LINE
   5
4D4
 100
AcDbEntity
   8
LEVEL002
 370
15
 100
AcDbLine
   6
CONTINUOUS
  62
5
  10
 406.84665718044
  20
 960.31916974730
  30
0.0
  11
 406.84665718044
  21
 959.39857139827
  31
0.0
   0
LINE
   5
4D5
 100
AcDbEntity
   8
LEVEL002
 370
15
 100
AcDbLine
   6
CONTINUOUS
  62
5
  10
 406.84665718044
  20
 954.80237732056
  30
0.0
  11
 406.84665718044
  21
 953.88177897153
  31
0.0
   0
LINE
   5
4D6
 100
AcDbEntity
   8
LEVEL002
 370
15
 100
AcDbLine
   6
CONTINUOUS
  62
5
  10
 404.07796179255
  20
 956.65047435941
  30
0.0
  11
 404.99856014158
  21
 956.65047435941
  31
0.0
   0
LINE
   5
4D7
 100
AcDbEntity
   8
LEVEL002
 370
15
 100
AcDbLine
   6
CONTINUOUS
  62
5
  10
 409.59475421929
  20
 956.65047435941
  30
0.0
  11
 410.51535256832
  21
 956.65047435941
  31
0.0
   0
LINE
   5
4D8
 100
AcDbEntity
   8
LEVEL002
 370
15
 100
AcDbLine
   6
CONTINUOUS
  62
5
  10
 404.07796179255
  20
 957.55047435941
  30
0.0
  11
 404.99856014158
  21
 957.55047435941
  31
0.0
   0
LINE
   5
4D9
 100
AcDbEntity
   8
LEVEL002
 370
15
 100
AcDbLine
   6
CONTINUOUS
  62
5
  10
 409.59475421929
  20
 957.55047435941
  30
0.0
  11
 410.51535256832
  21
 957.55047435941
  31
0.0
   0
ARC
   5
4DA
 100
AcDbEntity
   8
LEVEL002
 370
15
   6
CONTINUOUS
  62
5
 100
AcDbCircle
  10
 407.29665718044
  20
 957.10047435941
  30
0.0
  40
 3.2500000000000
 100
AcDbArc
  50
 352.04116811846
  51
 7.9588318815447
   0
ARC
   5
4DB
 100
AcDbEntity
   8
LEVEL002
 370
15
   6
CONTINUOUS
  62
5
 100
AcDbCircle
  10
 407.29665718043
  20
 957.10047435941
  30
0.0
  40
 3.2500000000000
 100
AcDbArc
  50
 82.041168118402
  51
 97.958831881483
   0
ARC
   5
4DC
 100
AcDbEntity
   8
LEVEL002
 370
15
   6
CONTINUOUS
  62
5
 100
AcDbCircle
  10
 407.29665718044
  20
 957.10047435941
  30
0.0
  40
 3.2500000000000
 100
AcDbArc
  50
 172.04116811847
  51
 187.95883188153
   0
ARC
   5
4DD
 100
AcDbEntity
   8
LEVEL002
 370
15
   6
CONTINUOUS
  62
5
 100
AcDbCircle
  10
 407.29665718043
  20
 957.10047435941
  30
0.0
  40
 3.2500000000000
 100
AcDbArc
  50
 262.04116811850
  51
 277.95883188155
   0
ARC
   5
4DE
 100
AcDbEntity
   8
LEVEL002
 370
15
   6
CONTINUOUS
  62
5
 100
AcDbCircle
  10
 409.59475421929
  20
 954.80237732056
  30
0.0
  40
 1.8480970388563
 100
AcDbArc
  50
 89.999999999968
  51
 179.99999999998
   0
ARC
   5
4DF
 100
AcDbEntity
   8
LEVEL002
 370
15
   6
CONTINUOUS
  62
5
 100
AcDbCircle
  10
 409.59475421929
  20
 959.39857139827
  30
0.0
  40
 1.8480970388563
 100
AcDbArc
  50
 180.00000000000
  51
 270.00000000003
   0
ARC
   5
4E0
 100
AcDbEntity
   8
LEVEL002
 370
15
   6
CONTINUOUS
  62
5
 100
AcDbCircle
  10
 404.99856014158
  20
 954.80237732056
  30
0.0
  40
 1.8480970388563
 100
AcDbArc
  50
0.0
  51
 90.000000000088
   0
ARC
   5
4E1
 100
AcDbEntity
   8
LEVEL002
 370
15
   6
CONTINUOUS
  62
5
 100
AcDbCircle
  10
 404.99856014158
  20
 959.39857139827
  30
0.0
  40
 1.8480970388563
 100
AcDbArc
  50
 269.99999999997
  51
0.0
   0
LINE
   5
4E2
 100
AcDbEntity
   8
LEVEL001
 370
15
 100
AcDbLine
   6
HIDDEN
  62
2
  10
 399.25032870008
  20
 402.35911197202
  30
0.0
  11
 399.25032870008
  21
 412.35911197202
  31
0.0
   0
LINE
   5
4E3
 100
AcDbEntity
   8
LEVEL001
 370
15
 100
AcDbLine
   6
HIDDEN
  62
2
  10
 412.25032870008
  20
 412.35911197202
  30
0.0
  11
 412.25032870008
  21
 402.35911197202
  31
0.0
   0
LINE
   5
4E4
 100
AcDbEntity
   8
LEVEL004
 370
20
 100
AcDbLine
   6
CONTINUOUS
  62
1
  10
 367.29665718043
  20
 835.65120790659
  30
0.0
  11
 447.29665718043
  21
 835.65120790659
  31
0.0
   0
LINE
   5
4E5
 100
AcDbEntity
   8
LEVEL004
 370
20
 100
AcDbLine
   6
CONTINUOUS
  62
1
  10
 367.29665718043
  20
 838.15120790659
  30
0.0
  11
 447.29665718043
  21
 838.15120790659
  31
0.0
   0
LINE
   5
4E6
 100
AcDbEntity
   8
LEVEL004
 370
20
 100
AcDbLine
   6
CONTINUOUS
  62
1
  10
 367.29665718043
  20
 835.65120790659
  30
0.0
  11
 367.29665718043
  21
 838.15120790659
  31
0.0
   0
LINE
   5
4E7
 100
AcDbEntity
   8
LEVEL004
 370
20
 100
AcDbLine
   6
HIDDEN
  62
1
  10
 402.54665718043
  20
 836.40120790659
  30
0.0
  11
 412.04665718043
  21
 836.40120790659
  31
0.0
   0
LINE
   5
4E8
 100
AcDbEntity
   8
LEVEL004
 370
20
 100
AcDbLine
   6
HIDDEN
  62
1
  10
 402.54665718043
  20
 836.40120790659
  30
0.0
  11
 402.54665718043
  21
 835.65120790659
  31
0.0
   0
LINE
   5
4E9
 100
AcDbEntity
   8
LEVEL004
 370
20
 100
AcDbLine
   6
HIDDEN
  62
1
  10
 402.54665718043
  20
 836.40120790659
  30
0.0
  11
 400.79665718043
  21
 838.15120790659
  31
0.0
   0
LINE
   5
4EA
 100
AcDbEntity
   8
LEVEL004
 370
20
 100
AcDbLine
   6
HIDDEN
  62
1
  10
 379.79665718043
  20
 837.55120790659
  30
0.0
  11
 379.79665718043
  21
 838.15120790659
  31
0.0
   0
LINE
   5
4EB
 100
AcDbEntity
   8
LEVEL004
 370
20
 100
AcDbLine
   6
HIDDEN
  62
1
  10
 379.79665718043
  20
 837.55120790659
  30
0.0
  11
 381.69665718043
  21
 835.65120790659
  31
0.0
   0
LINE
   5
4EC
 100
AcDbEntity
   8
LEVEL004
 370
20
 100
AcDbLine
   6
HIDDEN
  62
1
  10
 374.79665718043
  20
 837.55120790659
  30
0.0
  11
 374.79665718043
  21
 838.15120790659
  31
0.0
   0
LINE
   5
4ED
 100
AcDbEntity
   8
LEVEL004
 370
20
 100
AcDbLine
   6
HIDDEN
  62
1
  10
 374.79665718043
  20
 837.55120790659
  30
0.0
  11
 372.89665718043
  21
 835.65120790659
  31
0.0
   0
LINE
   5
4EE
 100
AcDbEntity
   8
LEVEL004
 370
20
 100
AcDbLine
   6
HIDDEN
  62
1
  10
 374.79665718043
  20
 837.55120790659
  30
0.0
  11
 379.79665718043
  21
 837.55120790659
  31
0.0
   0
LINE
   5
4EF
 100
AcDbEntity
   8
LEVEL004
 370
20
 100
AcDbLine
   6
CONTINUOUS
  62
1
  10
 447.29665718043
  20
 835.65120790659
  30
0.0
  11
 447.29665718043
  21
 838.15120790659
  31
0.0
   0
LINE
   5
4F0
 100
AcDbEntity
   8
LEVEL004
 370
20
 100
AcDbLine
   6
HIDDEN
  62
1
  10
 439.79665718043
  20
 837.55120790659
  30
0.0
  11
 439.79665718043
  21
 838.15120790659
  31
0.0
   0
LINE
   5
4F1
 100
AcDbEntity
   8
LEVEL004
 370
20
 100
AcDbLine
   6
HIDDEN
  62
1
  10
 439.79665718043
  20
 837.45120790659
  30
0.0
  11
 434.79665718043
  21
 837.45120790659
  31
0.0
   0
LINE
   5
4F2
 100
AcDbEntity
   8
LEVEL004
 370
20
 100
AcDbLine
   6
HIDDEN
  62
1
  10
 439.79665718043
  20
 837.45120790659
  30
0.0
  11
 439.79665718043
  21
 838.15120790659
  31
0.0
   0
LINE
   5
4F3
 100
AcDbEntity
   8
LEVEL004
 370
20
 100
AcDbLine
   6
HIDDEN
  62
1
  10
 439.79665718043
  20
 837.45120790659
  30
0.0
  11
 441.59665718043
  21
 835.65120790659
  31
0.0
   0
LINE
   5
4F4
 100
AcDbEntity
   8
LEVEL004
 370
20
 100
AcDbLine
   6
HIDDEN
  62
1
  10
 434.79665718043
  20
 837.45120790659
  30
0.0
  11
 432.99665718043
  21
 835.65120790659
  31
0.0
   0
LINE
   5
4F5
 100
AcDbEntity
   8
LEVEL004
 370
20
 100
AcDbLine
   6
HIDDEN
  62
1
  10
 434.79665718043
  20
 837.55120790659
  30
0.0
  11
 434.79665718043
  21
 838.15120790659
  31
0.0
   0
LINE
   5
4F6
 100
AcDbEntity
   8
LEVEL004
 370
20
 100
AcDbLine
   6
HIDDEN
  62
1
  10
 434.79665718043
  20
 837.45120790659
  30
0.0
  11
 434.79665718043
  21
 838.15120790659
  31
0.0
   0
LINE
   5
4F7
 100
AcDbEntity
   8
LEVEL004
 370
20
 100
AcDbLine
   6
HIDDEN
  62
1
  10
 412.04665718043
  20
 836.40120790659
  30
0.0
  11
 412.04665718043
  21
 835.65120790659
  31
0.0
   0
LINE
   5
4F8
 100
AcDbEntity
   8
LEVEL004
 370
20
 100
AcDbLine
   6
HIDDEN
  62
1
  10
 412.04665718043
  20
 836.40120790659
  30
0.0
  11
 413.79665718043
  21
 838.15120790659
  31
0.0
   0
DIMENSION
   5
4F9
 100
AcDbEntity
   8
0
 370
15
   6
CONTINUOUS
  62
8
 100
AcDbDimension
   2
*D34
  10
 481.17284166060
  20
 838.15120790659
  30
0.0
  11
 481.17284166060
  21
 847.02665182413
  31
0.0
  70
128
   3
GMM007
 100
AcDbAlignedDimension
  13
 447.29665718043
  23
 835.65120790659
  33
0.0
  14
 447.29665718043
  24
 838.15120790659
  34
0.0
  50
 90.000000000000
 100
AcDbRotatedDimension
   0
LINE
   5
4FA
 100
AcDbEntity
   8
LEVEL006
 370
15
 100
AcDbLine
   6
DASHDOT
  62
8
  10
 437.29665718043
  20
 834.65120790659
  30
0.0
  11
 437.29665718043
  21
 838.65120790659
  31
0.0
   0
LINE
   5
4FB
 100
AcDbEntity
   8
LEVEL006
 370
15
 100
AcDbLine
   6
DASHDOT
  62
8
  10
 437.29665718043
  20
 834.65120790659
  30
0.0
  11
 437.29665718043
  21
 838.65120790659
  31
0.0
   0
DIMENSION
   5
4FC
 100
AcDbEntity
   8
0
 370
15
   6
CONTINUOUS
  62
8
 100
AcDbDimension
   2
*D35
  10
 447.29665718043
  20
 858.15120790659
  30
0.0
  11
 407.29665718043
  21
 858.15120790659
  31
0.0
  70
0
   3
GMM001
 100
AcDbAlignedDimension
  13
 367.29665718043
  23
 838.15120790659
  33
0.0
  14
 447.29665718043
  24
 838.15120790659
  34
0.0
 100
AcDbRotatedDimension
   0
LINE
   5
4FD
 100
AcDbEntity
   8
LEVEL006
 370
15
 100
AcDbLine
   6
DASHDOT
  62
8
  10
 377.29665718043
  20
 834.65120790659
  30
0.0
  11
 377.29665718043
  21
 838.65120790659
  31
0.0
   0
LWPOLYLINE
   5
4FE
 100
AcDbEntity
   8
0
 370
20
   6
CONTINUOUS
  62
1
 100
AcDbPolyline
  90
4
  70
1
  10
 297.84605233309
  20
 838.15120790659
  10
 297.84605233309
  20
 835.65120790659
  10
 317.84605233309
  20
 835.65120790659
  10
 317.84605233309
  20
 838.15120790659
   0
LINE
   5
4FF
 100
AcDbEntity
   8
LEVEL004
 370
20
 100
AcDbLine
   6
HIDDEN
  62
1
  10
 303.09605233309
  20
 836.40120790659
  30
0.0
  11
 312.59605233309
  21
 836.40120790659
  31
0.0
   0
LINE
   5
500
 100
AcDbEntity
   8
LEVEL004
 370
20
 100
AcDbLine
   6
HIDDEN
  62
1
  10
 303.09605233309
  20
 836.40120790659
  30
0.0
  11
 303.09605233309
  21
 835.65120790659
  31
0.0
   0
LINE
   5
501
 100
AcDbEntity
   8
LEVEL004
 370
20
 100
AcDbLine
   6
HIDDEN
  62
1
  10
 303.09605233309
  20
 836.40120790659
  30
0.0
  11
 301.34605233309
  21
 838.15120790659
  31
0.0
   0
LINE
   5
502
 100
AcDbEntity
   8
LEVEL004
 370
20
 100
AcDbLine
   6
HIDDEN
  62
1
  10
 312.59605233309
  20
 836.40120790659
  30
0.0
  11
 312.59605233309
  21
 835.65120790659
  31
0.0
   0
LINE
   5
503
 100
AcDbEntity
   8
LEVEL004
 370
20
 100
AcDbLine
   6
HIDDEN
  62
1
  10
 312.59605233309
  20
 836.40120790659
  30
0.0
  11
 314.34605233309
  21
 838.15120790659
  31
0.0
   0
LINE
   5
504
 100
AcDbEntity
   8
LEVEL004
 370
20
 100
AcDbLine
   6
HIDDEN
  62
1
  10
 307.84605233309
  20
 837.55120790659
  30
0.0
  11
 307.84605233309
  21
 838.15120790659
  31
0.0
   0
LINE
   5
505
 100
AcDbEntity
   8
LEVEL004
 370
20
 100
AcDbLine
   6
HIDDEN
  62
1
  10
 307.84605233309
  20
 837.55120790659
  30
0.0
  11
 309.74605233309
  21
 835.65120790659
  31
0.0
   0
LINE
   5
506
 100
AcDbEntity
   8
LEVEL004
 370
20
 100
AcDbLine
   6
HIDDEN
  62
1
  10
 302.84605233309
  20
 837.55120790659
  30
0.0
  11
 302.84605233309
  21
 838.15120790659
  31
0.0
   0
LINE
   5
507
 100
AcDbEntity
   8
LEVEL004
 370
20
 100
AcDbLine
   6
HIDDEN
  62
1
  10
 302.84605233309
  20
 837.55120790659
  30
0.0
  11
 300.94605233309
  21
 835.65120790659
  31
0.0
   0
LINE
   5
508
 100
AcDbEntity
   8
LEVEL004
 370
20
 100
AcDbLine
   6
HIDDEN
  62
1
  10
 302.84605233309
  20
 837.55120790659
  30
0.0
  11
 307.84605233309
  21
 837.55120790659
  31
0.0
   0
LINE
   5
509
 100
AcDbEntity
   8
LEVEL004
 370
20
 100
AcDbLine
   6
HIDDEN
  62
1
  10
 312.84605233309
  20
 837.55120790659
  30
0.0
  11
 312.84605233309
  21
 838.15120790659
  31
0.0
   0
LINE
   5
50A
 100
AcDbEntity
   8
LEVEL004
 370
20
 100
AcDbLine
   6
HIDDEN
  62
1
  10
 312.84605233309
  20
 837.55120790659
  30
0.0
  11
 314.74605233309
  21
 835.65120790659
  31
0.0
   0
LINE
   5
50B
 100
AcDbEntity
   8
LEVEL004
 370
20
 100
AcDbLine
   6
HIDDEN
  62
1
  10
 307.84605233309
  20
 837.55120790659
  30
0.0
  11
 307.84605233309
  21
 838.15120790659
  31
0.0
   0
LINE
   5
50C
 100
AcDbEntity
   8
LEVEL004
 370
20
 100
AcDbLine
   6
HIDDEN
  62
1
  10
 307.84605233309
  20
 837.55120790659
  30
0.0
  11
 305.94605233309
  21
 835.65120790659
  31
0.0
   0
LINE
   5
50D
 100
AcDbEntity
   8
LEVEL004
 370
20
 100
AcDbLine
   6
HIDDEN
  62
1
  10
 307.84605233309
  20
 837.55120790659
  30
0.0
  11
 312.84605233309
  21
 837.55120790659
  31
0.0
   0
LINE
   5
50E
 100
AcDbEntity
   8
0
 370
20
 100
AcDbLine
   6
CONTINUOUS
  62
7
  10
 301.34605233309
  20
 835.65120790659
  30
0.0
  11
 314.34605233309
  21
 835.65120790659
  31
0.0
   0
LINE
   5
50F
 100
AcDbEntity
   8
LEVEL006
 370
15
 100
AcDbLine
   6
DASHDOT
  62
8
  10
 310.34605233309
  20
 834.65120790659
  30
0.0
  11
 310.34605233309
  21
 838.65120790659
  31
0.0
   0
LINE
   5
510
 100
AcDbEntity
   8
LEVEL006
 370
15
 100
AcDbLine
   6
DASHDOT
  62
8
  10
 305.34605233309
  20
 834.65120790659
  30
0.0
  11
 305.34605233309
  21
 838.65120790659
  31
0.0
   0
DIMENSION
   5
511
 100
AcDbEntity
   8
0
 370
15
   6
CONTINUOUS
  62
8
 100
AcDbDimension
   2
*D36
  10
 317.84605233309
  20
 858.15120790659
  30
0.0
  11
 307.84605233309
  21
 858.15120790659
  31
0.0
  70
0
   3
GMM001
 100
AcDbAlignedDimension
  13
 297.84605233309
  23
 838.15120790659
  33
0.0
  14
 317.84605233309
  24
 838.15120790659
  34
0.0
 100
AcDbRotatedDimension
   0
LINE
   5
512
 100
AcDbEntity
   8
LEVEL001
 370
15
 100
AcDbLine
   6
DASHDOT
  62
8
  10
 307.84605233309
  20
 845.98224788666
  30
0.0
  11
 307.84605233309
  21
 806.65120790659
  31
0.0
   0
LINE
   5
513
 100
AcDbEntity
   8
LEVEL001
 370
15
 100
AcDbLine
   6
DASHDOT
  62
8
  10
 407.29665718043
  20
 755.97173337114
  30
0.0
  11
 407.29665718043
  21
 845.98224788666
  31
0.0
   0
LWPOLYLINE
   5
514
 100
AcDbEntity
   8
0
 370
20
   6
CONTINUOUS
  62
1
 100
AcDbPolyline
  90
4
  70
1
  10
 896.79972385254
  20
 282.28446174601
  10
 896.79972385254
  20
 279.78446174601
  10
 921.79972385254
  20
 279.78446174601
  10
 921.79972385254
  20
 282.28446174601
   0
LINE
   5
515
 100
AcDbEntity
   8
LEVEL004
 370
20
 100
AcDbLine
   6
HIDDEN
  62
1
  10
 914.04972385254
  20
 280.53446174601
  30
0.0
  11
 904.54972385254
  21
 280.53446174601
  31
0.0
   0
LINE
   5
516
 100
AcDbEntity
   8
LEVEL004
 370
20
 100
AcDbLine
   6
HIDDEN
  62
1
  10
 904.54972385254
  20
 280.53446174601
  30
0.0
  11
 904.54972385254
  21
 279.78446174601
  31
0.0
   0
LINE
   5
517
 100
AcDbEntity
   8
LEVEL004
 370
20
 100
AcDbLine
   6
HIDDEN
  62
1
  10
 904.54972385254
  20
 280.53446174601
  30
0.0
  11
 902.79972385254
  21
 282.28446174601
  31
0.0
   0
LINE
   5
518
 100
AcDbEntity
   8
LEVEL006
 370
15
 100
AcDbLine
   6
DASHDOT
  62
8
  10
 904.29972385254
  20
 278.78446174601
  30
0.0
  11
 904.29972385254
  21
 282.78446174601
  31
0.0
   0
LINE
   5
519
 100
AcDbEntity
   8
LEVEL004
 370
20
 100
AcDbLine
   6
HIDDEN
  62
1
  10
 901.79972385254
  20
 281.58446174601
  30
0.0
  11
 906.79972385254
  21
 281.58446174601
  31
0.0
   0
LINE
   5
51A
 100
AcDbEntity
   8
LEVEL004
 370
20
 100
AcDbLine
   6
HIDDEN
  62
1
  10
 906.79972385254
  20
 281.58446174601
  30
0.0
  11
 906.79972385254
  21
 282.28446174601
  31
0.0
   0
LINE
   5
51B
 100
AcDbEntity
   8
LEVEL004
 370
20
 100
AcDbLine
   6
HIDDEN
  62
1
  10
 906.79972385254
  20
 281.58446174601
  30
0.0
  11
 908.59972385254
  21
 279.78446174601
  31
0.0
   0
LINE
   5
51C
 100
AcDbEntity
   8
LEVEL004
 370
20
 100
AcDbLine
   6
HIDDEN
  62
1
  10
 901.79972385254
  20
 281.58446174601
  30
0.0
  11
 901.79972385254
  21
 282.28446174601
  31
0.0
   0
LINE
   5
51D
 100
AcDbEntity
   8
LEVEL004
 370
20
 100
AcDbLine
   6
HIDDEN
  62
1
  10
 901.79972385254
  20
 281.58446174601
  30
0.0
  11
 899.99972385254
  21
 279.78446174601
  31
0.0
   0
LINE
   5
51E
 100
AcDbEntity
   8
LEVEL004
 370
20
 100
AcDbLine
   6
HIDDEN
  62
1
  10
 914.04972385254
  20
 280.53446174601
  30
0.0
  11
 914.04972385254
  21
 279.78446174601
  31
0.0
   0
LINE
   5
51F
 100
AcDbEntity
   8
LEVEL004
 370
20
 100
AcDbLine
   6
HIDDEN
  62
1
  10
 914.04972385254
  20
 280.53446174601
  30
0.0
  11
 915.79972385254
  21
 282.28446174601
  31
0.0
   0
LINE
   5
520
 100
AcDbEntity
   8
LEVEL006
 370
15
 100
AcDbLine
   6
DASHDOT
  62
8
  10
 914.29972385254
  20
 278.78446174601
  30
0.0
  11
 914.29972385254
  21
 282.78446174601
  31
0.0
   0
LINE
   5
521
 100
AcDbEntity
   8
LEVEL004
 370
20
 100
AcDbLine
   6
HIDDEN
  62
1
  10
 911.79972385254
  20
 281.58446174601
  30
0.0
  11
 916.79972385254
  21
 281.58446174601
  31
0.0
   0
LINE
   5
522
 100
AcDbEntity
   8
LEVEL004
 370
20
 100
AcDbLine
   6
HIDDEN
  62
1
  10
 916.79972385254
  20
 281.58446174601
  30
0.0
  11
 916.79972385254
  21
 282.28446174601
  31
0.0
   0
LINE
   5
523
 100
AcDbEntity
   8
LEVEL004
 370
20
 100
AcDbLine
   6
HIDDEN
  62
1
  10
 916.79972385254
  20
 281.58446174601
  30
0.0
  11
 918.59972385254
  21
 279.78446174601
  31
0.0
   0
LINE
   5
524
 100
AcDbEntity
   8
LEVEL004
 370
20
 100
AcDbLine
   6
HIDDEN
  62
1
  10
 911.79972385254
  20
 281.58446174601
  30
0.0
  11
 911.79972385254
  21
 282.28446174601
  31
0.0
   0
LINE
   5
525
 100
AcDbEntity
   8
LEVEL004
 370
20
 100
AcDbLine
   6
HIDDEN
  62
1
  10
 911.79972385254
  20
 281.58446174601
  30
0.0
  11
 909.99972385254
  21
 279.78446174601
  31
0.0
   0
LINE
   5
526
 100
AcDbEntity
   8
LEVEL006
 370
15
 100
AcDbLine
   6
DASHDOT
  62
8
  10
 978.75032869988
  20
 278.78446174601
  30
0.0
  11
 978.75032869988
  21
 282.78446174601
  31
0.0
   0
LINE
   5
527
 100
AcDbEntity
   8
LEVEL006
 370
15
 100
AcDbLine
   6
DASHDOT
  62
8
  10
 1038.7503286999
  20
 278.78446174601
  30
0.0
  11
 1038.7503286999
  21
 282.78446174601
  31
0.0
   0
LINE
   5
528
 100
AcDbEntity
   8
LEVEL004
 370
20
 100
AcDbLine
   6
CONTINUOUS
  62
1
  10
 1048.7503286999
  20
 279.78446174601
  30
0.0
  11
 1048.7503286999
  21
 282.28446174601
  31
0.0
   0
LINE
   5
529
 100
AcDbEntity
   8
LEVEL004
 370
20
 100
AcDbLine
   6
CONTINUOUS
  62
1
  10
 968.75032869988
  20
 279.78446174601
  30
0.0
  11
 968.75032869988
  21
 282.28446174601
  31
0.0
   0
LINE
   5
52A
 100
AcDbEntity
   8
LEVEL004
 370
20
 100
AcDbLine
   6
CONTINUOUS
  62
1
  10
 1048.7503286999
  20
 279.78446174601
  30
0.0
  11
 968.75032869988
  21
 279.78446174601
  31
0.0
   0
LINE
   5
52B
 100
AcDbEntity
   8
LEVEL004
 370
20
 100
AcDbLine
   6
CONTINUOUS
  62
1
  10
 1048.7503286999
  20
 282.28446174601
  30
0.0
  11
 968.75032869988
  21
 282.28446174601
  31
0.0
   0
LINE
   5
52C
 100
AcDbEntity
   8
LEVEL004
 370
20
 100
AcDbLine
   6
HIDDEN
  62
1
  10
 1041.2503286999
  20
 281.68446174601
  30
0.0
  11
 1043.1503286999
  21
 279.78446174601
  31
0.0
   0
LINE
   5
52D
 100
AcDbEntity
   8
LEVEL004
 370
20
 100
AcDbLine
   6
HIDDEN
  62
1
  10
 1036.2503286999
  20
 281.68446174601
  30
0.0
  11
 1036.2503286999
  21
 282.28446174601
  31
0.0
   0
LINE
   5
52E
 100
AcDbEntity
   8
LEVEL004
 370
20
 100
AcDbLine
   6
HIDDEN
  62
1
  10
 1041.2503286999
  20
 281.68446174601
  30
0.0
  11
 1036.2503286999
  21
 281.68446174601
  31
0.0
   0
LINE
   5
52F
 100
AcDbEntity
   8
LEVEL004
 370
20
 100
AcDbLine
   6
HIDDEN
  62
1
  10
 1036.2503286999
  20
 281.68446174601
  30
0.0
  11
 1034.3503286999
  21
 279.78446174601
  31
0.0
   0
LINE
   5
530
 100
AcDbEntity
   8
LEVEL004
 370
20
 100
AcDbLine
   6
HIDDEN
  62
1
  10
 1041.2503286999
  20
 281.68446174601
  30
0.0
  11
 1041.2503286999
  21
 282.28446174601
  31
0.0
   0
LINE
   5
531
 100
AcDbEntity
   8
LEVEL004
 370
20
 100
AcDbLine
   6
HIDDEN
  62
1
  10
 1013.5003286999
  20
 280.53446174601
  30
0.0
  11
 1004.0003286999
  21
 280.53446174601
  31
0.0
   0
LINE
   5
532
 100
AcDbEntity
   8
LEVEL004
 370
20
 100
AcDbLine
   6
HIDDEN
  62
1
  10
 1004.0003286999
  20
 280.53446174601
  30
0.0
  11
 1004.0003286999
  21
 279.78446174601
  31
0.0
   0
LINE
   5
533
 100
AcDbEntity
   8
LEVEL004
 370
20
 100
AcDbLine
   6
HIDDEN
  62
1
  10
 1004.0003286999
  20
 280.53446174601
  30
0.0
  11
 1002.2503286999
  21
 282.28446174601
  31
0.0
   0
LINE
   5
534
 100
AcDbEntity
   8
LEVEL004
 370
20
 100
AcDbLine
   6
HIDDEN
  62
1
  10
 1013.5003286999
  20
 280.53446174601
  30
0.0
  11
 1013.5003286999
  21
 279.78446174601
  31
0.0
   0
LINE
   5
535
 100
AcDbEntity
   8
LEVEL004
 370
20
 100
AcDbLine
   6
HIDDEN
  62
1
  10
 1013.5003286999
  20
 280.53446174601
  30
0.0
  11
 1015.2503286999
  21
 282.28446174601
  31
0.0
   0
LINE
   5
536
 100
AcDbEntity
   8
LEVEL004
 370
20
 100
AcDbLine
   6
HIDDEN
  62
1
  10
 976.25032869988
  20
 281.58446174601
  30
0.0
  11
 981.25032869988
  21
 281.58446174601
  31
0.0
   0
LINE
   5
537
 100
AcDbEntity
   8
LEVEL004
 370
20
 100
AcDbLine
   6
HIDDEN
  62
1
  10
 981.25032869988
  20
 281.58446174601
  30
0.0
  11
 981.25032869988
  21
 282.28446174601
  31
0.0
   0
LINE
   5
538
 100
AcDbEntity
   8
LEVEL004
 370
20
 100
AcDbLine
   6
HIDDEN
  62
1
  10
 981.25032869988
  20
 281.58446174601
  30
0.0
  11
 983.05032869988
  21
 279.78446174601
  31
0.0
   0
LINE
   5
539
 100
AcDbEntity
   8
LEVEL004
 370
20
 100
AcDbLine
   6
HIDDEN
  62
1
  10
 976.25032869988
  20
 281.58446174601
  30
0.0
  11
 976.25032869988
  21
 282.28446174601
  31
0.0
   0
LINE
   5
53A
 100
AcDbEntity
   8
LEVEL004
 370
20
 100
AcDbLine
   6
HIDDEN
  62
1
  10
 976.25032869988
  20
 281.58446174601
  30
0.0
  11
 974.45032869988
  21
 279.78446174601
  31
0.0
   0
LINE
   5
53B
 100
AcDbEntity
   8
0
 370
15
 100
AcDbLine
   6
DASHDOT
  62
8
  10
 978.75032869988
  20
 399.71628074666
  30
0.0
  11
 978.75032869988
  21
 412.75117565101
  31
0.0
   0
LINE
   5
53C
 100
AcDbEntity
   8
0
 370
15
 100
AcDbLine
   6
DASHDOT
  62
8
  10
 985.42980925282
  20
 406.23372819884
  30
0.0
  11
 972.07084814695
  21
 406.23372819884
  31
0.0
   0
LINE
   5
53D
 100
AcDbEntity
   8
LEVEL004
 370
20
 100
AcDbLine
   6
CONTINUOUS
  62
1
  10
 968.75032869988
  20
 411.73372819884
  30
0.0
  11
 968.75032869988
  21
 390.73372819884
  31
0.0
   0
LINE
   5
53E
 100
AcDbEntity
   8
LEVEL004
 370
20
 100
AcDbLine
   6
CONTINUOUS
  62
1
  10
 970.75032869988
  20
 413.73372819884
  30
0.0
  11
 1046.7503286999
  21
 413.73372819884
  31
0.0
   0
LINE
   5
53F
 100
AcDbEntity
   8
LEVEL004
 370
20
 100
AcDbLine
   6
CONTINUOUS
  62
1
  10
 1046.7503286999
  20
 388.73372819884
  30
0.0
  11
 970.75032869988
  21
 388.73372819884
  31
0.0
   0
ARC
   5
540
 100
AcDbEntity
   8
LEVEL004
 370
20
   6
CONTINUOUS
  62
1
 100
AcDbCircle
  10
 970.75032869988
  20
 411.73372819884
  30
0.0
  40
 2.0000000000000
 100
AcDbArc
  50
 90.000000000000
  51
 180.00000000000
   0
ARC
   5
541
 100
AcDbEntity
   8
LEVEL004
 370
20
   6
CONTINUOUS
  62
1
 100
AcDbCircle
  10
 970.75032869988
  20
 390.73372819884
  30
0.0
  40
 2.0000000000000
 100
AcDbArc
  50
 180.00000000000
  51
 270.00000000000
   0
CIRCLE
   5
542
 100
AcDbEntity
   8
LEVEL004
 370
20
 100
AcDbCircle
   6
CONTINUOUS
  62
1
  10
 978.75032869988
  20
 406.23372819884
  30
0.0
  40
 2.5000000000000
   0
CIRCLE
   5
543
 100
AcDbEntity
   8
LEVEL004
 370
20
 100
AcDbCircle
   6
HIDDEN
  62
1
  10
 978.75032869988
  20
 406.23372819884
  30
0.0
  40
 4.3000000000000
   0
LINE
   5
544
 100
AcDbEntity
   8
0
 370
15
 100
AcDbLine
   6
DASHDOT
  62
8
  10
 1038.7503286999
  20
 389.71628074666
  30
0.0
  11
 1038.7503286999
  21
 402.75117565101
  31
0.0
   0
LINE
   5
545
 100
AcDbEntity
   8
0
 370
15
 100
AcDbLine
   6
DASHDOT
  62
8
  10
 1045.4298092528
  20
 396.23372819884
  30
0.0
  11
 1032.0708481469
  21
 396.23372819884
  31
0.0
   0
LINE
   5
546
 100
AcDbEntity
   8
LEVEL004
 370
20
 100
AcDbLine
   6
CONTINUOUS
  62
1
  10
 1048.7503286999
  20
 411.73372819884
  30
0.0
  11
 1048.7503286999
  21
 390.73372819884
  31
0.0
   0
ARC
   5
547
 100
AcDbEntity
   8
LEVEL004
 370
20
   6
CONTINUOUS
  62
1
 100
AcDbCircle
  10
 1046.7503286999
  20
 411.73372819884
  30
0.0
  40
 2.0000000000000
 100
AcDbArc
  50
0.0
  51
 90.000000000000
   0
ARC
   5
548
 100
AcDbEntity
   8
LEVEL004
 370
20
   6
CONTINUOUS
  62
1
 100
AcDbCircle
  10
 1046.7503286999
  20
 390.73372819884
  30
0.0
  40
 2.0000000000000
 100
AcDbArc
  50
 270.00000000000
  51
0.0
   0
CIRCLE
   5
549
 100
AcDbEntity
   8
LEVEL004
 370
20
 100
AcDbCircle
   6
CONTINUOUS
  62
1
  10
 1038.7503286999
  20
 396.23372819884
  30
0.0
  40
 2.5000000000000
   0
CIRCLE
   5
54A
 100
AcDbEntity
   8
LEVEL004
 370
20
 100
AcDbCircle
   6
HIDDEN
  62
1
  10
 1038.7503286999
  20
 396.23372819884
  30
0.0
  40
 4.3000000000000
   0
CIRCLE
   5
54B
 100
AcDbEntity
   8
LEVEL007
 370
20
 100
AcDbCircle
   6
CONTINUOUS
  62
1
  10
 1008.7503286999
  20
 401.23372819884
  30
0.0
  40
 6.4000000000000
   0
CIRCLE
   5
54C
 100
AcDbEntity
   8
LEVEL002
 370
15
 100
AcDbCircle
   6
CONTINUOUS
  62
5
  10
 1008.7503286999
  20
 401.23372819884
  30
0.0
  40
 6.0000000000000
   0
LINE
   5
54D
 100
AcDbEntity
   8
LEVEL002
 370
15
 100
AcDbLine
   6
CONTINUOUS
  62
5
  10
 1009.2003286999
  20
 404.45242358672
  30
0.0
  11
 1009.2003286999
  21
 403.53182523769
  31
0.0
   0
LINE
   5
54E
 100
AcDbEntity
   8
LEVEL002
 370
15
 100
AcDbLine
   6
CONTINUOUS
  62
5
  10
 1009.2003286999
  20
 398.93563115998
  30
0.0
  11
 1009.2003286999
  21
 398.01503281095
  31
0.0
   0
LINE
   5
54F
 100
AcDbEntity
   8
LEVEL002
 370
15
 100
AcDbLine
   6
CONTINUOUS
  62
5
  10
 1008.3003286999
  20
 404.45242358672
  30
0.0
  11
 1008.3003286999
  21
 403.53182523769
  31
0.0
   0
LINE
   5
550
 100
AcDbEntity
   8
LEVEL002
 370
15
 100
AcDbLine
   6
CONTINUOUS
  62
5
  10
 1008.3003286999
  20
 398.93563115998
  30
0.0
  11
 1008.3003286999
  21
 398.01503281095
  31
0.0
   0
LINE
   5
551
 100
AcDbEntity
   8
LEVEL002
 370
15
 100
AcDbLine
   6
CONTINUOUS
  62
5
  10
 1005.5316333120
  20
 400.78372819884
  30
0.0
  11
 1006.4522316610
  21
 400.78372819884
  31
0.0
   0
LINE
   5
552
 100
AcDbEntity
   8
LEVEL002
 370
15
 100
AcDbLine
   6
CONTINUOUS
  62
5
  10
 1011.0484257387
  20
 400.78372819884
  30
0.0
  11
 1011.9690240878
  21
 400.78372819884
  31
0.0
   0
LINE
   5
553
 100
AcDbEntity
   8
LEVEL002
 370
15
 100
AcDbLine
   6
CONTINUOUS
  62
5
  10
 1005.5316333120
  20
 401.68372819884
  30
0.0
  11
 1006.4522316610
  21
 401.68372819884
  31
0.0
   0
LINE
   5
554
 100
AcDbEntity
   8
LEVEL002
 370
15
 100
AcDbLine
   6
CONTINUOUS
  62
5
  10
 1011.0484257387
  20
 401.68372819884
  30
0.0
  11
 1011.9690240878
  21
 401.68372819884
  31
0.0
   0
ARC
   5
555
 100
AcDbEntity
   8
LEVEL002
 370
15
   6
CONTINUOUS
  62
5
 100
AcDbCircle
  10
 1008.7503286999
  20
 401.23372819883
  30
0.0
  40
 3.2500000000000
 100
AcDbArc
  50
 352.04116811846
  51
 7.9588318815447
   0
ARC
   5
556
 100
AcDbEntity
   8
LEVEL002
 370
15
   6
CONTINUOUS
  62
5
 100
AcDbCircle
  10
 1008.7503286999
  20
 401.23372819884
  30
0.0
  40
 3.2500000000000
 100
AcDbArc
  50
 82.041168118401
  51
 97.958831881482
   0
ARC
   5
557
 100
AcDbEntity
   8
LEVEL002
 370
15
   6
CONTINUOUS
  62
5
 100
AcDbCircle
  10
 1008.7503286999
  20
 401.23372819884
  30
0.0
  40
 3.2500000000000
 100
AcDbArc
  50
 172.04116811847
  51
 187.95883188153
   0
ARC
   5
558
 100
AcDbEntity
   8
LEVEL002
 370
15
   6
CONTINUOUS
  62
5
 100
AcDbCircle
  10
 1008.7503286999
  20
 401.23372819884
  30
0.0
  40
 3.2500000000000
 100
AcDbArc
  50
 262.04116811850
  51
 277.95883188155
   0
ARC
   5
559
 100
AcDbEntity
   8
LEVEL002
 370
15
   6
CONTINUOUS
  62
5
 100
AcDbCircle
  10
 1011.0484257387
  20
 398.93563115998
  30
0.0
  40
 1.8480970388563
 100
AcDbArc
  50
 89.999999999968
  51
 179.99999999998
   0
ARC
   5
55A
 100
AcDbEntity
   8
LEVEL002
 370
15
   6
CONTINUOUS
  62
5
 100
AcDbCircle
  10
 1011.0484257387
  20
 403.53182523769
  30
0.0
  40
 1.8480970388563
 100
AcDbArc
  50
 180.00000000000
  51
 270.00000000003
   0
ARC
   5
55B
 100
AcDbEntity
   8
LEVEL002
 370
15
   6
CONTINUOUS
  62
5
 100
AcDbCircle
  10
 1006.4522316610
  20
 398.93563115998
  30
0.0
  40
 1.8480970388563
 100
AcDbArc
  50
0.0
  51
 90.000000000088
   0
ARC
   5
55C
 100
AcDbEntity
   8
LEVEL002
 370
15
   6
CONTINUOUS
  62
5
 100
AcDbCircle
  10
 1006.4522316610
  20
 403.53182523769
  30
0.0
  40
 1.8480970388563
 100
AcDbArc
  50
 269.99999999997
  51
0.0
   0
DIMENSION
   5
55D
 100
AcDbEntity
   8
0
 370
15
   6
CONTINUOUS
  62
8
 100
AcDbDimension
   2
*D37
  10
 1048.7503286999
  20
 343.93107055665
  30
0.0
  11
 1008.7503286999
  21
 343.93107055665
  31
0.0
  70
0
   3
GMM001
 100
AcDbAlignedDimension
  13
 968.75032869988
  23
 390.73372819884
  33
0.0
  14
 1048.7503286999
  24
 390.73372819884
  34
0.0
 100
AcDbRotatedDimension
   0
DIMENSION
   5
55E
 100
AcDbEntity
   8
0
 370
15
   6
CONTINUOUS
  62
8
 100
AcDbDimension
   2
*D38
  10
 1038.7503286999
  20
 366.42731115834
  30
0.0
  11
 1008.7503286999
  21
 366.42731115834
  31
0.0
  70
0
   3
GMM001
 100
AcDbAlignedDimension
  13
 978.75032869988
  23
 399.71628074666
  33
0.0
  14
 1038.7503286999
  24
 389.71628074666
  34
0.0
 100
AcDbRotatedDimension
   0
DIMENSION
   5
55F
 100
AcDbEntity
   8
0
 370
15
   6
CONTINUOUS
  62
8
 100
AcDbDimension
   2
*D39
  10
 921.79972385254
  20
 303.40984551920
  30
0.0
  11
 909.29972385254
  21
 303.40984551920
  31
0.0
  70
0
   3
GMM001
 100
AcDbAlignedDimension
  13
 896.79972385254
  23
 282.28446174601
  33
0.0
  14
 921.79972385254
  24
 282.28446174601
  34
0.0
 100
AcDbRotatedDimension
   0
DIMENSION
   5
560
 100
AcDbEntity
   8
0
 370
15
   6
CONTINUOUS
  62
8
 100
AcDbDimension
   2
*D40
  10
 1048.7503286999
  20
 303.40984551920
  30
0.0
  11
 1008.7503286999
  21
 303.40984551920
  31
0.0
  70
0
   3
GMM001
 100
AcDbAlignedDimension
  13
 968.75032869988
  23
 282.28446174601
  33
0.0
  14
 1048.7503286999
  24
 282.28446174601
  34
0.0
 100
AcDbRotatedDimension
   0
DIMENSION
   5
561
 100
AcDbEntity
   8
0
 370
15
   6
CONTINUOUS
  62
8
 100
AcDbDimension
   2
*D41
  10
 1082.6265131801
  20
 282.28446174601
  30
0.0
  11
 1082.6265131801
  21
 291.15990566356
  31
0.0
  70
128
   3
GMM007
 100
AcDbAlignedDimension
  13
 1048.7503286999
  23
 279.78446174601
  33
0.0
  14
 1048.7503286999
  24
 282.28446174601
  34
0.0
  50
 90.000000000000
 100
AcDbRotatedDimension
   0
DIMENSION
   5
562
 100
AcDbEntity
   8
0
 370
15
   6
CONTINUOUS
  62
8
 100
AcDbDimension
   2
*D42
  10
 1082.6265131801
  20
 413.73372819884
  30
0.0
  11
 1082.6265131801
  21
 401.23372819884
  31
0.0
  70
0
   3
GMM001
 100
AcDbAlignedDimension
  13
 1046.7503286999
  23
 388.73372819884
  33
0.0
  14
 1046.7503286999
  24
 413.73372819884
  34
0.0
  50
 90.000000000000
 100
AcDbRotatedDimension
   0
LINE
   5
563
 100
AcDbEntity
   8
LEVEL004
 370
20
 100
AcDbLine
   6
CONTINUOUS
  62
1
  10
 970.29665718043
  20
 967.60047435921
  30
0.0
  11
 970.29665718043
  21
 946.60047435921
  31
0.0
   0
LINE
   5
564
 100
AcDbEntity
   8
LEVEL004
 370
20
 100
AcDbLine
   6
CONTINUOUS
  62
1
  10
 972.29665718043
  20
 969.60047435921
  30
0.0
  11
 1048.2966571804
  21
 969.60047435921
  31
0.0
   0
LINE
   5
565
 100
AcDbEntity
   8
LEVEL004
 370
20
 100
AcDbLine
   6
CONTINUOUS
  62
1
  10
 1048.2966571804
  20
 944.60047435921
  30
0.0
  11
 972.29665718043
  21
 944.60047435921
  31
0.0
   0
ARC
   5
566
 100
AcDbEntity
   8
LEVEL004
 370
20
   6
CONTINUOUS
  62
1
 100
AcDbCircle
  10
 972.29665718043
  20
 967.60047435921
  30
0.0
  40
 2.0000000000000
 100
AcDbArc
  50
 90.000000000000
  51
 180.00000000000
   0
ARC
   5
567
 100
AcDbEntity
   8
LEVEL004
 370
20
   6
CONTINUOUS
  62
1
 100
AcDbCircle
  10
 972.29665718043
  20
 946.60047435921
  30
0.0
  40
 2.0000000000000
 100
AcDbArc
  50
 180.00000000000
  51
 270.00000000000
   0
CIRCLE
   5
568
 100
AcDbEntity
   8
LEVEL004
 370
20
 100
AcDbCircle
   6
CONTINUOUS
  62
1
  10
 980.29665718043
  20
 962.10047435921
  30
0.0
  40
 2.5000000000000
   0
CIRCLE
   5
569
 100
AcDbEntity
   8
LEVEL004
 370
20
 100
AcDbCircle
   6
HIDDEN
  62
1
  10
 980.29665718043
  20
 962.10047435921
  30
0.0
  40
 4.3000000000000
   0
LINE
   5
56A
 100
AcDbEntity
   8
LEVEL004
 370
20
 100
AcDbLine
   6
CONTINUOUS
  62
1
  10
 1050.2966571804
  20
 967.60047435921
  30
0.0
  11
 1050.2966571804
  21
 946.60047435921
  31
0.0
   0
ARC
   5
56B
 100
AcDbEntity
   8
LEVEL004
 370
20
   6
CONTINUOUS
  62
1
 100
AcDbCircle
  10
 1048.2966571804
  20
 967.60047435921
  30
0.0
  40
 2.0000000000000
 100
AcDbArc
  50
0.0
  51
 90.000000000000
   0
ARC
   5
56C
 100
AcDbEntity
   8
LEVEL004
 370
20
   6
CONTINUOUS
  62
1
 100
AcDbCircle
  10
 1048.2966571804
  20
 946.60047435921
  30
0.0
  40
 2.0000000000000
 100
AcDbArc
  50
 270.00000000000
  51
0.0
   0
CIRCLE
   5
56D
 100
AcDbEntity
   8
LEVEL004
 370
20
 100
AcDbCircle
   6
CONTINUOUS
  62
1
  10
 1040.2966571804
  20
 952.10047435921
  30
0.0
  40
 2.5000000000000
   0
CIRCLE
   5
56E
 100
AcDbEntity
   8
LEVEL004
 370
20
 100
AcDbCircle
   6
HIDDEN
  62
1
  10
 1040.2966571804
  20
 952.10047435921
  30
0.0
  40
 4.3000000000000
   0
CIRCLE
   5
56F
 100
AcDbEntity
   8
LEVEL007
 370
20
 100
AcDbCircle
   6
CONTINUOUS
  62
1
  10
 1010.2966571804
  20
 957.10047435921
  30
0.0
  40
 6.4000000000000
   0
LINE
   5
570
 100
AcDbEntity
   8
0
 370
15
 100
AcDbLine
   6
DASHDOT
  62
8
  10
 1040.2966571804
  20
 945.58302690703
  30
0.0
  11
 1040.2966571804
  21
 958.61792181139
  31
0.0
   0
LINE
   5
571
 100
AcDbEntity
   8
0
 370
15
 100
AcDbLine
   6
DASHDOT
  62
8
  10
 1046.9761377334
  20
 952.10047435921
  30
0.0
  11
 1033.6171766275
  21
 952.10047435921
  31
0.0
   0
DIMENSION
   5
572
 100
AcDbEntity
   8
0
 370
15
   6
CONTINUOUS
  62
8
 100
AcDbDimension
   2
*D43
  10
 1050.2966571804
  20
 899.79781671702
  30
0.0
  11
 1010.2966571804
  21
 899.79781671702
  31
0.0
  70
0
   3
GMM001
 100
AcDbAlignedDimension
  13
 970.29665718043
  23
 946.60047435921
  33
0.0
  14
 1050.2966571804
  24
 946.60047435921
  34
0.0
 100
AcDbRotatedDimension
   0
DIMENSION
   5
573
 100
AcDbEntity
   8
0
 370
15
   6
CONTINUOUS
  62
8
 100
AcDbDimension
   2
*D44
  10
 1040.2966571804
  20
 922.29405731871
  30
0.0
  11
 1010.2966571804
  21
 922.29405731871
  31
0.0
  70
0
   3
GMM001
 100
AcDbAlignedDimension
  13
 980.29665718043
  23
 955.58302690703
  33
0.0
  14
 1040.2966571804
  24
 945.58302690703
  34
0.0
 100
AcDbRotatedDimension
   0
DIMENSION
   5
574
 100
AcDbEntity
   8
0
 370
15
   6
CONTINUOUS
  62
8
 100
AcDbDimension
   2
*D45
  10
 1084.1728416606
  20
 969.60047435921
  30
0.0
  11
 1084.1728416606
  21
 957.10047435921
  31
0.0
  70
0
   3
GMM001
 100
AcDbAlignedDimension
  13
 1048.2966571804
  23
 944.60047435921
  33
0.0
  14
 1048.2966571804
  24
 969.60047435921
  34
0.0
  50
 90.000000000000
 100
AcDbRotatedDimension
   0
CIRCLE
   5
575
 100
AcDbEntity
   8
LEVEL002
 370
15
 100
AcDbCircle
   6
CONTINUOUS
  62
5
  10
 1010.2966571804
  20
 957.10047435921
  30
0.0
  40
 6.0000000000000
   0
LINE
   5
576
 100
AcDbEntity
   8
LEVEL002
 370
15
 100
AcDbLine
   6
CONTINUOUS
  62
5
  10
 1010.7466571804
  20
 960.31916974710
  30
0.0
  11
 1010.7466571804
  21
 959.39857139807
  31
0.0
   0
LINE
   5
577
 100
AcDbEntity
   8
LEVEL002
 370
15
 100
AcDbLine
   6
CONTINUOUS
  62
5
  10
 1010.7466571804
  20
 954.80237732035
  30
0.0
  11
 1010.7466571804
  21
 953.88177897132
  31
0.0
   0
LINE
   5
578
 100
AcDbEntity
   8
LEVEL002
 370
15
 100
AcDbLine
   6
CONTINUOUS
  62
5
  10
 1009.8466571804
  20
 960.31916974710
  30
0.0
  11
 1009.8466571804
  21
 959.39857139807
  31
0.0
   0
LINE
   5
579
 100
AcDbEntity
   8
LEVEL002
 370
15
 100
AcDbLine
   6
CONTINUOUS
  62
5
  10
 1009.8466571804
  20
 954.80237732035
  30
0.0
  11
 1009.8466571804
  21
 953.88177897132
  31
0.0
   0
LINE
   5
57A
 100
AcDbEntity
   8
LEVEL002
 370
15
 100
AcDbLine
   6
CONTINUOUS
  62
5
  10
 1007.0779617926
  20
 956.65047435921
  30
0.0
  11
 1007.9985601416
  21
 956.65047435921
  31
0.0
   0
LINE
   5
57B
 100
AcDbEntity
   8
LEVEL002
 370
15
 100
AcDbLine
   6
CONTINUOUS
  62
5
  10
 1012.5947542193
  20
 956.65047435921
  30
0.0
  11
 1013.5153525683
  21
 956.65047435921
  31
0.0
   0
LINE
   5
57C
 100
AcDbEntity
   8
LEVEL002
 370
15
 100
AcDbLine
   6
CONTINUOUS
  62
5
  10
 1007.0779617926
  20
 957.55047435921
  30
0.0
  11
 1007.9985601416
  21
 957.55047435921
  31
0.0
   0
LINE
   5
57D
 100
AcDbEntity
   8
LEVEL002
 370
15
 100
AcDbLine
   6
CONTINUOUS
  62
5
  10
 1012.5947542193
  20
 957.55047435921
  30
0.0
  11
 1013.5153525683
  21
 957.55047435921
  31
0.0
   0
ARC
   5
57E
 100
AcDbEntity
   8
LEVEL002
 370
15
   6
CONTINUOUS
  62
5
 100
AcDbCircle
  10
 1010.2966571804
  20
 957.10047435921
  30
0.0
  40
 3.2500000000000
 100
AcDbArc
  50
 352.04116811846
  51
 7.9588318815447
   0
ARC
   5
57F
 100
AcDbEntity
   8
LEVEL002
 370
15
   6
CONTINUOUS
  62
5
 100
AcDbCircle
  10
 1010.2966571804
  20
 957.10047435921
  30
0.0
  40
 3.2500000000000
 100
AcDbArc
  50
 82.041168118401
  51
 97.958831881482
   0
ARC
   5
580
 100
AcDbEntity
   8
LEVEL002
 370
15
   6
CONTINUOUS
  62
5
 100
AcDbCircle
  10
 1010.2966571804
  20
 957.10047435921
  30
0.0
  40
 3.2500000000000
 100
AcDbArc
  50
 172.04116811847
  51
 187.95883188153
   0
ARC
   5
581
 100
AcDbEntity
   8
LEVEL002
 370
15
   6
CONTINUOUS
  62
5
 100
AcDbCircle
  10
 1010.2966571804
  20
 957.10047435921
  30
0.0
  40
 3.2500000000000
 100
AcDbArc
  50
 262.04116811850
  51
 277.95883188155
   0
ARC
   5
582
 100
AcDbEntity
   8
LEVEL002
 370
15
   6
CONTINUOUS
  62
5
 100
AcDbCircle
  10
 1012.5947542193
  20
 954.80237732035
  30
0.0
  40
 1.8480970388563
 100
AcDbArc
  50
 89.999999999968
  51
 179.99999999998
   0
ARC
   5
583
 100
AcDbEntity
   8
LEVEL002
 370
15
   6
CONTINUOUS
  62
5
 100
AcDbCircle
  10
 1012.5947542193
  20
 959.39857139807
  30
0.0
  40
 1.8480970388563
 100
AcDbArc
  50
 180.00000000000
  51
 270.00000000003
   0
ARC
   5
584
 100
AcDbEntity
   8
LEVEL002
 370
15
   6
CONTINUOUS
  62
5
 100
AcDbCircle
  10
 1007.9985601416
  20
 954.80237732035
  30
0.0
  40
 1.8480970388563
 100
AcDbArc
  50
0.0
  51
 90.000000000088
   0
ARC
   5
585
 100
AcDbEntity
   8
LEVEL002
 370
15
   6
CONTINUOUS
  62
5
 100
AcDbCircle
  10
 1007.9985601416
  20
 959.39857139807
  30
0.0
  40
 1.8480970388563
 100
AcDbArc
  50
 269.99999999997
  51
0.0
   0
LINE
   5
586
 100
AcDbEntity
   8
0
 370
15
 100
AcDbLine
   6
DASHDOT
  62
8
  10
 980.29665718043
  20
 955.58302690703
  30
0.0
  11
 980.29665718043
  21
 968.61792181139
  31
0.0
   0
LINE
   5
587
 100
AcDbEntity
   8
0
 370
15
 100
AcDbLine
   6
DASHDOT
  62
8
  10
 986.97613773337
  20
 962.10047435921
  30
0.0
  11
 973.61717662750
  21
 962.10047435921
  31
0.0
   0
LWPOLYLINE
   5
588
 100
AcDbEntity
   8
0
 370
20
   6
CONTINUOUS
  62
1
 100
AcDbPolyline
  90
4
  70
1
  10
 898.34605233309
  20
 838.15120790638
  10
 898.34605233309
  20
 835.65120790638
  10
 923.34605233309
  20
 835.65120790638
  10
 923.34605233309
  20
 838.15120790638
   0
LINE
   5
589
 100
AcDbEntity
   8
LEVEL004
 370
20
 100
AcDbLine
   6
HIDDEN
  62
1
  10
 915.59605233309
  20
 836.40120790638
  30
0.0
  11
 906.09605233309
  21
 836.40120790638
  31
0.0
   0
LINE
   5
58A
 100
AcDbEntity
   8
LEVEL004
 370
20
 100
AcDbLine
   6
HIDDEN
  62
1
  10
 906.09605233309
  20
 836.40120790638
  30
0.0
  11
 906.09605233309
  21
 835.65120790638
  31
0.0
   0
LINE
   5
58B
 100
AcDbEntity
   8
LEVEL004
 370
20
 100
AcDbLine
   6
HIDDEN
  62
1
  10
 906.09605233309
  20
 836.40120790638
  30
0.0
  11
 904.34605233309
  21
 838.15120790638
  31
0.0
   0
LINE
   5
58C
 100
AcDbEntity
   8
LEVEL004
 370
20
 100
AcDbLine
   6
HIDDEN
  62
1
  10
 903.34605233309
  20
 837.45120790638
  30
0.0
  11
 908.34605233309
  21
 837.45120790638
  31
0.0
   0
LINE
   5
58D
 100
AcDbEntity
   8
LEVEL004
 370
20
 100
AcDbLine
   6
HIDDEN
  62
1
  10
 908.34605233309
  20
 837.45120790638
  30
0.0
  11
 908.34605233309
  21
 838.15120790638
  31
0.0
   0
LINE
   5
58E
 100
AcDbEntity
   8
LEVEL004
 370
20
 100
AcDbLine
   6
HIDDEN
  62
1
  10
 908.34605233309
  20
 837.45120790638
  30
0.0
  11
 910.14605233309
  21
 835.65120790638
  31
0.0
   0
LINE
   5
58F
 100
AcDbEntity
   8
LEVEL004
 370
20
 100
AcDbLine
   6
HIDDEN
  62
1
  10
 903.34605233309
  20
 837.45120790638
  30
0.0
  11
 903.34605233309
  21
 838.15120790638
  31
0.0
   0
LINE
   5
590
 100
AcDbEntity
   8
LEVEL004
 370
20
 100
AcDbLine
   6
HIDDEN
  62
1
  10
 903.34605233309
  20
 837.45120790638
  30
0.0
  11
 901.54605233309
  21
 835.65120790638
  31
0.0
   0
LINE
   5
591
 100
AcDbEntity
   8
LEVEL004
 370
20
 100
AcDbLine
   6
HIDDEN
  62
1
  10
 915.59605233309
  20
 836.40120790638
  30
0.0
  11
 915.59605233309
  21
 835.65120790638
  31
0.0
   0
LINE
   5
592
 100
AcDbEntity
   8
LEVEL004
 370
20
 100
AcDbLine
   6
HIDDEN
  62
1
  10
 915.59605233309
  20
 836.40120790638
  30
0.0
  11
 917.34605233309
  21
 838.15120790638
  31
0.0
   0
LINE
   5
593
 100
AcDbEntity
   8
LEVEL004
 370
20
 100
AcDbLine
   6
HIDDEN
  62
1
  10
 913.34605233309
  20
 837.45120790638
  30
0.0
  11
 918.34605233309
  21
 837.45120790638
  31
0.0
   0
LINE
   5
594
 100
AcDbEntity
   8
LEVEL004
 370
20
 100
AcDbLine
   6
HIDDEN
  62
1
  10
 918.34605233309
  20
 837.45120790638
  30
0.0
  11
 918.34605233309
  21
 838.15120790638
  31
0.0
   0
LINE
   5
595
 100
AcDbEntity
   8
LEVEL004
 370
20
 100
AcDbLine
   6
HIDDEN
  62
1
  10
 918.34605233309
  20
 837.45120790638
  30
0.0
  11
 920.14605233309
  21
 835.65120790638
  31
0.0
   0
LINE
   5
596
 100
AcDbEntity
   8
LEVEL004
 370
20
 100
AcDbLine
   6
HIDDEN
  62
1
  10
 913.34605233309
  20
 837.45120790638
  30
0.0
  11
 913.34605233309
  21
 838.15120790638
  31
0.0
   0
LINE
   5
597
 100
AcDbEntity
   8
LEVEL004
 370
20
 100
AcDbLine
   6
HIDDEN
  62
1
  10
 913.34605233309
  20
 837.45120790638
  30
0.0
  11
 911.54605233309
  21
 835.65120790638
  31
0.0
   0
DIMENSION
   5
598
 100
AcDbEntity
   8
0
 370
15
   6
CONTINUOUS
  62
8
 100
AcDbDimension
   2
*D46
  10
 923.34605233309
  20
 859.27659167957
  30
0.0
  11
 910.84605233309
  21
 859.27659167957
  31
0.0
  70
0
   3
GMM001
 100
AcDbAlignedDimension
  13
 898.34605233309
  23
 838.15120790638
  33
0.0
  14
 923.34605233309
  24
 838.15120790638
  34
0.0
 100
AcDbRotatedDimension
   0
LINE
   5
599
 100
AcDbEntity
   8
LEVEL006
 370
15
 100
AcDbLine
   6
DASHDOT
  62
8
  10
 915.84605233309
  20
 834.65120790638
  30
0.0
  11
 915.84605233309
  21
 838.65120790638
  31
0.0
   0
LINE
   5
59A
 100
AcDbEntity
   8
LEVEL006
 370
15
 100
AcDbLine
   6
DASHDOT
  62
8
  10
 905.84605233309
  20
 834.65120790638
  30
0.0
  11
 905.84605233309
  21
 838.65120790638
  31
0.0
   0
LINE
   5
59B
 100
AcDbEntity
   8
LEVEL006
 370
15
 100
AcDbLine
   6
DASHDOT
  62
8
  10
 980.29665718043
  20
 834.65120790638
  30
0.0
  11
 980.29665718043
  21
 838.65120790638
  31
0.0
   0
LINE
   5
59C
 100
AcDbEntity
   8
LEVEL004
 370
20
 100
AcDbLine
   6
CONTINUOUS
  62
1
  10
 970.29665718043
  20
 835.65120790638
  30
0.0
  11
 970.29665718043
  21
 838.15120790638
  31
0.0
   0
LINE
   5
59D
 100
AcDbEntity
   8
LEVEL004
 370
20
 100
AcDbLine
   6
CONTINUOUS
  62
1
  10
 1050.2966571804
  20
 835.65120790638
  30
0.0
  11
 970.29665718043
  21
 835.65120790638
  31
0.0
   0
LINE
   5
59E
 100
AcDbEntity
   8
LEVEL004
 370
20
 100
AcDbLine
   6
CONTINUOUS
  62
1
  10
 1050.2966571804
  20
 838.15120790638
  30
0.0
  11
 970.29665718043
  21
 838.15120790638
  31
0.0
   0
LINE
   5
59F
 100
AcDbEntity
   8
LEVEL004
 370
20
 100
AcDbLine
   6
HIDDEN
  62
1
  10
 977.79665718043
  20
 837.45120790638
  30
0.0
  11
 982.79665718043
  21
 837.45120790638
  31
0.0
   0
LINE
   5
5A0
 100
AcDbEntity
   8
LEVEL004
 370
20
 100
AcDbLine
   6
HIDDEN
  62
1
  10
 982.79665718043
  20
 837.45120790638
  30
0.0
  11
 982.79665718043
  21
 838.15120790638
  31
0.0
   0
LINE
   5
5A1
 100
AcDbEntity
   8
LEVEL004
 370
20
 100
AcDbLine
   6
HIDDEN
  62
1
  10
 982.79665718043
  20
 837.45120790638
  30
0.0
  11
 984.59665718043
  21
 835.65120790638
  31
0.0
   0
LINE
   5
5A2
 100
AcDbEntity
   8
LEVEL004
 370
20
 100
AcDbLine
   6
HIDDEN
  62
1
  10
 977.79665718043
  20
 837.45120790638
  30
0.0
  11
 977.79665718043
  21
 838.15120790638
  31
0.0
   0
LINE
   5
5A3
 100
AcDbEntity
   8
LEVEL004
 370
20
 100
AcDbLine
   6
HIDDEN
  62
1
  10
 977.79665718043
  20
 837.45120790638
  30
0.0
  11
 975.99665718043
  21
 835.65120790638
  31
0.0
   0
DIMENSION
   5
5A4
 100
AcDbEntity
   8
0
 370
15
   6
CONTINUOUS
  62
8
 100
AcDbDimension
   2
*D47
  10
 1050.2966571804
  20
 859.27659167957
  30
0.0
  11
 1010.2966571804
  21
 859.27659167957
  31
0.0
  70
0
   3
GMM001
 100
AcDbAlignedDimension
  13
 970.29665718043
  23
 838.15120790638
  33
0.0
  14
 1050.2966571804
  24
 838.15120790638
  34
0.0
 100
AcDbRotatedDimension
   0
LINE
   5
5A5
 100
AcDbEntity
   8
LEVEL006
 370
15
 100
AcDbLine
   6
DASHDOT
  62
8
  10
 1040.2966571804
  20
 834.65120790638
  30
0.0
  11
 1040.2966571804
  21
 838.65120790638
  31
0.0
   0
LINE
   5
5A6
 100
AcDbEntity
   8
LEVEL004
 370
20
 100
AcDbLine
   6
CONTINUOUS
  62
1
  10
 1050.2966571804
  20
 835.65120790638
  30
0.0
  11
 1050.2966571804
  21
 838.15120790638
  31
0.0
   0
LINE
   5
5A7
 100
AcDbEntity
   8
LEVEL004
 370
20
 100
AcDbLine
   6
HIDDEN
  62
1
  10
 1042.7966571804
  20
 837.55120790638
  30
0.0
  11
 1044.6966571804
  21
 835.65120790638
  31
0.0
   0
LINE
   5
5A8
 100
AcDbEntity
   8
LEVEL004
 370
20
 100
AcDbLine
   6
HIDDEN
  62
1
  10
 1037.7966571804
  20
 837.55120790638
  30
0.0
  11
 1037.7966571804
  21
 838.15120790638
  31
0.0
   0
LINE
   5
5A9
 100
AcDbEntity
   8
LEVEL004
 370
20
 100
AcDbLine
   6
HIDDEN
  62
1
  10
 1042.7966571804
  20
 837.55120790638
  30
0.0
  11
 1037.7966571804
  21
 837.55120790638
  31
0.0
   0
LINE
   5
5AA
 100
AcDbEntity
   8
LEVEL004
 370
20
 100
AcDbLine
   6
HIDDEN
  62
1
  10
 1037.7966571804
  20
 837.55120790638
  30
0.0
  11
 1035.8966571804
  21
 835.65120790638
  31
0.0
   0
LINE
   5
5AB
 100
AcDbEntity
   8
LEVEL004
 370
20
 100
AcDbLine
   6
HIDDEN
  62
1
  10
 1042.7966571804
  20
 837.55120790638
  30
0.0
  11
 1042.7966571804
  21
 838.15120790638
  31
0.0
   0
DIMENSION
   5
5AC
 100
AcDbEntity
   8
0
 370
15
   6
CONTINUOUS
  62
8
 100
AcDbDimension
   2
*D48
  10
 1084.1728416606
  20
 838.15120790638
  30
0.0
  11
 1084.1728416606
  21
 847.02665182393
  31
0.0
  70
128
   3
GMM007
 100
AcDbAlignedDimension
  13
 1050.2966571804
  23
 835.65120790638
  33
0.0
  14
 1050.2966571804
  24
 838.15120790638
  34
0.0
  50
 90.000000000000
 100
AcDbRotatedDimension
   0
LINE
   5
5AD
 100
AcDbEntity
   8
LEVEL004
 370
20
 100
AcDbLine
   6
HIDDEN
  62
1
  10
 1015.0466571804
  20
 836.40120790638
  30
0.0
  11
 1005.5466571804
  21
 836.40120790638
  31
0.0
   0
LINE
   5
5AE
 100
AcDbEntity
   8
LEVEL004
 370
20
 100
AcDbLine
   6
HIDDEN
  62
1
  10
 1005.5466571804
  20
 836.40120790638
  30
0.0
  11
 1005.5466571804
  21
 835.65120790638
  31
0.0
   0
LINE
   5
5AF
 100
AcDbEntity
   8
LEVEL004
 370
20
 100
AcDbLine
   6
HIDDEN
  62
1
  10
 1005.5466571804
  20
 836.40120790638
  30
0.0
  11
 1003.7966571804
  21
 838.15120790638
  31
0.0
   0
LINE
   5
5B0
 100
AcDbEntity
   8
LEVEL004
 370
20
 100
AcDbLine
   6
HIDDEN
  62
1
  10
 1015.0466571804
  20
 836.40120790638
  30
0.0
  11
 1015.0466571804
  21
 835.65120790638
  31
0.0
   0
LINE
   5
5B1
 100
AcDbEntity
   8
LEVEL004
 370
20
 100
AcDbLine
   6
HIDDEN
  62
1
  10
 1015.0466571804
  20
 836.40120790638
  30
0.0
  11
 1016.7966571804
  21
 838.15120790638
  31
0.0
   0
LINE
   5
5B2
 100
AcDbEntity
   8
LEVEL001
 370
15
 100
AcDbLine
   6
DASHDOT
  62
8
  10
 910.84605233309
  20
 850.99780632997
  30
0.0
  11
 910.84605233309
  21
 806.65120790638
  31
0.0
   0
LINE
   5
5B3
 100
AcDbEntity
   8
LEVEL001
 370
15
 100
AcDbLine
   6
DASHDOT
  62
8
  10
 1010.2966571804
  20
 755.97173337093
  30
0.0
  11
 1010.2966571804
  21
 850.99780632997
  31
0.0
   0
LINE
   5
5B4
 100
AcDbEntity
   8
LEVEL001
 370
15
 100
AcDbLine
   6
DASHDOT
  62
8
  10
 909.29972385254
  20
 297.19329504683
  30
0.0
  11
 909.29972385254
  21
 259.28446174601
  31
0.0
   0
LINE
   5
5B5
 100
AcDbEntity
   8
LEVEL001
 370
15
 100
AcDbLine
   6
DASHDOT
  62
8
  10
 1008.7503286999
  20
 215.92536785220
  30
0.0
  11
 1008.7503286999
  21
 297.19329504683
  31
0.0
   0
LINE
   5
5B6
 100
AcDbEntity
   8
LEVEL001
 370
15
 100
AcDbLine
   6
HIDDEN
  62
2
  10
 388.65994764330
  20
 472.65911197203
  30
0.0
  11
 390.35994764330
  21
 474.35911197203
  31
0.0
   0
LINE
   5
5B7
 100
AcDbEntity
   8
LEVEL001
 370
15
 100
AcDbLine
   6
HIDDEN
  62
2
  10
 390.35994764330
  20
 474.35911197203
  30
0.0
  11
 395.15994764330
  21
 474.35911197203
  31
0.0
   0
LINE
   5
5B8
 100
AcDbEntity
   8
LEVEL001
 370
15
 100
AcDbLine
   6
HIDDEN
  62
2
  10
 395.15994764330
  20
 474.35911197203
  30
0.0
  11
 396.85994764330
  21
 472.65911197203
  31
0.0
   0
LINE
   5
5B9
 100
AcDbEntity
   8
LEVEL001
 370
15
 100
AcDbLine
   6
HIDDEN
  62
2
  10
 388.65994764330
  20
 472.35911197203
  30
0.0
  11
 388.65994764330
  21
 472.65911197203
  31
0.0
   0
LINE
   5
5BA
 100
AcDbEntity
   8
LEVEL001
 370
15
 100
AcDbLine
   6
HIDDEN
  62
2
  10
 388.65994764330
  20
 472.65911197203
  30
0.0
  11
 396.85994764330
  21
 472.65911197203
  31
0.0
   0
LINE
   5
5BB
 100
AcDbEntity
   8
LEVEL001
 370
15
 100
AcDbLine
   6
HIDDEN
  62
2
  10
 396.85994764330
  20
 472.65911197203
  30
0.0
  11
 396.85994764330
  21
 472.35911197203
  31
0.0
   0
LINE
   5
5BC
 100
AcDbEntity
   8
LEVEL001
 370
15
 100
AcDbLine
   6
HIDDEN
  62
2
  10
 390.35994764330
  20
 474.35911197203
  30
0.0
  11
 390.35994764330
  21
 476.35911197203
  31
0.0
   0
LINE
   5
5BD
 100
AcDbEntity
   8
LEVEL001
 370
15
 100
AcDbLine
   6
HIDDEN
  62
2
  10
 395.15994764330
  20
 474.35911197203
  30
0.0
  11
 395.15994764330
  21
 476.35911197203
  31
0.0
   0
LINE
   5
5BE
 100
AcDbEntity
   8
LEVEL001
 370
15
 100
AcDbLine
   6
DASHDOT
  62
8
  10
 392.75994764330
  20
 478.65541165258
  30
0.0
  11
 392.75994764330
  21
 470.06281229148
  31
0.0
   0
LINE
   5
5BF
 100
AcDbEntity
   8
LEVEL001
 370
15
 100
AcDbLine
   6
HIDDEN
  62
2
  10
 414.64070975683
  20
 472.65911197203
  30
0.0
  11
 416.34070975683
  21
 474.35911197203
  31
0.0
   0
LINE
   5
5C0
 100
AcDbEntity
   8
LEVEL001
 370
15
 100
AcDbLine
   6
HIDDEN
  62
2
  10
 416.34070975683
  20
 474.35911197203
  30
0.0
  11
 421.14070975683
  21
 474.35911197203
  31
0.0
   0
LINE
   5
5C1
 100
AcDbEntity
   8
LEVEL001
 370
15
 100
AcDbLine
   6
HIDDEN
  62
2
  10
 421.14070975683
  20
 474.35911197203
  30
0.0
  11
 422.84070975683
  21
 472.65911197203
  31
0.0
   0
LINE
   5
5C2
 100
AcDbEntity
   8
LEVEL001
 370
15
 100
AcDbLine
   6
HIDDEN
  62
2
  10
 414.64070975683
  20
 472.35911197203
  30
0.0
  11
 414.64070975683
  21
 472.65911197203
  31
0.0
   0
LINE
   5
5C3
 100
AcDbEntity
   8
LEVEL001
 370
15
 100
AcDbLine
   6
HIDDEN
  62
2
  10
 414.64070975683
  20
 472.65911197203
  30
0.0
  11
 422.84070975683
  21
 472.65911197203
  31
0.0
   0
LINE
   5
5C4
 100
AcDbEntity
   8
LEVEL001
 370
15
 100
AcDbLine
   6
HIDDEN
  62
2
  10
 422.84070975683
  20
 472.65911197203
  30
0.0
  11
 422.84070975683
  21
 472.35911197203
  31
0.0
   0
LINE
   5
5C5
 100
AcDbEntity
   8
LEVEL001
 370
15
 100
AcDbLine
   6
HIDDEN
  62
2
  10
 416.34070975683
  20
 474.35911197203
  30
0.0
  11
 416.34070975683
  21
 476.35911197203
  31
0.0
   0
LINE
   5
5C6
 100
AcDbEntity
   8
LEVEL001
 370
15
 100
AcDbLine
   6
HIDDEN
  62
2
  10
 421.14070975683
  20
 474.35911197203
  30
0.0
  11
 421.14070975683
  21
 476.35911197203
  31
0.0
   0
LINE
   5
5C7
 100
AcDbEntity
   8
LEVEL001
 370
15
 100
AcDbLine
   6
DASHDOT
  62
8
  10
 418.74070975683
  20
 478.65541165258
  30
0.0
  11
 418.74070975683
  21
 470.06281229148
  31
0.0
   0
LINE
   5
5C8
 100
AcDbEntity
   8
LEVEL001
 370
15
 100
AcDbLine
   6
HIDDEN
  62
2
  10
 401.65032870007
  20
 472.65911197203
  30
0.0
  11
 403.35032870007
  21
 474.35911197203
  31
0.0
   0
LINE
   5
5C9
 100
AcDbEntity
   8
LEVEL001
 370
15
 100
AcDbLine
   6
HIDDEN
  62
2
  10
 403.35032870007
  20
 474.35911197203
  30
0.0
  11
 408.15032870007
  21
 474.35911197203
  31
0.0
   0
LINE
   5
5CA
 100
AcDbEntity
   8
LEVEL001
 370
15
 100
AcDbLine
   6
HIDDEN
  62
2
  10
 408.15032870007
  20
 474.35911197203
  30
0.0
  11
 409.85032870007
  21
 472.65911197203
  31
0.0
   0
LINE
   5
5CB
 100
AcDbEntity
   8
LEVEL001
 370
15
 100
AcDbLine
   6
HIDDEN
  62
2
  10
 401.65032870007
  20
 472.35911197203
  30
0.0
  11
 401.65032870007
  21
 472.65911197203
  31
0.0
   0
LINE
   5
5CC
 100
AcDbEntity
   8
LEVEL001
 370
15
 100
AcDbLine
   6
HIDDEN
  62
2
  10
 401.65032870007
  20
 472.65911197203
  30
0.0
  11
 409.85032870007
  21
 472.65911197203
  31
0.0
   0
LINE
   5
5CD
 100
AcDbEntity
   8
LEVEL001
 370
15
 100
AcDbLine
   6
HIDDEN
  62
2
  10
 409.85032870007
  20
 472.65911197203
  30
0.0
  11
 409.85032870007
  21
 472.35911197203
  31
0.0
   0
LINE
   5
5CE
 100
AcDbEntity
   8
LEVEL001
 370
15
 100
AcDbLine
   6
HIDDEN
  62
2
  10
 403.35032870007
  20
 474.35911197203
  30
0.0
  11
 403.35032870007
  21
 476.35911197203
  31
0.0
   0
LINE
   5
5CF
 100
AcDbEntity
   8
LEVEL001
 370
15
 100
AcDbLine
   6
HIDDEN
  62
2
  10
 408.15032870007
  20
 474.35911197203
  30
0.0
  11
 408.15032870007
  21
 476.35911197203
  31
0.0
   0
LINE
   5
5D0
 100
AcDbEntity
   8
LEVEL001
 370
20
 100
AcDbLine
   6
CONTINUOUS
  62
7
  10
 412.25032870007
  20
 472.35911197203
  30
0.0
  11
 426.75032870007
  21
 472.35911197203
  31
0.0
   0
LINE
   5
5D1
 100
AcDbEntity
   8
LEVEL001
 370
20
 100
AcDbLine
   6
CONTINUOUS
  62
7
  10
 428.25032870007
  20
 473.85911197203
  30
0.0
  11
 383.25032870007
  21
 473.85911197203
  31
0.0
   0
LINE
   5
5D2
 100
AcDbEntity
   8
LEVEL001
 370
20
 100
AcDbLine
   6
CONTINUOUS
  62
7
  10
 428.25032870007
  20
 476.35911197203
  30
0.0
  11
 383.25032870007
  21
 476.35911197203
  31
0.0
   0
LINE
   5
5D3
 100
AcDbEntity
   8
LEVEL001
 370
20
 100
AcDbLine
   6
CONTINUOUS
  62
7
  10
 428.25032870007
  20
 476.35911197203
  30
0.0
  11
 428.25032870007
  21
 473.85911197203
  31
0.0
   0
LINE
   5
5D4
 100
AcDbEntity
   8
LEVEL001
 370
20
 100
AcDbLine
   6
CONTINUOUS
  62
7
  10
 428.25032870007
  20
 473.85911197203
  30
0.0
  11
 426.75032870007
  21
 472.35911197203
  31
0.0
   0
LINE
   5
5D5
 100
AcDbEntity
   8
LEVEL001
 370
20
 100
AcDbLine
   6
CONTINUOUS
  62
7
  10
 384.75032870007
  20
 472.35911197203
  30
0.0
  11
 399.25032870007
  21
 472.35911197203
  31
0.0
   0
LINE
   5
5D6
 100
AcDbEntity
   8
LEVEL001
 370
20
 100
AcDbLine
   6
CONTINUOUS
  62
7
  10
 383.25032870007
  20
 476.35911197203
  30
0.0
  11
 383.25032870007
  21
 473.85911197203
  31
0.0
   0
LINE
   5
5D7
 100
AcDbEntity
   8
LEVEL001
 370
20
 100
AcDbLine
   6
CONTINUOUS
  62
7
  10
 383.25032870007
  20
 473.85911197203
  30
0.0
  11
 384.75032870007
  21
 472.35911197203
  31
0.0
   0
LINE
   5
5D8
 100
AcDbEntity
   8
LEVEL001
 370
20
 100
AcDbLine
   6
CONTINUOUS
  62
7
  10
 412.25032870007
  20
 472.35911197202
  30
0.0
  11
 399.25032870007
  21
 472.35911197202
  31
0.0
   0
LINE
   5
5D9
 100
AcDbEntity
   8
LEVEL001
 370
15
 100
AcDbLine
   6
HIDDEN
  62
2
  10
 991.65994764311
  20
 471.53372819884
  30
0.0
  11
 993.35994764311
  21
 473.23372819884
  31
0.0
   0
LINE
   5
5DA
 100
AcDbEntity
   8
LEVEL001
 370
15
 100
AcDbLine
   6
HIDDEN
  62
2
  10
 993.35994764311
  20
 473.23372819884
  30
0.0
  11
 998.15994764311
  21
 473.23372819884
  31
0.0
   0
LINE
   5
5DB
 100
AcDbEntity
   8
LEVEL001
 370
15
 100
AcDbLine
   6
HIDDEN
  62
2
  10
 998.15994764311
  20
 473.23372819884
  30
0.0
  11
 999.85994764311
  21
 471.53372819884
  31
0.0
   0
LINE
   5
5DC
 100
AcDbEntity
   8
LEVEL001
 370
15
 100
AcDbLine
   6
HIDDEN
  62
2
  10
 991.65994764311
  20
 471.23372819884
  30
0.0
  11
 991.65994764311
  21
 471.53372819884
  31
0.0
   0
LINE
   5
5DD
 100
AcDbEntity
   8
LEVEL001
 370
15
 100
AcDbLine
   6
HIDDEN
  62
2
  10
 991.65994764311
  20
 471.53372819884
  30
0.0
  11
 999.85994764311
  21
 471.53372819884
  31
0.0
   0
LINE
   5
5DE
 100
AcDbEntity
   8
LEVEL001
 370
15
 100
AcDbLine
   6
HIDDEN
  62
2
  10
 999.85994764311
  20
 471.53372819884
  30
0.0
  11
 999.85994764311
  21
 471.23372819884
  31
0.0
   0
LINE
   5
5DF
 100
AcDbEntity
   8
LEVEL001
 370
15
 100
AcDbLine
   6
HIDDEN
  62
2
  10
 993.35994764311
  20
 473.23372819884
  30
0.0
  11
 993.35994764311
  21
 475.23372819884
  31
0.0
   0
LINE
   5
5E0
 100
AcDbEntity
   8
LEVEL001
 370
15
 100
AcDbLine
   6
HIDDEN
  62
2
  10
 998.15994764311
  20
 473.23372819884
  30
0.0
  11
 998.15994764311
  21
 475.23372819884
  31
0.0
   0
LINE
   5
5E1
 100
AcDbEntity
   8
LEVEL001
 370
15
 100
AcDbLine
   6
DASHDOT
  62
8
  10
 995.75994764311
  20
 477.53002787939
  30
0.0
  11
 995.75994764311
  21
 468.93742851829
  31
0.0
   0
LINE
   5
5E2
 100
AcDbEntity
   8
LEVEL001
 370
15
 100
AcDbLine
   6
HIDDEN
  62
2
  10
 1017.6407097566
  20
 471.53372819884
  30
0.0
  11
 1019.3407097566
  21
 473.23372819884
  31
0.0
   0
LINE
   5
5E3
 100
AcDbEntity
   8
LEVEL001
 370
15
 100
AcDbLine
   6
HIDDEN
  62
2
  10
 1019.3407097566
  20
 473.23372819884
  30
0.0
  11
 1024.1407097566
  21
 473.23372819884
  31
0.0
   0
LINE
   5
5E4
 100
AcDbEntity
   8
LEVEL001
 370
15
 100
AcDbLine
   6
HIDDEN
  62
2
  10
 1024.1407097566
  20
 473.23372819884
  30
0.0
  11
 1025.8407097566
  21
 471.53372819884
  31
0.0
   0
LINE
   5
5E5
 100
AcDbEntity
   8
LEVEL001
 370
15
 100
AcDbLine
   6
HIDDEN
  62
2
  10
 1017.6407097566
  20
 471.23372819884
  30
0.0
  11
 1017.6407097566
  21
 471.53372819884
  31
0.0
   0
LINE
   5
5E6
 100
AcDbEntity
   8
LEVEL001
 370
15
 100
AcDbLine
   6
HIDDEN
  62
2
  10
 1017.6407097566
  20
 471.53372819884
  30
0.0
  11
 1025.8407097566
  21
 471.53372819884
  31
0.0
   0
LINE
   5
5E7
 100
AcDbEntity
   8
LEVEL001
 370
15
 100
AcDbLine
   6
HIDDEN
  62
2
  10
 1025.8407097566
  20
 471.53372819884
  30
0.0
  11
 1025.8407097566
  21
 471.23372819884
  31
0.0
   0
LINE
   5
5E8
 100
AcDbEntity
   8
LEVEL001
 370
15
 100
AcDbLine
   6
HIDDEN
  62
2
  10
 1019.3407097566
  20
 473.23372819884
  30
0.0
  11
 1019.3407097566
  21
 475.23372819884
  31
0.0
   0
LINE
   5
5E9
 100
AcDbEntity
   8
LEVEL001
 370
15
 100
AcDbLine
   6
HIDDEN
  62
2
  10
 1024.1407097566
  20
 473.23372819884
  30
0.0
  11
 1024.1407097566
  21
 475.23372819884
  31
0.0
   0
LINE
   5
5EA
 100
AcDbEntity
   8
LEVEL001
 370
15
 100
AcDbLine
   6
DASHDOT
  62
8
  10
 1021.7407097566
  20
 477.53002787939
  30
0.0
  11
 1021.7407097566
  21
 468.93742851829
  31
0.0
   0
LINE
   5
5EB
 100
AcDbEntity
   8
LEVEL001
 370
15
 100
AcDbLine
   6
HIDDEN
  62
2
  10
 1004.6503286999
  20
 471.53372819884
  30
0.0
  11
 1006.3503286999
  21
 473.23372819884
  31
0.0
   0
LINE
   5
5EC
 100
AcDbEntity
   8
LEVEL001
 370
15
 100
AcDbLine
   6
HIDDEN
  62
2
  10
 1006.3503286999
  20
 473.23372819884
  30
0.0
  11
 1011.1503286999
  21
 473.23372819884
  31
0.0
   0
LINE
   5
5ED
 100
AcDbEntity
   8
LEVEL001
 370
15
 100
AcDbLine
   6
HIDDEN
  62
2
  10
 1011.1503286999
  20
 473.23372819884
  30
0.0
  11
 1012.8503286999
  21
 471.53372819884
  31
0.0
   0
LINE
   5
5EE
 100
AcDbEntity
   8
LEVEL001
 370
15
 100
AcDbLine
   6
HIDDEN
  62
2
  10
 1004.6503286999
  20
 471.23372819884
  30
0.0
  11
 1004.6503286999
  21
 471.53372819884
  31
0.0
   0
LINE
   5
5EF
 100
AcDbEntity
   8
LEVEL001
 370
15
 100
AcDbLine
   6
HIDDEN
  62
2
  10
 1004.6503286999
  20
 471.53372819884
  30
0.0
  11
 1012.8503286999
  21
 471.53372819884
  31
0.0
   0
LINE
   5
5F0
 100
AcDbEntity
   8
LEVEL001
 370
15
 100
AcDbLine
   6
HIDDEN
  62
2
  10
 1012.8503286999
  20
 471.53372819884
  30
0.0
  11
 1012.8503286999
  21
 471.23372819884
  31
0.0
   0
LINE
   5
5F1
 100
AcDbEntity
   8
LEVEL001
 370
15
 100
AcDbLine
   6
HIDDEN
  62
2
  10
 1006.3503286999
  20
 473.23372819884
  30
0.0
  11
 1006.3503286999
  21
 475.23372819884
  31
0.0
   0
LINE
   5
5F2
 100
AcDbEntity
   8
LEVEL001
 370
15
 100
AcDbLine
   6
HIDDEN
  62
2
  10
 1011.1503286999
  20
 473.23372819884
  30
0.0
  11
 1011.1503286999
  21
 475.23372819884
  31
0.0
   0
LINE
   5
5F3
 100
AcDbEntity
   8
LEVEL001
 370
20
 100
AcDbLine
   6
CONTINUOUS
  62
7
  10
 1015.2503286999
  20
 471.23372819884
  30
0.0
  11
 1029.7503286999
  21
 471.23372819884
  31
0.0
   0
LINE
   5
5F4
 100
AcDbEntity
   8
LEVEL001
 370
20
 100
AcDbLine
   6
CONTINUOUS
  62
7
  10
 1031.2503286999
  20
 472.73372819884
  30
0.0
  11
 986.25032869988
  21
 472.73372819884
  31
0.0
   0
LINE
   5
5F5
 100
AcDbEntity
   8
LEVEL001
 370
20
 100
AcDbLine
   6
CONTINUOUS
  62
7
  10
 1031.2503286999
  20
 475.23372819884
  30
0.0
  11
 986.25032869988
  21
 475.23372819884
  31
0.0
   0
LINE
   5
5F6
 100
AcDbEntity
   8
LEVEL001
 370
20
 100
AcDbLine
   6
CONTINUOUS
  62
7
  10
 1031.2503286999
  20
 475.23372819884
  30
0.0
  11
 1031.2503286999
  21
 472.73372819884
  31
0.0
   0
LINE
   5
5F7
 100
AcDbEntity
   8
LEVEL001
 370
20
 100
AcDbLine
   6
CONTINUOUS
  62
7
  10
 1031.2503286999
  20
 472.73372819884
  30
0.0
  11
 1029.7503286999
  21
 471.23372819884
  31
0.0
   0
LINE
   5
5F8
 100
AcDbEntity
   8
LEVEL001
 370
20
 100
AcDbLine
   6
CONTINUOUS
  62
7
  10
 987.75032869988
  20
 471.23372819884
  30
0.0
  11
 1002.2503286999
  21
 471.23372819884
  31
0.0
   0
LINE
   5
5F9
 100
AcDbEntity
   8
LEVEL001
 370
20
 100
AcDbLine
   6
CONTINUOUS
  62
7
  10
 986.25032869988
  20
 475.23372819884
  30
0.0
  11
 986.25032869988
  21
 472.73372819884
  31
0.0
   0
LINE
   5
5FA
 100
AcDbEntity
   8
LEVEL001
 370
20
 100
AcDbLine
   6
CONTINUOUS
  62
7
  10
 986.25032869988
  20
 472.73372819884
  30
0.0
  11
 987.75032869988
  21
 471.23372819884
  31
0.0
   0
LINE
   5
5FB
 100
AcDbEntity
   8
LEVEL001
 370
20
 100
AcDbLine
   6
CONTINUOUS
  62
7
  10
 1015.2503286999
  20
 471.23372819884
  30
0.0
  11
 1002.2503286999
  21
 471.23372819884
  31
0.0
   0
LINE
   5
5FC
 100
AcDbEntity
   8
LEVEL001
 370
15
 100
AcDbLine
   6
DASHDOT
  62
8
  10
 405.75032870007
  20
 385.09948385672
  30
0.0
  11
 405.75032870007
  21
 485.34178111584
  31
0.0
   0
LINE
   5
5FD
 100
AcDbEntity
   8
LEVEL001
 370
20
 100
AcDbLine
   6
CONTINUOUS
  62
7
  10
 399.25032870008
  20
 412.35911197202
  30
0.0
  11
 399.25032870008
  21
 472.35911197202
  31
0.0
   0
LINE
   5
5FE
 100
AcDbEntity
   8
LEVEL001
 370
20
 100
AcDbLine
   6
CONTINUOUS
  62
7
  10
 412.25032870008
  20
 472.35911197202
  30
0.0
  11
 412.25032870008
  21
 412.35911197202
  31
0.0
   0
LINE
   5
5FF
 100
AcDbEntity
   8
LEVEL001
 370
15
 100
AcDbLine
   6
DASHDOT
  62
8
  10
 1008.7503286999
  20
 383.97410008353
  30
0.0
  11
 1008.7503286999
  21
 484.75364410664
  31
0.0
   0
LINE
   5
600
 100
AcDbEntity
   8
LEVEL001
 370
15
 100
AcDbLine
   6
HIDDEN
  62
2
  10
 1002.2503286999
  20
 401.23372819884
  30
0.0
  11
 1002.2503286999
  21
 413.73372819884
  31
0.0
   0
LINE
   5
601
 100
AcDbEntity
   8
LEVEL001
 370
15
 100
AcDbLine
   6
HIDDEN
  62
2
  10
 1015.2503286999
  20
 413.73372819884
  30
0.0
  11
 1015.2503286999
  21
 401.23372819884
  31
0.0
   0
LINE
   5
602
 100
AcDbEntity
   8
LEVEL001
 370
20
 100
AcDbLine
   6
CONTINUOUS
  62
7
  10
 1002.2503286999
  20
 413.73372819884
  30
0.0
  11
 1002.2503286999
  21
 471.23372819884
  31
0.0
   0
LINE
   5
603
 100
AcDbEntity
   8
LEVEL001
 370
20
 100
AcDbLine
   6
CONTINUOUS
  62
7
  10
 1015.2503286999
  20
 471.23372819884
  30
0.0
  11
 1015.2503286999
  21
 413.73372819884
  31
0.0
   0
LINE
   5
604
 100
AcDbEntity
   8
LEVEL001
 370
15
 100
AcDbLine
   6
HIDDEN
  62
2
  10
 399.29665718043
  20
 957.10047435941
  30
0.0
  11
 399.29665718043
  21
 967.10047435941
  31
0.0
   0
LINE
   5
605
 100
AcDbEntity
   8
LEVEL001
 370
15
 100
AcDbLine
   6
HIDDEN
  62
2
  10
 415.29665718043
  20
 967.10047435941
  30
0.0
  11
 415.29665718043
  21
 957.10047435941
  31
0.0
   0
LINE
   5
606
 100
AcDbEntity
   8
LEVEL001
 370
20
 100
AcDbLine
   6
CONTINUOUS
  62
7
  10
 434.79665718043
  20
 1028.6004743594
  30
0.0
  11
 379.79665718043
  21
 1028.6004743594
  31
0.0
   0
LINE
   5
607
 100
AcDbEntity
   8
LEVEL001
 370
20
 100
AcDbLine
   6
CONTINUOUS
  62
7
  10
 381.29665718043
  20
 1027.1004743594
  30
0.0
  11
 433.29665718043
  21
 1027.1004743594
  31
0.0
   0
LINE
   5
608
 100
AcDbEntity
   8
LEVEL001
 370
20
 100
AcDbLine
   6
CONTINUOUS
  62
7
  10
 433.29665718043
  20
 1027.1004743594
  30
0.0
  11
 434.79665718043
  21
 1028.6004743594
  31
0.0
   0
LINE
   5
609
 100
AcDbEntity
   8
LEVEL001
 370
20
 100
AcDbLine
   6
CONTINUOUS
  62
7
  10
 434.79665718043
  20
 1030.6004743594
  30
0.0
  11
 379.79665718043
  21
 1030.6004743594
  31
0.0
   0
LINE
   5
60A
 100
AcDbEntity
   8
LEVEL001
 370
20
 100
AcDbLine
   6
CONTINUOUS
  62
7
  10
 434.79665718043
  20
 1028.6004743594
  30
0.0
  11
 434.79665718043
  21
 1030.6004743594
  31
0.0
   0
LINE
   5
60B
 100
AcDbEntity
   8
LEVEL001
 370
20
 100
AcDbLine
   6
CONTINUOUS
  62
7
  10
 379.79665718043
  20
 1028.6004743594
  30
0.0
  11
 381.29665718043
  21
 1027.1004743594
  31
0.0
   0
LINE
   5
60C
 100
AcDbEntity
   8
LEVEL001
 370
20
 100
AcDbLine
   6
CONTINUOUS
  62
7
  10
 379.79665718043
  20
 1030.6004743594
  30
0.0
  11
 379.79665718043
  21
 1028.6004743594
  31
0.0
   0
LINE
   5
60D
 100
AcDbEntity
   8
LEVEL001
 370
15
 100
AcDbLine
   6
HIDDEN
  62
2
  10
 387.17518721033
  20
 1027.4004743594
  30
0.0
  11
 388.87518721033
  21
 1029.1004743594
  31
0.0
   0
LINE
   5
60E
 100
AcDbEntity
   8
LEVEL001
 370
15
 100
AcDbLine
   6
HIDDEN
  62
2
  10
 388.87518721033
  20
 1029.1004743594
  30
0.0
  11
 393.67518721033
  21
 1029.1004743594
  31
0.0
   0
LINE
   5
60F
 100
AcDbEntity
   8
LEVEL001
 370
15
 100
AcDbLine
   6
HIDDEN
  62
2
  10
 393.67518721033
  20
 1029.1004743594
  30
0.0
  11
 395.37518721033
  21
 1027.4004743594
  31
0.0
   0
LINE
   5
610
 100
AcDbEntity
   8
LEVEL001
 370
15
 100
AcDbLine
   6
HIDDEN
  62
2
  10
 387.17518721033
  20
 1027.1004743594
  30
0.0
  11
 387.17518721033
  21
 1027.4004743594
  31
0.0
   0
LINE
   5
611
 100
AcDbEntity
   8
LEVEL001
 370
15
 100
AcDbLine
   6
HIDDEN
  62
2
  10
 387.17518721033
  20
 1027.4004743594
  30
0.0
  11
 395.37518721033
  21
 1027.4004743594
  31
0.0
   0
LINE
   5
612
 100
AcDbEntity
   8
LEVEL001
 370
15
 100
AcDbLine
   6
HIDDEN
  62
2
  10
 395.37518721033
  20
 1027.4004743594
  30
0.0
  11
 395.37518721033
  21
 1027.1004743594
  31
0.0
   0
LINE
   5
613
 100
AcDbEntity
   8
LEVEL001
 370
15
 100
AcDbLine
   6
HIDDEN
  62
2
  10
 388.87518721033
  20
 1029.1004743594
  30
0.0
  11
 388.87518721033
  21
 1030.6004743594
  31
0.0
   0
LINE
   5
614
 100
AcDbEntity
   8
LEVEL001
 370
15
 100
AcDbLine
   6
HIDDEN
  62
2
  10
 393.67518721033
  20
 1029.1004743594
  30
0.0
  11
 393.67518721033
  21
 1030.6004743594
  31
0.0
   0
LINE
   5
615
 100
AcDbEntity
   8
LEVEL001
 370
15
 100
AcDbLine
   6
DASHDOT
  62
8
  10
 391.27518721033
  20
 1032.8967740400
  30
0.0
  11
 391.27518721033
  21
 1024.8041746789
  31
0.0
   0
LINE
   5
616
 100
AcDbEntity
   8
LEVEL001
 370
15
 100
AcDbLine
   6
HIDDEN
  62
2
  10
 419.21812715035
  20
 1027.4004743594
  30
0.0
  11
 420.91812715035
  21
 1029.1004743594
  31
0.0
   0
LINE
   5
617
 100
AcDbEntity
   8
LEVEL001
 370
15
 100
AcDbLine
   6
HIDDEN
  62
2
  10
 420.91812715035
  20
 1029.1004743594
  30
0.0
  11
 425.71812715035
  21
 1029.1004743594
  31
0.0
   0
LINE
   5
618
 100
AcDbEntity
   8
LEVEL001
 370
15
 100
AcDbLine
   6
HIDDEN
  62
2
  10
 425.71812715035
  20
 1029.1004743594
  30
0.0
  11
 427.41812715035
  21
 1027.4004743594
  31
0.0
   0
LINE
   5
619
 100
AcDbEntity
   8
LEVEL001
 370
15
 100
AcDbLine
   6
HIDDEN
  62
2
  10
 419.21812715035
  20
 1027.1004743594
  30
0.0
  11
 419.21812715035
  21
 1027.4004743594
  31
0.0
   0
LINE
   5
61A
 100
AcDbEntity
   8
LEVEL001
 370
15
 100
AcDbLine
   6
HIDDEN
  62
2
  10
 419.21812715035
  20
 1027.4004743594
  30
0.0
  11
 427.41812715035
  21
 1027.4004743594
  31
0.0
   0
LINE
   5
61B
 100
AcDbEntity
   8
LEVEL001
 370
15
 100
AcDbLine
   6
HIDDEN
  62
2
  10
 427.41812715035
  20
 1027.4004743594
  30
0.0
  11
 427.41812715035
  21
 1027.1004743594
  31
0.0
   0
LINE
   5
61C
 100
AcDbEntity
   8
LEVEL001
 370
15
 100
AcDbLine
   6
HIDDEN
  62
2
  10
 420.91812715035
  20
 1029.1004743594
  30
0.0
  11
 420.91812715035
  21
 1030.6004743594
  31
0.0
   0
LINE
   5
61D
 100
AcDbEntity
   8
LEVEL001
 370
15
 100
AcDbLine
   6
HIDDEN
  62
2
  10
 425.71812715035
  20
 1029.1004743594
  30
0.0
  11
 425.71812715035
  21
 1030.6004743594
  31
0.0
   0
LINE
   5
61E
 100
AcDbEntity
   8
LEVEL001
 370
15
 100
AcDbLine
   6
DASHDOT
  62
8
  10
 423.31812715035
  20
 1032.8967740400
  30
0.0
  11
 423.31812715035
  21
 1024.8041746789
  31
0.0
   0
LINE
   5
61F
 100
AcDbEntity
   8
LEVEL001
 370
15
 100
AcDbLine
   6
HIDDEN
  62
2
  10
 403.19665718043
  20
 1027.4004743594
  30
0.0
  11
 404.89665718043
  21
 1029.1004743594
  31
0.0
   0
LINE
   5
620
 100
AcDbEntity
   8
LEVEL001
 370
15
 100
AcDbLine
   6
HIDDEN
  62
2
  10
 404.89665718043
  20
 1029.1004743594
  30
0.0
  11
 409.69665718043
  21
 1029.1004743594
  31
0.0
   0
LINE
   5
621
 100
AcDbEntity
   8
LEVEL001
 370
15
 100
AcDbLine
   6
HIDDEN
  62
2
  10
 409.69665718043
  20
 1029.1004743594
  30
0.0
  11
 411.39665718043
  21
 1027.4004743594
  31
0.0
   0
LINE
   5
622
 100
AcDbEntity
   8
LEVEL001
 370
15
 100
AcDbLine
   6
HIDDEN
  62
2
  10
 403.19665718043
  20
 1027.1004743594
  30
0.0
  11
 403.19665718043
  21
 1027.4004743594
  31
0.0
   0
LINE
   5
623
 100
AcDbEntity
   8
LEVEL001
 370
15
 100
AcDbLine
   6
HIDDEN
  62
2
  10
 403.19665718043
  20
 1027.4004743594
  30
0.0
  11
 411.39665718043
  21
 1027.4004743594
  31
0.0
   0
LINE
   5
624
 100
AcDbEntity
   8
LEVEL001
 370
15
 100
AcDbLine
   6
HIDDEN
  62
2
  10
 411.39665718043
  20
 1027.4004743594
  30
0.0
  11
 411.39665718043
  21
 1027.1004743594
  31
0.0
   0
LINE
   5
625
 100
AcDbEntity
   8
LEVEL001
 370
15
 100
AcDbLine
   6
HIDDEN
  62
2
  10
 404.89665718043
  20
 1029.1004743594
  30
0.0
  11
 404.89665718043
  21
 1030.6004743594
  31
0.0
   0
LINE
   5
626
 100
AcDbEntity
   8
LEVEL001
 370
15
 100
AcDbLine
   6
HIDDEN
  62
2
  10
 409.69665718043
  20
 1029.1004743594
  30
0.0
  11
 409.69665718043
  21
 1030.6004743594
  31
0.0
   0
LINE
   5
627
 100
AcDbEntity
   8
LEVEL001
 370
15
 100
AcDbLine
   6
DASHDOT
  62
8
  10
 407.29665718043
  20
 936.84084624411
  30
0.0
  11
 407.29665718043
  21
 1037.2735550008
  31
0.0
   0
LINE
   5
628
 100
AcDbEntity
   8
LEVEL001
 370
20
 100
AcDbLine
   6
CONTINUOUS
  62
7
  10
 399.29665718043
  20
 967.10047435941
  30
0.0
  11
 399.29665718043
  21
 1027.1004743594
  31
0.0
   0
LINE
   5
629
 100
AcDbEntity
   8
LEVEL001
 370
20
 100
AcDbLine
   6
CONTINUOUS
  62
7
  10
 415.29665718043
  20
 1027.1004743594
  30
0.0
  11
 415.29665718043
  21
 967.10047435941
  31
0.0
   0
LINE
   5
62A
 100
AcDbEntity
   8
LEVEL001
 370
20
 100
AcDbLine
   6
CONTINUOUS
  62
7
  10
 1037.7966571804
  20
 1028.6004743594
  30
0.0
  11
 982.79665718043
  21
 1028.6004743594
  31
0.0
   0
LINE
   5
62B
 100
AcDbEntity
   8
LEVEL001
 370
20
 100
AcDbLine
   6
CONTINUOUS
  62
7
  10
 984.29665718043
  20
 1027.1004743594
  30
0.0
  11
 1036.2966571804
  21
 1027.1004743594
  31
0.0
   0
LINE
   5
62C
 100
AcDbEntity
   8
LEVEL001
 370
20
 100
AcDbLine
   6
CONTINUOUS
  62
7
  10
 1036.2966571804
  20
 1027.1004743594
  30
0.0
  11
 1037.7966571804
  21
 1028.6004743594
  31
0.0
   0
LINE
   5
62D
 100
AcDbEntity
   8
LEVEL001
 370
20
 100
AcDbLine
   6
CONTINUOUS
  62
7
  10
 1037.7966571804
  20
 1030.6004743594
  30
0.0
  11
 982.79665718043
  21
 1030.6004743594
  31
0.0
   0
LINE
   5
62E
 100
AcDbEntity
   8
LEVEL001
 370
20
 100
AcDbLine
   6
CONTINUOUS
  62
7
  10
 1037.7966571804
  20
 1028.6004743594
  30
0.0
  11
 1037.7966571804
  21
 1030.6004743594
  31
0.0
   0
LINE
   5
62F
 100
AcDbEntity
   8
LEVEL001
 370
20
 100
AcDbLine
   6
CONTINUOUS
  62
7
  10
 982.79665718043
  20
 1028.6004743594
  30
0.0
  11
 984.29665718043
  21
 1027.1004743594
  31
0.0
   0
LINE
   5
630
 100
AcDbEntity
   8
LEVEL001
 370
20
 100
AcDbLine
   6
CONTINUOUS
  62
7
  10
 982.79665718043
  20
 1030.6004743594
  30
0.0
  11
 982.79665718043
  21
 1028.6004743594
  31
0.0
   0
LINE
   5
631
 100
AcDbEntity
   8
LEVEL001
 370
15
 100
AcDbLine
   6
HIDDEN
  62
2
  10
 990.17518721033
  20
 1027.4004743594
  30
0.0
  11
 991.87518721033
  21
 1029.1004743594
  31
0.0
   0
LINE
   5
632
 100
AcDbEntity
   8
LEVEL001
 370
15
 100
AcDbLine
   6
HIDDEN
  62
2
  10
 991.87518721033
  20
 1029.1004743594
  30
0.0
  11
 996.67518721033
  21
 1029.1004743594
  31
0.0
   0
LINE
   5
633
 100
AcDbEntity
   8
LEVEL001
 370
15
 100
AcDbLine
   6
HIDDEN
  62
2
  10
 996.67518721033
  20
 1029.1004743594
  30
0.0
  11
 998.37518721033
  21
 1027.4004743594
  31
0.0
   0
LINE
   5
634
 100
AcDbEntity
   8
LEVEL001
 370
15
 100
AcDbLine
   6
HIDDEN
  62
2
  10
 990.17518721033
  20
 1027.1004743594
  30
0.0
  11
 990.17518721033
  21
 1027.4004743594
  31
0.0
   0
LINE
   5
635
 100
AcDbEntity
   8
LEVEL001
 370
15
 100
AcDbLine
   6
HIDDEN
  62
2
  10
 990.17518721033
  20
 1027.4004743594
  30
0.0
  11
 998.37518721033
  21
 1027.4004743594
  31
0.0
   0
LINE
   5
636
 100
AcDbEntity
   8
LEVEL001
 370
15
 100
AcDbLine
   6
HIDDEN
  62
2
  10
 998.37518721033
  20
 1027.4004743594
  30
0.0
  11
 998.37518721033
  21
 1027.1004743594
  31
0.0
   0
LINE
   5
637
 100
AcDbEntity
   8
LEVEL001
 370
15
 100
AcDbLine
   6
HIDDEN
  62
2
  10
 991.87518721033
  20
 1029.1004743594
  30
0.0
  11
 991.87518721033
  21
 1030.6004743594
  31
0.0
   0
LINE
   5
638
 100
AcDbEntity
   8
LEVEL001
 370
15
 100
AcDbLine
   6
HIDDEN
  62
2
  10
 996.67518721033
  20
 1029.1004743594
  30
0.0
  11
 996.67518721033
  21
 1030.6004743594
  31
0.0
   0
LINE
   5
639
 100
AcDbEntity
   8
LEVEL001
 370
15
 100
AcDbLine
   6
DASHDOT
  62
8
  10
 994.27518721033
  20
 1032.8967740400
  30
0.0
  11
 994.27518721033
  21
 1024.8041746789
  31
0.0
   0
LINE
   5
63A
 100
AcDbEntity
   8
LEVEL001
 370
15
 100
AcDbLine
   6
HIDDEN
  62
2
  10
 1022.2181271504
  20
 1027.4004743594
  30
0.0
  11
 1023.9181271504
  21
 1029.1004743594
  31
0.0
   0
LINE
   5
63B
 100
AcDbEntity
   8
LEVEL001
 370
15
 100
AcDbLine
   6
HIDDEN
  62
2
  10
 1023.9181271504
  20
 1029.1004743594
  30
0.0
  11
 1028.7181271504
  21
 1029.1004743594
  31
0.0
   0
LINE
   5
63C
 100
AcDbEntity
   8
LEVEL001
 370
15
 100
AcDbLine
   6
HIDDEN
  62
2
  10
 1028.7181271504
  20
 1029.1004743594
  30
0.0
  11
 1030.4181271504
  21
 1027.4004743594
  31
0.0
   0
LINE
   5
63D
 100
AcDbEntity
   8
LEVEL001
 370
15
 100
AcDbLine
   6
HIDDEN
  62
2
  10
 1022.2181271504
  20
 1027.1004743594
  30
0.0
  11
 1022.2181271504
  21
 1027.4004743594
  31
0.0
   0
LINE
   5
63E
 100
AcDbEntity
   8
LEVEL001
 370
15
 100
AcDbLine
   6
HIDDEN
  62
2
  10
 1022.2181271504
  20
 1027.4004743594
  30
0.0
  11
 1030.4181271504
  21
 1027.4004743594
  31
0.0
   0
LINE
   5
63F
 100
AcDbEntity
   8
LEVEL001
 370
15
 100
AcDbLine
   6
HIDDEN
  62
2
  10
 1030.4181271504
  20
 1027.4004743594
  30
0.0
  11
 1030.4181271504
  21
 1027.1004743594
  31
0.0
   0
LINE
   5
640
 100
AcDbEntity
   8
LEVEL001
 370
15
 100
AcDbLine
   6
HIDDEN
  62
2
  10
 1023.9181271504
  20
 1029.1004743594
  30
0.0
  11
 1023.9181271504
  21
 1030.6004743594
  31
0.0
   0
LINE
   5
641
 100
AcDbEntity
   8
LEVEL001
 370
15
 100
AcDbLine
   6
HIDDEN
  62
2
  10
 1028.7181271504
  20
 1029.1004743594
  30
0.0
  11
 1028.7181271504
  21
 1030.6004743594
  31
0.0
   0
LINE
   5
642
 100
AcDbEntity
   8
LEVEL001
 370
15
 100
AcDbLine
   6
DASHDOT
  62
8
  10
 1026.3181271504
  20
 1032.8967740400
  30
0.0
  11
 1026.3181271504
  21
 1024.8041746789
  31
0.0
   0
LINE
   5
643
 100
AcDbEntity
   8
LEVEL001
 370
15
 100
AcDbLine
   6
HIDDEN
  62
2
  10
 1006.1966571804
  20
 1027.4004743594
  30
0.0
  11
 1007.8966571804
  21
 1029.1004743594
  31
0.0
   0
LINE
   5
644
 100
AcDbEntity
   8
LEVEL001
 370
15
 100
AcDbLine
   6
HIDDEN
  62
2
  10
 1007.8966571804
  20
 1029.1004743594
  30
0.0
  11
 1012.6966571804
  21
 1029.1004743594
  31
0.0
   0
LINE
   5
645
 100
AcDbEntity
   8
LEVEL001
 370
15
 100
AcDbLine
   6
HIDDEN
  62
2
  10
 1012.6966571804
  20
 1029.1004743594
  30
0.0
  11
 1014.3966571804
  21
 1027.4004743594
  31
0.0
   0
LINE
   5
646
 100
AcDbEntity
   8
LEVEL001
 370
15
 100
AcDbLine
   6
HIDDEN
  62
2
  10
 1006.1966571804
  20
 1027.1004743594
  30
0.0
  11
 1006.1966571804
  21
 1027.4004743594
  31
0.0
   0
LINE
   5
647
 100
AcDbEntity
   8
LEVEL001
 370
15
 100
AcDbLine
   6
HIDDEN
  62
2
  10
 1006.1966571804
  20
 1027.4004743594
  30
0.0
  11
 1014.3966571804
  21
 1027.4004743594
  31
0.0
   0
LINE
   5
648
 100
AcDbEntity
   8
LEVEL001
 370
15
 100
AcDbLine
   6
HIDDEN
  62
2
  10
 1014.3966571804
  20
 1027.4004743594
  30
0.0
  11
 1014.3966571804
  21
 1027.1004743594
  31
0.0
   0
LINE
   5
649
 100
AcDbEntity
   8
LEVEL001
 370
15
 100
AcDbLine
   6
HIDDEN
  62
2
  10
 1007.8966571804
  20
 1029.1004743594
  30
0.0
  11
 1007.8966571804
  21
 1030.6004743594
  31
0.0
   0
LINE
   5
64A
 100
AcDbEntity
   8
LEVEL001
 370
15
 100
AcDbLine
   6
HIDDEN
  62
2
  10
 1012.6966571804
  20
 1029.1004743594
  30
0.0
  11
 1012.6966571804
  21
 1030.6004743594
  31
0.0
   0
LINE
   5
64B
 100
AcDbEntity
   8
LEVEL001
 370
15
 100
AcDbLine
   6
DASHDOT
  62
8
  10
 1010.2966571804
  20
 939.84084624390
  30
0.0
  11
 1010.2966571804
  21
 1035.1927047269
  31
0.0
   0
LINE
   5
64C
 100
AcDbEntity
   8
LEVEL001
 370
15
 100
AcDbLine
   6
HIDDEN
  62
2
  10
 1002.2966571804
  20
 957.10047435921
  30
0.0
  11
 1002.2966571804
  21
 969.60047435921
  31
0.0
   0
LINE
   5
64D
 100
AcDbEntity
   8
LEVEL001
 370
15
 100
AcDbLine
   6
HIDDEN
  62
2
  10
 1018.2966571804
  20
 969.60047435921
  30
0.0
  11
 1018.2966571804
  21
 957.10047435921
  31
0.0
   0
LINE
   5
64E
 100
AcDbEntity
   8
LEVEL001
 370
20
 100
AcDbLine
   6
CONTINUOUS
  62
7
  10
 1002.2966571804
  20
 969.60047435921
  30
0.0
  11
 1002.2966571804
  21
 1027.1004743594
  31
0.0
   0
LINE
   5
64F
 100
AcDbEntity
   8
LEVEL001
 370
20
 100
AcDbLine
   6
CONTINUOUS
  62
7
  10
 1018.2966571804
  20
 1027.1004743594
  30
0.0
  11
 1018.2966571804
  21
 969.60047435921
  31
0.0
   0
LEADER
   5
650
 100
AcDbEntity
   8
0
 370
15
   6
CONTINUOUS
  62
8
 100
AcDbLeader
   3
GMM008
  73
0
  74
0
  75
0
  40
 10.000000000000
  41
 62.000000000000
  76
2
  10
 421.76127485819
  20
 250.78759715787
  30
0.0
  10
 448.94839126336
  20
 237.48553284316
  30
0.0
  77
8
 340
651
 213
0.0
 223
-4.0000000000000
 233
0.0
   0
MTEXT
   5
651
 102
{ACAD_REACTORS
 330
650
 102
}
 100
AcDbEntity
   8
0
 370
15
  62
8
 100
AcDbMText
  10
 448.94839126336
  20
 241.48553284316
  30
0.0
  40
 10.000000000000
  41
0.0
  71
7
  72
1
   1
\A1;下穴%%c５/皿%%c８
   7
GMM001
   0
LEADER
   5
652
 100
AcDbEntity
   8
0
 370
15
   6
CONTINUOUS
  62
8
 100
AcDbLeader
   3
GMM008
  73
0
  74
0
  75
0
  40
 10.000000000000
  41
 62.000000000000
  76
2
  10
 439.18232904480
  20
 397.26848007348
  30
0.0
  10
 462.95037839871
  20
 367.75061942903
  30
0.0
  77
8
 340
653
 213
0.0
 223
-4.0000000000000
 233
0.0
   0
MTEXT
   5
653
 102
{ACAD_REACTORS
 330
652
 102
}
 100
AcDbEntity
   8
0
 370
15
  62
8
 100
AcDbMText
  10
 462.95037839871
  20
 371.75061942903
  30
0.0
  40
 10.000000000000
  41
0.0
  71
7
  72
1
   1
\A1;下穴%%c５/皿%%c８
   7
GMM001
   0
LEADER
   5
654
 100
AcDbEntity
   8
0
 370
15
   6
CONTINUOUS
  62
8
 100
AcDbLeader
   3
GMM008
  73
0
  74
0
  75
0
  40
 10.000000000000
  41
 62.000000000000
  76
2
  10
 1024.7612748580
  20
 249.66221338468
  30
0.0
  10
 1051.9483912632
  20
 236.36014906998
  30
0.0
  77
8
 340
655
 213
0.0
 223
-4.0000000000000
 233
0.0
   0
MTEXT
   5
655
 102
{ACAD_REACTORS
 330
654
 102
}
 100
AcDbEntity
   8
0
 370
15
  62
8
 100
AcDbMText
  10
 1051.9483912632
  20
 240.36014906998
  30
0.0
  40
 10.000000000000
  41
0.0
  71
7
  72
1
   1
\A1;下穴%%c５/皿%%c８
   7
GMM001
   0
LEADER
   5
656
 100
AcDbEntity
   8
0
 370
15
   6
CONTINUOUS
  62
8
 100
AcDbLeader
   3
GMM008
  73
0
  74
0
  75
0
  40
 10.000000000000
  41
 62.000000000000
  76
2
  10
 1042.1823290446
  20
 393.64309630029
  30
0.0
  10
 1065.9503783985
  20
 364.12523565584
  30
0.0
  77
8
 340
657
 213
0.0
 223
-4.0000000000000
 233
0.0
   0
MTEXT
   5
657
 102
{ACAD_REACTORS
 330
656
 102
}
 100
AcDbEntity
   8
0
 370
15
  62
8
 100
AcDbMText
  10
 1065.9503783985
  20
 368.12523565584
  30
0.0
  40
 10.000000000000
  41
0.0
  71
7
  72
1
   1
\A1;下穴%%c５/皿%%c８
   7
GMM001
   0
LEADER
   5
658
 100
AcDbEntity
   8
0
 370
15
   6
CONTINUOUS
  62
8
 100
AcDbLeader
   3
GMM008
  73
0
  74
0
  75
0
  40
 10.000000000000
  41
 62.000000000000
  76
2
  10
 425.04327625122
  20
 798.23271739725
  30
0.0
  10
 449.97460563335
  20
 787.93775393538
  30
0.0
  77
8
 340
659
 213
0.0
 223
-4.0000000000000
 233
0.0
   0
MTEXT
   5
659
 102
{ACAD_REACTORS
 330
658
 102
}
 100
AcDbEntity
   8
0
 370
15
  62
8
 100
AcDbMText
  10
 449.97460563335
  20
 791.93775393538
  30
0.0
  40
 10.000000000000
  41
0.0
  71
7
  72
1
   1
\A1;下穴%%c５/皿%%c８
   7
GMM001
   0
LEADER
   5
65A
 100
AcDbEntity
   8
0
 370
15
   6
CONTINUOUS
  62
8
 100
AcDbLeader
   3
GMM008
  73
0
  74
0
  75
0
  40
 10.000000000000
  41
 62.000000000000
  76
2
  10
 440.72865752517
  20
 952.00984246087
  30
0.0
  10
 464.49670687908
  20
 922.49198181642
  30
0.0
  77
8
 340
65B
 213
0.0
 223
-4.0000000000000
 233
0.0
   0
MTEXT
   5
65B
 102
{ACAD_REACTORS
 330
65A
 102
}
 100
AcDbEntity
   8
0
 370
15
  62
8
 100
AcDbMText
  10
 464.49670687908
  20
 926.49198181642
  30
0.0
  40
 10.000000000000
  41
0.0
  71
7
  72
1
   1
\A1;下穴%%c５/皿%%c８
   7
GMM001
   0
LEADER
   5
65C
 100
AcDbEntity
   8
0
 370
15
   6
CONTINUOUS
  62
8
 100
AcDbLeader
   3
GMM008
  73
0
  74
0
  75
0
  40
 10.000000000000
  41
 62.000000000000
  76
2
  10
 1028.0432762512
  20
 798.23271739704
  30
0.0
  10
 1052.9746056334
  20
 787.93775393518
  30
0.0
  77
8
 340
65D
 213
0.0
 223
-4.0000000000000
 233
0.0
   0
MTEXT
   5
65D
 102
{ACAD_REACTORS
 330
65C
 102
}
 100
AcDbEntity
   8
0
 370
15
  62
8
 100
AcDbMText
  10
 1052.9746056334
  20
 791.93775393518
  30
0.0
  40
 10.000000000000
  41
0.0
  71
7
  72
1
   1
\A1;下穴%%c５/皿%%c８
   7
GMM001
   0
LEADER
   5
65E
 100
AcDbEntity
   8
0
 370
15
   6
CONTINUOUS
  62
8
 100
AcDbLeader
   3
GMM008
  73
0
  74
0
  75
0
  40
 10.000000000000
  41
 62.000000000000
  76
2
  10
 1043.7286575252
  20
 949.50984246067
  30
0.0
  10
 1067.4967068791
  20
 919.99198181621
  30
0.0
  77
8
 340
65F
 213
0.0
 223
-4.0000000000000
 233
0.0
   0
MTEXT
   5
65F
 102
{ACAD_REACTORS
 330
65E
 102
}
 100
AcDbEntity
   8
0
 370
15
  62
8
 100
AcDbMText
  10
 1067.4967068791
  20
 923.99198181621
  30
0.0
  40
 10.000000000000
  41
0.0
  71
7
  72
1
   1
\A1;下穴%%c５/皿%%c８
   7
GMM001
   0
MTEXT
   5
661
 100
AcDbEntity
   8
LEVEL001
 370
15
  62
8
 100
AcDbMText
  10
 1573.2000000001
  20
 194.66666666668
  30
0.0
  40
 8.0000000000000
  41
0.0
  71
5
  72
1
   1
\T1.000000;平成３１年　２月　１日
   7
GMM001
  44
 0.79999984000003
   0
ENDSEC
  0
SECTION
  2
OBJECTS
  0
DICTIONARY
  5
C
100
AcDbDictionary
  3
ACAD_GROUP
350
D
  3
ACAD_MLINESTYLE
350
1B
  3
DWGPROPS
350
1C
  0
DICTIONARY
  5
D
102
{ACAD_REACTORS
330
C
102
}
100
AcDbDictionary
  0
DICTIONARY
  5
1B
102
{ACAD_REACTORS
330
C
102
}
100
AcDbDictionary
  3
STANDARD
350
1D
  0
MLINESTYLE
  5
1D
102
{ACAD_REACTORS
330
1B
102
}
100
AcDbMlineStyle
  2
STANDARD
 70
     0
  3

 62
   256
 51
90.0
 52
90.0
 71
     2
 49
0.5
 62
   256
  6
BYLAYER
 49
-0.5
 62
   256
  6
BYLAYER
   0
XRECORD
   5
1C
 102
{ACAD_REACTORS
 330
C
 102
}
 330
C
 100
AcDbXrecord
 280
1
   1
DWGPROPS COOKIE
   2
 
   3
 
   4
haruna
   6
 
   7
PIM(16軸･13軸)
   8
haruna
   9

 300
 = 
 301
 = 
 302
 = 
 303
 = 
 304
 = 
 305
 = 
 306
 = 
 307
 = 
 308
 = 
 309
 = 
  40
0.0
  41
 2458515.5000000
  42
 2458519.5000000
   1

  90
10
   0
ENDSEC
   0
EOF
